<?xml version="1.0" encoding="UTF-8" standalone="no"?>
<!DOCTYPE svg  PUBLIC '-//W3C//DTD SVG 1.1//EN'  'http://www.w3.org/Graphics/SVG/1.1/DTD/svg11.dtd'>
<svg xmlns="http://www.w3.org/2000/svg">
<defs>
<font id="LatoTR-Hairline" horiz-adv-x="1160">
<font-face underline-position="-178" font-weight="250" descent="-400" panose-1="2 0 5 3 0 0 0 2 0 4" units-per-em="2000" unicode-range="U+000D-FB02" bbox="-214 -380 2118 1760" x-height="980" underline-thickness="22" font-family="LatoTR" ascent="1600" cap-height="1400"/>
<missing-glyph d="M70 20h853v1360h-853v-1360zM50 1400h893v-1400h-893v1400zM422 241q0 21 14 36t35 15q20 0 34.5 -15t14.5 -36q0 -20 -14.5 -34.5t-34.5 -14.5q-21 0 -35 14.5t-14 34.5zM273 1127q18 18 40 36t49 31.5t59.5 22t70.5 8.5q45 0 87.5 -14t74.5 -40.5t51.5 -65t19.5 -86.5 q0 -54 -17.5 -94t-44 -70t-57.5 -53t-58 -43.5t-45 -41t-19 -46.5l-5 -123h-16v125q0 28 17.5 50t44.5 43t57.5 43.5t57.5 51.5t44.5 67t17.5 90q0 44 -17.5 79t-47 59t-67.5 36.5t-78 12.5q-50 0 -87.5 -14t-63 -31t-39 -31t-16.5 -14q-4 0 -7 3z" horiz-adv-x="993"/>
<glyph glyph-name=".notdef" d="M70 20h853v1360h-853v-1360zM50 1400h893v-1400h-893v1400zM422 241q0 21 14 36t35 15q20 0 34.5 -15t14.5 -36q0 -20 -14.5 -34.5t-34.5 -14.5q-21 0 -35 14.5t-14 34.5zM273 1127q18 18 40 36t49 31.5t59.5 22t70.5 8.5q45 0 87.5 -14t74.5 -40.5t51.5 -65t19.5 -86.5 q0 -54 -17.5 -94t-44 -70t-57.5 -53t-58 -43.5t-45 -41t-19 -46.5l-5 -123h-16v125q0 28 17.5 50t44.5 43t57.5 43.5t57.5 51.5t44.5 67t17.5 90q0 44 -17.5 79t-47 59t-67.5 36.5t-78 12.5q-50 0 -87.5 -14t-63 -31t-39 -31t-16.5 -14q-4 0 -7 3z" horiz-adv-x="993"/>
<glyph glyph-name=".null" horiz-adv-x="0"/>
<glyph glyph-name="nonmarkingreturn" horiz-adv-x="0" unicode=""/>
<glyph glyph-name="NULL" horiz-adv-x="0"/>
<glyph glyph-name="NULL" horiz-adv-x="0"/>
<glyph glyph-name="space" horiz-adv-x="386" unicode=" "/>
<glyph glyph-name="exclam" horiz-adv-x="610" unicode="!" d="M240 48q0 27 18.5 46.5t45.5 19.5t46.5 -19.5t19.5 -46.5t-19.5 -45.5t-46.5 -18.5t-45.5 18.5t-18.5 45.5zM322 1400v-572q0 -44 -0.5 -82.5t-1 -78.5t-2 -86t-2.5 -105h-16q-2 59 -3 105t-1.5 86t-1 78.5t-0.5 82.5v572h28z"/>
<glyph glyph-name="quotedbl" horiz-adv-x="682" unicode='&quot;' d="M478 1400v-294l-2 -152q0 -8 -8 -8t-8 8l-2 152v294h20zM224 1400v-294l-2 -152q0 -8 -8 -8t-8 8l-2 152v294h20z"/>
<glyph glyph-name="numbersign" d="M361 478h342l98 444h-342zM723 460l-103 -460h-6q-13 0 -13 8q0 5 4 21l96 431h-342l-99 -444q-3 -16 -16 -16h-10l103 460h-215q-14 0 -14 12v6h231l98 444h-273v6q0 12 14 12h261l99 444q3 16 18 16h8l-103 -460h342l103 460h10q10 0 10 -9q0 -4 -5 -24l-96 -427h235 v-6q0 -12 -14 -12h-223l-98 -444h265q14 0 14 -12v-6h-281z" unicode="#"/>
<glyph glyph-name="dollar" d="M282 1074q0 -75 27 -127t72 -88t103.5 -60t121.5 -45l23 639q-84 -2 -148.5 -28.5t-109 -70.5t-67 -101t-22.5 -119zM990 390q0 82 -31.5 136.5t-82.5 91t-116.5 60.5t-133.5 46l-25 -720q92 3 164.5 35t122.5 84.5t76 121t26 145.5zM579 -16q-70 0 -125.5 12.5t-102 36 t-85 57t-74.5 76.5l4 4q3 3 5 4.5t7 1.5q6 0 17.5 -12.5t31 -31.5t47.5 -41.5t67.5 -41.5t90.5 -32t117 -13l26 726q-66 21 -128 46t-110.5 63.5t-77.5 94.5t-29 140q0 66 24.5 127t71.5 107.5t115.5 75t157.5 30.5l7 188q0 16 12 16h10l-8 -204q98 -2 173.5 -35t142.5 -103 l-4 -6q-3 -6 -10 -6q-10 0 -28 19.5t-52.5 43.5t-88 44.5t-133.5 22.5l-23 -647q71 -23 140 -48.5t123.5 -63.5t88 -95.5t33.5 -145.5q0 -84 -27.5 -157t-80.5 -128t-129.5 -88t-174.5 -36l-8 -243q0 -16 -12 -16h-10z" unicode="$"/>
<glyph glyph-name="percent" horiz-adv-x="1500" unicode="%" d="M1378 334q0 87 -20.5 150t-56 104t-82.5 60.5t-99 19.5q-53 0 -99.5 -19.5t-82 -60.5t-56 -104t-20.5 -150t20.5 -150t56 -103.5t82 -59.5t99.5 -19q52 0 99 19t82.5 59.5t56 103.5t20.5 150zM1400 334q0 -90 -22.5 -156t-60.5 -109t-89 -64t-108 -21q-58 0 -109 21 t-89 64t-60 109t-22 156q0 91 22 157t60 109.5t89 64.5t109 21q57 0 108 -21t89 -64.5t60.5 -109.5t22.5 -157zM1224 1392q5 8 16 8h14l-988 -1392q-5 -8 -16 -8h-14zM638 1064q0 87 -20.5 150t-56 104t-82.5 60.5t-99 19.5q-53 0 -99.5 -19.5t-82 -60.5t-56 -104 t-20.5 -150t20.5 -150t56 -103.5t82 -59.5t99.5 -19q52 0 99 19t82.5 59.5t56 103.5t20.5 150zM660 1064q0 -90 -22.5 -156t-60.5 -109t-89 -64t-108 -21q-58 0 -109 21t-89 64t-60 109t-22 156q0 91 22 157t60 109.5t89 64.5t109 21q57 0 108 -21t89 -64.5t60.5 -109.5 t22.5 -157z"/>
<glyph glyph-name="ampersand" horiz-adv-x="1362" unicode="&amp;" d="M150 344q0 -87 34.5 -151t88 -106t118 -62.5t123.5 -20.5q84 0 157 21.5t135.5 58.5t113.5 87t90 106l-505 485q-76 -24 -141 -66t-112.5 -96.5t-74.5 -119.5t-27 -136zM658 1416q58 0 112.5 -21.5t97 -57.5t68.5 -84t26 -101h-6q-5 0 -9.5 3.5t-6.5 12.5q-2 27 -20 66 t-52.5 75t-87 61.5t-122.5 25.5q-68 0 -125 -21t-98 -58.5t-64 -90t-23 -116.5q0 -93 49.5 -178.5t148.5 -179.5l476 -456q51 76 80 157t38 153q2 8 4 12t10 4h8q-3 -75 -34 -164.5t-90 -176.5l294 -281h-16q-9 0 -15 1t-15 9l-261 253q-41 -57 -94 -107.5t-117.5 -89 t-139.5 -60.5t-160 -22q-71 0 -140.5 23.5t-124.5 69t-89 112.5t-34 155q0 75 28 143t77.5 124t115.5 98.5t143 67.5q-41 43 -72 82.5t-52 79t-31.5 81.5t-10.5 90q0 67 24.5 123t69 96.5t105.5 63.5t135 23z"/>
<glyph glyph-name="quotesingle" horiz-adv-x="428" unicode="&apos;" d="M224 1400v-294l-2 -152q0 -8 -8 -8t-8 8l-2 152v294h20z"/>
<glyph glyph-name="parenleft" horiz-adv-x="600" unicode="(" d="M222 632q0 -233 66 -442.5t198 -407.5q4 -5 4 -9t-4 -7l-10 -6q-78 119 -131 228t-85 214.5t-46 211t-14 218.5q0 112 14 218t46 211.5t85 214.5t131 228l10 -6q4 -2 4 -7q0 -4 -4 -9q-132 -198 -198 -408t-66 -442z"/>
<glyph glyph-name="parenright" horiz-adv-x="600" unicode=")" d="M376 632q0 232 -66 442t-198 408q-4 5 -4 9q0 5 4 7l10 6q78 -119 131 -228t85 -214.5t46 -211.5t14 -218q0 -113 -14 -218.5t-46 -211t-85 -214.5t-131 -228l-10 6q-4 3 -4 7t4 9q132 198 198 407.5t66 442.5z"/>
<glyph glyph-name="asterisk" horiz-adv-x="800" unicode="*" d="M388 926v228q0 11 1.5 18.5t5.5 24.5q-13 -13 -18 -16.5t-17 -10.5l-202 -118l-10 18l202 118q10 5 17.5 7.5t23.5 7.5q-17 7 -24 9t-17 8l-204 118l10 18l204 -118q5 -3 8.5 -5.5t6.5 -5.5l7 -8q5 -4 13 -11q-4 18 -5.5 26t-1.5 20v228h20v-228q0 -12 -0.5 -20t-5.5 -26 q14 14 19.5 19t16.5 11l202 118l10 -18l-202 -118q-10 -6 -17.5 -9.5t-22.5 -7.5q17 -5 23.5 -7.5t16.5 -7.5l204 -118l-10 -18l-204 118q-5 3 -8.5 5t-7 4.5t-8.5 6.5t-12 12q3 -18 4.5 -25.5t1.5 -18.5v-228h-20z"/>
<glyph glyph-name="plus" d="M588 1150v-470h452v-20h-452v-472h-20v472h-450v20h450v470h20z" unicode="+"/>
<glyph glyph-name="comma" horiz-adv-x="370" unicode="," d="M124 52q0 24 16.5 43t43.5 19t44.5 -20t17.5 -58q0 -77 -33.5 -148.5t-84.5 -125.5l-3 3q-3 3 -3 6t5 10q10 13 27 35.5t33 52.5t27.5 66t11.5 76q-17 -19 -46 -19q-24 0 -40 16.5t-16 43.5z"/>
<glyph glyph-name="hyphen" horiz-adv-x="640" unicode="-" d="M100 598h440v-20h-440v20z"/>
<glyph glyph-name="period" horiz-adv-x="370" unicode="." d="M120 48q0 27 18.5 46.5t45.5 19.5t46.5 -19.5t19.5 -46.5t-19.5 -45.5t-46.5 -18.5t-45.5 18.5t-18.5 45.5z"/>
<glyph glyph-name="slash" horiz-adv-x="684" unicode="/" d="M32 -66q-3 -8 -9.5 -10t-12.5 -2h-8l640 1506q6 12 20 12h10z"/>
<glyph glyph-name="zero" d="M1050 700q0 180 -37.5 311t-101.5 216.5t-149.5 127t-181.5 41.5t-182 -41.5t-150.5 -127t-102 -216.5t-37.5 -311t37.5 -311t102 -216t150.5 -126t182 -41t181.5 41t149.5 126t101.5 216t37.5 311zM1076 700q0 -184 -39.5 -318.5t-107 -222.5t-158 -130.5t-191.5 -42.5 t-191.5 42.5t-158 130.5t-107 222.5t-39.5 318.5t39.5 318.5t107 223t158 131.5t191.5 43t191.5 -43t158 -131.5t107 -223t39.5 -318.5z" unicode="0"/>
<glyph glyph-name="one" d="M328 20h340v1296q0 14 1 28.5t3 28.5l-362 -327q-5 -5 -10 -5q-6 0 -10 5l-6 8l394 354h14v-1388h332v-20h-696v20z" unicode="1"/>
<glyph glyph-name="two" d="M602 1416q72 0 141.5 -21t123.5 -65.5t87.5 -113.5t33.5 -166q0 -80 -25.5 -149t-68.5 -132t-99.5 -123.5t-118.5 -123.5l-494 -504q21 2 48.5 3t61.5 1h724q10 0 10 -10v-12h-876v8q0 6 3 10t5 6l504 512q62 63 117 123t96 122t65 128t24 141q0 91 -31 156.5t-82 107.5 t-116 62t-133 20q-78 0 -143.5 -24t-115.5 -67.5t-82.5 -103.5t-44.5 -133q-3 -16 -16 -16h-10q11 84 45.5 151.5t88.5 114.5t124.5 72.5t153.5 25.5z" unicode="2"/>
<glyph glyph-name="three" d="M608 1416q72 0 140 -20t121 -62t85 -108.5t32 -159.5q0 -71 -27 -130.5t-71.5 -103.5t-102.5 -72.5t-119 -37.5q87 -7 154.5 -36t113 -75t69 -107.5t23.5 -133.5q0 -77 -32.5 -147t-90.5 -123t-138 -84.5t-175 -31.5q-84 0 -147.5 17t-110 44.5t-78 64t-52.5 75.5 t-33.5 78t-20.5 73l4 2q4 2 8 2q8 0 11.5 -6.5t6.5 -18.5q3 -14 11.5 -42.5t26.5 -63t46.5 -71t73.5 -66.5t107 -49t147 -19q103 0 180 34.5t128.5 88t77.5 118t26 125.5q0 72 -25 134t-79 108t-138 72.5t-202 27.5v16q92 3 167 28.5t127.5 70t81 105t28.5 134.5 q0 87 -29.5 149.5t-79 102.5t-113.5 59t-132 19q-78 0 -144 -24t-116 -67.5t-83 -103.5t-45 -133q-3 -16 -14 -16h-10q11 84 45.5 151.5t88.5 114.5t124.5 72.5t153.5 25.5z" unicode="3"/>
<glyph glyph-name="four" d="M796 452v887q0 9 2 18l-688 -905h686zM820 452h296v-8q0 -12 -16 -12h-280v-432h-24v432h-694q-11 0 -13.5 2.5t-4.5 7.5l-2 8l724 952h14v-950z" unicode="4"/>
<glyph glyph-name="five" d="M956 1390q0 -5 -4 -8.5t-10 -3.5h-566l-101 -555q76 20 144 29t128 9q109 0 191.5 -30.5t138 -85t83.5 -131t28 -168.5q0 -110 -38 -196t-102 -145t-148.5 -90t-177.5 -31q-54 0 -104 9t-93.5 23.5t-79.5 33t-63 38.5l6 8q4 6 12 6q7 0 31 -14.5t64.5 -32.5t97 -32.5 t129.5 -14.5q89 0 169 28.5t140 84t95.5 138t35.5 189.5q0 85 -24.5 157t-75.5 124.5t-129.5 82t-185.5 29.5q-60 0 -129.5 -9.5t-149.5 -29.5l-18 8l106 590h600v-10z" unicode="5"/>
<glyph glyph-name="six" d="M184 414q0 -89 28 -164t79.5 -129.5t124.5 -85.5t162 -31q99 0 177.5 30t132.5 83.5t83 127t29 159.5q0 91 -28.5 164t-80 124t-123.5 78.5t-158 27.5q-102 0 -181.5 -35.5t-133.5 -91t-82.5 -123.5t-28.5 -134zM608 818q95 0 172 -31t131 -86t83.5 -131t29.5 -166 q0 -94 -33 -171t-92.5 -132.5t-141.5 -86t-179 -30.5q-92 0 -168.5 29.5t-132 86.5t-86.5 140t-31 190q0 74 42 177.5t142 238.5l406 548q3 5 6 5.5t6 0.5h20l-418 -564q-54 -73 -90.5 -132.5t-58.5 -113.5q26 53 67.5 95t93 71.5t110.5 45.5t122 16z" unicode="6"/>
<glyph glyph-name="seven" d="M1060 1400v-12q0 -6 -4 -14l-696 -1362q-6 -12 -22 -12h-12l698 1364q3 7 8 14h-874q-12 0 -12 12v10h914z" unicode="7"/>
<glyph glyph-name="eight" d="M580 740q91 0 159.5 27.5t114 73t68 104.5t22.5 123q0 70 -25 130.5t-72 104t-114.5 68.5t-152.5 25t-152.5 -25t-114.5 -68.5t-72 -104t-25 -130.5q0 -64 22.5 -123t68 -104.5t113.5 -73t160 -27.5zM580 4q91 0 167 25t131.5 71t86.5 111.5t31 146.5q0 73 -19.5 128 t-52.5 95.5t-75.5 67t-88.5 42.5t-93 22.5t-87 6.5q-41 0 -87.5 -6.5t-92.5 -22.5t-88.5 -42.5t-75.5 -67t-52.5 -95.5t-19.5 -128q0 -81 31 -146.5t86.5 -111.5t131.5 -71t167 -25zM580 -16q-97 0 -177.5 26t-139 74t-91 117.5t-32.5 156.5q0 88 28.5 153.5t76.5 111 t110.5 71.5t130.5 37q-70 13 -125 44t-92.5 75t-57 99.5t-19.5 118.5q0 72 26.5 135.5t76 110.5t121.5 74.5t164 27.5q91 0 163.5 -27.5t122 -74.5t76 -110.5t26.5 -135.5q0 -63 -20 -118.5t-57.5 -99.5t-92 -75t-124.5 -44q68 -11 130.5 -37t110.5 -71.5t76.5 -111 t28.5 -153.5q0 -87 -32.5 -156.5t-91 -117.5t-139 -74t-177.5 -26z" unicode="8"/>
<glyph glyph-name="nine" d="M1000 1002q0 85 -28.5 157.5t-79 125t-119.5 82t-151 29.5q-89 0 -163.5 -28t-128.5 -78.5t-84 -121.5t-30 -156q0 -87 27.5 -157t77 -119t119 -75.5t152.5 -26.5q97 0 173 34t128.5 87t79.5 118.5t27 128.5zM594 614q-92 0 -166.5 30t-127 83t-80.5 126t-28 159 q0 88 33 162t90.5 128t136 84t170.5 30q86 0 159.5 -30.5t127.5 -86.5t84.5 -135t30.5 -176q0 -49 -12 -94t-34.5 -92.5t-55.5 -100t-76 -115.5l-390 -580q-3 -5 -6 -5.5t-6 -0.5h-20l404 596q50 74 88 131.5t61 116.5q-25 -53 -65.5 -95.5t-90.5 -72.5t-108 -46t-119 -16z " unicode="9"/>
<glyph glyph-name="colon" horiz-adv-x="450" unicode=":" d="M160 886q0 27 18.5 46.5t45.5 19.5t46.5 -19.5t19.5 -46.5t-19.5 -45.5t-46.5 -18.5t-45.5 18.5t-18.5 45.5zM160 48q0 27 18.5 46.5t45.5 19.5t46.5 -19.5t19.5 -46.5t-19.5 -45.5t-46.5 -18.5t-45.5 18.5t-18.5 45.5z"/>
<glyph glyph-name="semicolon" horiz-adv-x="450" unicode=";" d="M160 886q0 27 18.5 46.5t45.5 19.5t46.5 -19.5t19.5 -46.5t-19.5 -45.5t-46.5 -18.5t-45.5 18.5t-18.5 45.5zM164 52q0 24 16.5 43t43.5 19t44.5 -20t17.5 -58q0 -77 -33.5 -148.5t-84.5 -125.5l-3 3q-3 3 -3 6t5 10q10 13 27 35.5t33 52.5t27.5 66t11.5 76 q-17 -19 -46 -19q-24 0 -40 16.5t-16 43.5z"/>
<glyph glyph-name="less" d="M170 676l730 372v-11q0 -12 -19 -21l-643 -326q-12 -6 -23.5 -11.5t-23.5 -8.5q12 -4 23.5 -9t23.5 -11l643 -326q19 -10 19 -21v-11l-730 372v12z" unicode="&lt;"/>
<glyph glyph-name="equal" d="M180 834h800v-20h-800v20zM180 540h800v-20h-800v20z" unicode="="/>
<glyph glyph-name="greater" d="M260 292v11q0 11 19 21l643 326q11 5 22.5 10.5t23.5 9.5q-12 3 -23 8l-23 12l-643 326q-19 9 -19 21v11l730 -372v-12z" unicode="&gt;"/>
<glyph glyph-name="question" horiz-adv-x="694" unicode="?" d="M240 48q0 27 18.5 46.5t45.5 19.5t46.5 -19.5t19.5 -46.5t-19.5 -45.5t-46.5 -18.5t-45.5 18.5t-18.5 45.5zM32 1280q24 25 54.5 49.5t68 44t82 31t97.5 11.5q61 0 119 -19.5t102.5 -56t71.5 -89t27 -119.5q0 -76 -24.5 -131t-61.5 -96.5t-80 -73.5t-80.5 -60.5 t-63 -57.5t-26.5 -65l-6 -172h-16v174q0 39 24.5 69.5t62 59.5t80.5 60t80.5 72t62 94.5t24.5 126.5q0 62 -25 111t-66 83t-94.5 52t-110.5 18q-71 0 -123 -20t-87.5 -44t-55 -44t-23.5 -20t-8 5z"/>
<glyph glyph-name="at" horiz-adv-x="1642" unicode="@" d="M716 216q41 0 85 14t85 50.5t76.5 100t61.5 161.5l84 324q-31 8 -59 13t-71 5q-69 0 -129 -19t-109.5 -51.5t-88 -77t-65 -95t-40.5 -104.5t-14 -107q0 -44 11.5 -83t34 -68t57 -46t81.5 -17zM1168 190q-90 0 -129.5 47t-39.5 126q0 13 1 26.5t3 27.5q-51 -115 -126 -168 t-165 -53q-53 0 -91 18.5t-63.5 50t-37.5 74t-12 91.5q0 56 14.5 113.5t42.5 110t69 98.5t93 79.5t115 53t136 19.5q41 0 83.5 -7.5t72.5 -22.5l-88 -336q-14 -52 -20 -93t-6 -74q0 -50 12.5 -81.5t33.5 -49t48 -24t56 -6.5q64 0 123 31.5t104 91t72 145t27 192.5 q0 157 -52.5 273t-141 192.5t-204 113.5t-242.5 37q-93 0 -181.5 -24.5t-167 -71t-144 -113.5t-113 -150.5t-74 -183t-26.5 -211.5q0 -182 59 -321.5t159.5 -234t234.5 -142.5t283 -48q145 0 272.5 35.5t240.5 110.5q4 3 9 3q7 0 10 -6l6 -11q-115 -77 -248 -115.5 t-290 -38.5t-295 50t-241 147.5t-162.5 240.5t-59.5 330q0 170 58 312.5t157.5 245t231.5 159.5t281 57q86 0 169 -17.5t156.5 -52t135.5 -87t106.5 -123.5t69.5 -160t25 -196q0 -110 -28 -198.5t-76 -151t-111.5 -96.5t-134.5 -34z"/>
<glyph glyph-name="A" horiz-adv-x="1228" unicode="A" d="M253 498h722l-345 828q-5 11 -8.5 20.5t-7.5 20.5q-4 -11 -7.5 -20.5t-8.5 -20.5zM1208 0h-18q-9 0 -12 10l-195 468h-738l-195 -468q-3 -10 -14 -10h-16l584 1400h20z"/>
<glyph glyph-name="B" horiz-adv-x="1272" unicode="B" d="M264 720h350q112 0 190 31t127 79.5t71 107t22 114.5q0 156 -103.5 242t-316.5 86h-340v-660zM264 700v-680h394q101 0 181 22t135.5 65.5t84.5 109t29 151.5q0 76 -30.5 137.5t-86 105t-135 66.5t-176.5 23h-396zM240 0v1400h364q223 0 332.5 -89.5t109.5 -258.5 q0 -62 -24.5 -120t-67 -104t-101.5 -76.5t-128 -37.5q89 -7 160.5 -33.5t122 -71t77.5 -105.5t27 -136q0 -89 -30.5 -158t-89 -115.5t-143 -70.5t-191.5 -24h-418z"/>
<glyph glyph-name="C" horiz-adv-x="1438" unicode="C" d="M1284 189q4 0 7 -3l9 -8q-44 -43 -94.5 -78.5t-110.5 -61t-132 -40t-159 -14.5q-141 0 -260 49.5t-206 142.5t-135.5 225.5t-48.5 298.5q0 160 48.5 292t137 226.5t212 146t272.5 51.5q76 0 137 -10t114 -30.5t100.5 -51.5t96.5 -72l-3 -5q-4 -5 -9 -5q-8 0 -21.5 11.5 t-36 28.5t-55.5 37t-79 37t-106.5 28.5t-137.5 11.5q-142 0 -260.5 -48.5t-204 -139t-133.5 -219.5t-48 -289q0 -163 47.5 -292t131.5 -219t198.5 -137.5t248.5 -47.5q85 0 152 12t122.5 35t103 56.5t94.5 76.5q5 5 8 5z"/>
<glyph glyph-name="D" horiz-adv-x="1532" unicode="D" d="M1362 700q0 163 -45.5 289.5t-127.5 213.5t-196.5 132t-252.5 45h-476v-1360h476q138 0 252.5 45t196.5 132t127.5 213.5t45.5 289.5zM1388 700q0 -166 -47.5 -296t-133 -220t-204.5 -137t-263 -47h-500v1400h500q144 0 263 -47t204.5 -137t133 -220t47.5 -296z"/>
<glyph glyph-name="E" horiz-adv-x="1200" unicode="E" d="M1058 1400v-22h-794v-656h674v-22h-674v-678h796l-2 -22h-818v1400h818z"/>
<glyph glyph-name="F" horiz-adv-x="1154" unicode="F" d="M1058 1400v-22h-794v-676h694v-22h-694v-680h-24v1400h818z"/>
<glyph glyph-name="G" horiz-adv-x="1522" unicode="G" d="M822 4q86 0 155.5 9.5t129.5 28t113.5 45t107.5 60.5v435h-314q-12 0 -12 10v10h348v-464q-52 -35 -107.5 -63.5t-119 -48.5t-138 -31t-163.5 -11q-151 0 -274 49.5t-210.5 142.5t-135.5 225.5t-48 298.5q0 165 48 297.5t138 225.5t217.5 143t286.5 50q78 0 143 -9.5 t120.5 -29.5t104.5 -50t96 -72l-3 -5q-4 -5 -9 -5q-8 0 -34 23.5t-78.5 52t-135.5 52t-204 23.5q-152 0 -275 -47.5t-210 -137.5t-134 -219t-47 -292t46.5 -292t131.5 -219t203.5 -137.5t262.5 -47.5z"/>
<glyph glyph-name="H" horiz-adv-x="1512" unicode="H" d="M1272 0h-24v700h-984v-700h-24v1400h24v-678h984v678h24v-1400z"/>
<glyph glyph-name="I" horiz-adv-x="584" unicode="I" d="M304 0h-24v1400h24v-1400z"/>
<glyph glyph-name="J" horiz-adv-x="924" unicode="J" d="M684 452q0 -118 -29 -205.5t-81.5 -146t-126 -87.5t-161.5 -29q-82 0 -172 30l2 6q4 10 12 10q10 0 23 -4t31.5 -9t43.5 -9t60 -4q85 0 154.5 28t118 84t75 140t26.5 196v948h24v-948z"/>
<glyph glyph-name="K" horiz-adv-x="1284" unicode="K" d="M304 724h94q19 0 32 1t23.5 4.5t20.5 10.5t22 18l652 626q11 9 18 12.5t18 3.5h12l-680 -652q-16 -15 -28.5 -22.5t-31.5 -11.5q18 -3 31.5 -11t26.5 -21l722 -682h-10q-15 0 -21.5 3t-14.5 11l-688 650q-15 14 -26 22t-22 12t-24 5t-32 1h-94v-704h-24v1402h24v-678z "/>
<glyph glyph-name="L" horiz-adv-x="1018" unicode="L" d="M264 22h714v-22h-738v1400h24v-1378z"/>
<glyph glyph-name="M" horiz-adv-x="1798" unicode="M" d="M898 321q3 -5 5.5 -9.5t5.5 -11.5q3 7 5.5 11.5t5.5 9.5l616 1071q5 8 14 8h8v-1400h-20v1348v9l-612 -1067q-7 -10 -14 -10h-6q-7 0 -14 10l-633 1067q1 -5 1 -10v-1347h-20v1400h8q9 0 14 -8z"/>
<glyph glyph-name="N" horiz-adv-x="1512" unicode="N" d="M248 1400q9 0 14 -8l991 -1349q-1 5 -1 10v1347h20v-1400h-6q-6 0 -11 7l-996 1355q1 -6 1 -13v-1349h-20v1400h8z"/>
<glyph glyph-name="O" horiz-adv-x="1594" unicode="O" d="M1418 700q0 163 -45.5 292t-127.5 219t-196.5 137.5t-252.5 47.5q-136 0 -250 -47.5t-196.5 -137.5t-129 -219t-46.5 -292t46.5 -291.5t129 -218t196.5 -137t250 -47.5q138 0 252.5 47.5t196.5 137t127.5 218t45.5 291.5zM1444 700q0 -166 -47.5 -298t-133 -224.5 t-204.5 -142t-263 -49.5q-143 0 -261.5 49.5t-204 142t-133 224.5t-47.5 298q0 165 47.5 297.5t133 225.5t204 143t261.5 50q144 0 263 -49.5t204.5 -142.5t133 -225.5t47.5 -298.5z"/>
<glyph glyph-name="P" horiz-adv-x="1158" unicode="P" d="M304 620h292q103 0 186 29.5t141.5 81t90.5 120.5t32 149q0 187 -112.5 283.5t-337.5 96.5h-292v-760zM304 600v-600h-24v1400h316q229 0 351.5 -99t122.5 -301q0 -87 -34.5 -160.5t-97.5 -126.5t-150 -83t-192 -30h-292z"/>
<glyph glyph-name="Q" horiz-adv-x="1594" unicode="Q" d="M1418 700q0 163 -45.5 292t-127.5 219t-196.5 137.5t-252.5 47.5q-136 0 -250 -47.5t-196.5 -137.5t-129 -219t-46.5 -292t46.5 -291.5t129 -218t196.5 -137t250 -47.5q138 0 252.5 47.5t196.5 137t127.5 218t45.5 291.5zM1444 700q0 -113 -22 -210.5t-63.5 -177.5 t-101 -142t-134.5 -104l371 -392h-22q-8 0 -12.5 2.5t-7.5 5.5l-350 373q-67 -34 -143.5 -51.5t-162.5 -17.5q-143 0 -261.5 49.5t-204 142t-133 224.5t-47.5 298q0 165 47.5 297.5t133 225.5t204 143t261.5 50q144 0 263 -49.5t204.5 -142.5t133 -225.5t47.5 -298.5z"/>
<glyph glyph-name="R" horiz-adv-x="1240" unicode="R" d="M304 696h282q103 0 185.5 24.5t141 70t90 111t31.5 148.5q0 171 -111 250.5t-319 79.5h-300v-684zM304 676v-676h-24v1400h324q219 0 336.5 -85t117.5 -265q0 -85 -33 -153.5t-93 -116.5t-143.5 -75t-184.5 -29q10 -4 18 -10.5t16 -15.5l546 -650h-16q-8 0 -13 1.5 t-13 10.5l-524 628q-9 11 -17.5 18t-19 11t-24.5 5.5t-35 1.5h-218z"/>
<glyph glyph-name="S" horiz-adv-x="1032" unicode="S" d="M882 1272q-5 -6 -11 -6q-9 0 -27.5 20.5t-54 44.5t-91.5 44.5t-140 20.5q-86 0 -152.5 -26.5t-111.5 -70.5t-68.5 -102t-23.5 -121q0 -81 31.5 -135t82.5 -91t117 -61.5t134 -47t134 -47.5t117 -63.5t82.5 -95t31.5 -141.5q0 -86 -29 -160.5t-84 -130t-135 -87.5 t-182 -32q-71 0 -127 12.5t-102.5 36t-85.5 57t-75 76.5l4 4q3 3 5 4.5t7 1.5q6 0 17.5 -12.5t31.5 -32t48 -41.5t68 -41.5t91.5 -32t117.5 -12.5q97 0 172.5 31t128 83.5t80 122.5t27.5 149q0 66 -20.5 114t-55.5 82.5t-81.5 59t-99.5 44t-108 36t-108 36.5t-99.5 45.5 t-81.5 62t-55.5 87t-20.5 119.5q0 67 25 128.5t73 108.5t118.5 75t161.5 28q102 0 180.5 -33t147.5 -105z"/>
<glyph glyph-name="T" d="M1120 1400v-22h-526v-1378h-24v1378h-530v22h1080z" unicode="T"/>
<glyph glyph-name="U" horiz-adv-x="1472" unicode="U" d="M736 4q113 0 202.5 40.5t151.5 110.5t95 164t33 201v880h24v-880q0 -111 -35 -209t-101 -171t-159.5 -115.5t-210.5 -42.5t-210.5 42.5t-159.5 115.5t-101 171t-35 209v880h24v-878q0 -107 33 -201.5t95 -165t151.5 -111t202.5 -40.5z"/>
<glyph glyph-name="V" horiz-adv-x="1228" unicode="V" d="M20 1400h18q9 0 12 -10l548 -1316q5 -11 9 -21.5t7 -19.5q3 9 7 19.5t9 21.5l548 1316q3 10 14 10h16l-584 -1400h-20z"/>
<glyph glyph-name="W" horiz-adv-x="1918" unicode="W" d="M20 1400h18q9 0 12 -10l409 -1307q5 -14 8.5 -26.5t6.5 -26.5q3 14 6.5 26.5t8.5 26.5l455 1307q3 10 12 10h6q9 0 12 -10l455 -1307q10 -27 15 -53q6 30 15 53l409 1307q3 10 14 10h16l-444 -1400h-20l-466 1344q-6 18 -9 30q-3 -12 -9 -30l-466 -1344h-20z"/>
<glyph glyph-name="X" horiz-adv-x="1124" unicode="X" d="M546 716l-502 684h22q8 0 11.5 -5t6.5 -9l479 -657l9 15l468 642q3 5 7.5 9.5t10.5 4.5h22l-501 -681l525 -719h-22q-8 0 -12 5.5t-6 8.5l-502 692q-1 -5 -8 -14l-494 -678q-4 -5 -8 -9.5t-10 -4.5h-22z"/>
<glyph glyph-name="Y" horiz-adv-x="1148" unicode="Y" d="M586 595v-595h-24v595l-522 805h20q9 0 14 -8l471 -730q8 -13 15.5 -24.5t13.5 -23.5q5 12 13 23.5t16 24.5l471 730q5 8 14 8h20z"/>
<glyph glyph-name="Z" horiz-adv-x="1282" unicode="Z" d="M1156 1400v-4q0 -9 -8 -20l-974 -1354h980l-2 -22h-1012v4q0 6 1.5 9.5t4.5 8.5l976 1356h-966v22h1000z"/>
<glyph glyph-name="bracketleft" horiz-adv-x="600" unicode="[" d="M204 -242v1744h274v-6q0 -12 -14 -12h-238v-1708h238q14 0 14 -12v-6h-274z"/>
<glyph glyph-name="backslash" horiz-adv-x="684" unicode="\" d="M2 1440h10q14 0 20 -12l640 -1506h-8q-6 0 -12.5 2t-9.5 10z"/>
<glyph glyph-name="bracketright" horiz-adv-x="600" unicode="]" d="M122 -236q0 12 14 12h238v1708h-238q-14 0 -14 12v6h274v-1744h-274v6z"/>
<glyph glyph-name="asciicircum" d="M906 812h-14q-13 0 -20 14l-280 506q-5 10 -10 19.5t-8 20.5q-7 -20 -18 -40l-280 -506q-3 -5 -7.5 -9.5t-12.5 -4.5h-14l326 588h12z" unicode="^"/>
<glyph glyph-name="underscore" horiz-adv-x="788" unicode="_" d="M788 -240v-22h-788v22h788z"/>
<glyph glyph-name="grave" horiz-adv-x="560" unicode="`" d="M154 1416q17 0 25 -4t17 -18l164 -236h-14q-11 0 -16 8l-202 250h26z"/>
<glyph glyph-name="a" horiz-adv-x="938" unicode="a" d="M370 4q69 0 125 16t103 43t87.5 62.5t78.5 74.5v302q-315 -10 -467.5 -78.5t-152.5 -193.5q0 -59 19.5 -101.5t51 -70t72 -41t83.5 -13.5zM784 0q-14 0 -14 16l-6 159q-42 -44 -84 -79.5t-89 -60t-101 -38t-120 -13.5q-44 0 -88.5 13.5t-80.5 43t-58.5 76t-22.5 113.5 q0 66 38.5 118.5t118 89.5t200.5 58.5t287 25.5v126q0 77 -17 138t-50 103t-83 64.5t-116 22.5q-52 0 -94 -11t-75 -27t-57.5 -35t-42.5 -35t-29 -27t-16 -11q-4 0 -10 6l-4 4q72 76 149 116t179 40q75 0 129.5 -24t90.5 -69t53 -109.5t17 -145.5v-648h-4z"/>
<glyph glyph-name="b" horiz-adv-x="1070" unicode="b" d="M578 976q-109 0 -202.5 -61t-161.5 -169v-551q64 -103 143 -145t183 -42q103 0 179 37.5t126.5 103.5t75.5 155t25 192q0 244 -93.5 362t-274.5 118zM190 0v1440h24v-662q66 100 159.5 159t204.5 59q190 0 291 -122.5t101 -377.5q0 -107 -27.5 -199.5t-81.5 -161 t-134.5 -108t-186.5 -39.5q-109 0 -190 43t-137 133l-3 -150q0 -5 -2 -9.5t-10 -4.5h-8z"/>
<glyph glyph-name="c" horiz-adv-x="890" unicode="c" d="M800 888q-4 -4 -8 -4q-6 0 -22.5 14.5t-48 31.5t-79 31.5t-114.5 14.5q-95 0 -170 -34t-127 -97t-79.5 -153t-27.5 -202q0 -116 27.5 -205.5t78.5 -151t122.5 -93.5t159.5 -32q78 0 132 18t89 40t53 40t24 18q4 0 8 -4l4 -4q-15 -22 -44 -44.5t-69 -41t-90 -30.5 t-107 -12q-95 0 -171 34t-129.5 98.5t-82.5 157.5t-29 212q0 114 29 207.5t84 159.5t134.5 102.5t180.5 36.5q89 0 158.5 -28.5t119.5 -73.5z"/>
<glyph glyph-name="d" horiz-adv-x="1070" unicode="d" d="M492 8q109 0 202.5 61t161.5 168v551q-65 103 -144 145.5t-182 42.5t-179 -37.5t-126.5 -103.5t-75.5 -155t-25 -192q0 -244 93.5 -362t274.5 -118zM874 0q-14 0 -14 16l-4 189q-66 -100 -159.5 -158.5t-204.5 -58.5q-191 0 -291.5 122.5t-100.5 377.5q0 106 27 199 t81 161.5t134.5 108t187.5 39.5q108 0 189 -43t137 -133v620h24v-1440h-6z"/>
<glyph glyph-name="e" horiz-adv-x="1000" unicode="e" d="M528 976q-88 0 -158.5 -28.5t-121.5 -80t-81.5 -124.5t-39.5 -161h745q0 95 -26 168.5t-72.5 123.5t-109.5 76t-136 26zM528 996q77 0 144 -27.5t116.5 -81.5t77.5 -132.5t28 -180.5q0 -5 -3.5 -7.5t-8.5 -2.5h-756q-2 -14 -2 -27v-27q0 -122 29 -215.5t82.5 -157 t129 -96.5t167.5 -33q83 0 142.5 18t99 40t60 40t26.5 18q4 0 8 -4l4 -4q-17 -21 -50.5 -43.5t-79 -41.5t-99.5 -31t-111 -12q-101 0 -181 35.5t-135.5 102.5t-85.5 164t-30 220q0 108 29 197.5t84 153.5t134.5 99.5t180.5 35.5z"/>
<glyph glyph-name="f" horiz-adv-x="618" unicode="f" d="M210 0v918l-164 4q-12 0 -12 8v8h176v150q0 84 20 145.5t55.5 101.5t84.5 59.5t108 19.5q29 0 60 -5.5t52 -16.5l-2 -8q-2 -6 -7 -6q-10 0 -33.5 8t-69.5 8q-52 0 -96.5 -16.5t-77.5 -53t-51.5 -95t-18.5 -141.5v-150h350v-20h-350v-918h-24z"/>
<glyph glyph-name="g" horiz-adv-x="996" unicode="g" d="M490 392q73 0 130 21t96.5 59.5t60.5 92.5t21 119t-21.5 119t-61.5 92.5t-97 59.5t-128 21t-128 -21t-97 -59.5t-61.5 -92.5t-21.5 -119t21.5 -119t61.5 -92.5t97 -59.5t128 -21zM906 -78q0 56 -27.5 89.5t-73.5 52t-105 25.5t-123 10.5t-127 6.5t-116 13 q-47 -17 -87 -39t-68.5 -51t-44.5 -64t-16 -77q0 -51 27 -95.5t76.5 -77.5t120.5 -52t160 -19q79 0 152 20.5t129 57t89.5 87.5t33.5 113zM490 996q65 0 118.5 -17t95.5 -47h238v-4q0 -6 -5 -10t-11 -4l-196 -4q45 -42 68.5 -99t23.5 -127t-23.5 -127.5t-67 -98.5 t-104.5 -63.5t-137 -22.5q-98 0 -172 37q-25 -14 -46 -32t-36 -38t-23.5 -41t-8.5 -40q0 -50 31 -76.5t82 -39.5t116 -16.5t133 -6.5t133 -10t116 -27.5t82 -58t31 -101.5q0 -59 -30.5 -112.5t-86 -95t-134 -66t-175.5 -24.5q-99 0 -175 21t-128 57t-78.5 84t-26.5 102 q0 84 57 144.5t154 93.5q-56 14 -89.5 44.5t-33.5 87.5q0 20 8.5 42t23.5 43.5t36.5 41t48.5 34.5q-68 40 -104.5 108t-36.5 157q0 69 23 126.5t66.5 98.5t104.5 64t138 23z"/>
<glyph glyph-name="h" horiz-adv-x="1056" unicode="h" d="M176 0v1440h24v-664q34 50 76.5 90.5t91.5 69.5t103 44.5t111 15.5q163 0 243.5 -97t80.5 -271v-628h-24v628q0 82 -18 146.5t-55.5 109.5t-94 68.5t-132.5 23.5q-115 0 -212 -61.5t-170 -169.5v-745h-24z"/>
<glyph glyph-name="i" horiz-adv-x="444" unicode="i" d="M278 1344q0 -21 -17.5 -37.5t-38.5 -16.5q-23 0 -39.5 16.5t-16.5 37.5q0 23 16.5 39.5t39.5 16.5q21 0 38.5 -16.5t17.5 -39.5zM234 980v-980h-24v980h24z"/>
<glyph glyph-name="j" horiz-adv-x="440" unicode="j" d="M278 1344q0 -21 -17.5 -37.5t-38.5 -16.5q-23 0 -39.5 16.5t-16.5 37.5q0 23 16.5 39.5t39.5 16.5q21 0 38.5 -16.5t17.5 -39.5zM234 980v-1152q0 -44 -14 -81t-39.5 -64t-61.5 -42t-81 -15q-27 0 -46.5 5.5t-37.5 16.5l4 8q4 8 9 8q8 0 24.5 -9t46.5 -9q85 0 128.5 50.5 t43.5 131.5v1152h24z"/>
<glyph glyph-name="k" horiz-adv-x="928" unicode="k" d="M214 1440v-904h46q9 0 21 2t27 16l466 410q8 8 16 12t20 4h18l-496 -434q-13 -12 -25 -17q14 -4 24 -10.5t19 -14.5l518 -504h-18q-8 0 -14 2t-14 10l-492 478q-8 8 -15.5 13.5t-16 8.5t-19 4.5t-25.5 1.5h-40v-518h-24v1440h24z"/>
<glyph glyph-name="l" horiz-adv-x="444" unicode="l" d="M234 1440v-1440h-24v1440h24z"/>
<glyph glyph-name="m" horiz-adv-x="1548" unicode="m" d="M176 0v980h6q14 0 14 -16l3 -185q57 99 139 158t178 59q118 0 184.5 -73t82.5 -208q12 71 41.5 124t71.5 88t93.5 52t106.5 17q69 0 125 -24t95 -70.5t60.5 -115.5t21.5 -158v-628h-24v628q0 169 -72.5 258.5t-205.5 89.5q-59 0 -113.5 -22t-96.5 -65.5t-67 -108.5 t-25 -152v-628h-24v628q0 82 -16.5 146.5t-49 109.5t-80.5 68.5t-110 23.5q-95 0 -174.5 -60.5t-139.5 -167.5v-748h-24z"/>
<glyph glyph-name="n" horiz-adv-x="1056" unicode="n" d="M176 0v980h6q14 0 14 -16l3 -189q34 50 76.5 91t91.5 70t103 44.5t112 15.5q163 0 243.5 -97t80.5 -271v-628h-24v628q0 82 -18 146.5t-55.5 109.5t-94 68.5t-132.5 23.5q-115 0 -212 -61.5t-170 -169.5v-745h-24z"/>
<glyph glyph-name="o" horiz-adv-x="1056" unicode="o" d="M528 8q100 0 176 35t126.5 98t76 152t25.5 197t-25.5 197.5t-76 153.5t-126.5 99.5t-176 35.5q-101 0 -176.5 -35.5t-126 -99.5t-76 -153.5t-25.5 -197.5t25.5 -197t76 -152t126 -98t176.5 -35zM528 996q103 0 183 -36.5t134.5 -102.5t82.5 -159.5t28 -207.5t-28 -206.5 t-82.5 -158.5t-134.5 -101.5t-183 -35.5q-104 0 -183.5 35.5t-134 101.5t-82.5 158.5t-28 206.5t28 207.5t82.5 159.5t134 102.5t183.5 36.5z"/>
<glyph glyph-name="p" horiz-adv-x="1042" unicode="p" d="M564 976q-109 0 -202.5 -61t-161.5 -169v-551q64 -103 143 -145t183 -42q103 0 179 37.5t126.5 103.5t75.5 155t25 192q0 244 -93.5 362t-274.5 118zM176 -360v1340h6q14 0 14 -16l3 -186q66 101 159.5 159.5t205.5 58.5q190 0 291 -122.5t101 -377.5 q0 -107 -27.5 -199.5t-81.5 -161t-134.5 -108t-186.5 -39.5q-216 0 -326 175v-523h-24z"/>
<glyph glyph-name="q" horiz-adv-x="1070" unicode="q" d="M492 8q109 0 202.5 61t161.5 168v552q-60 99 -141 143t-185 44q-103 0 -179 -37.5t-126.5 -103.5t-75.5 -155t-25 -192q0 -244 93.5 -362t274.5 -118zM880 980v-1340h-24v565q-66 -100 -159.5 -158.5t-204.5 -58.5q-191 0 -291.5 122.5t-100.5 377.5q0 106 27 199 t81 161.5t134.5 108t187.5 39.5q108 0 189 -43t137 -133l4 144q0 16 14 16h6z"/>
<glyph glyph-name="r" horiz-adv-x="784" unicode="r" d="M176 0v980h6q14 0 14 -16l3 -272q21 73 52 129.5t73 95.5t95.5 59t120.5 20q48 0 89 -10t79 -28l-4 -8q-2 -3 -3.5 -5.5t-6.5 -2.5t-16.5 5t-30 11t-45 11t-62.5 5q-131 0 -212 -86t-128 -244v-644h-24z"/>
<glyph glyph-name="s" horiz-adv-x="854" unicode="s" d="M696 894q-4 -6 -10 -6q-8 0 -23.5 13.5t-45 30t-74.5 30.5t-111 14q-62 0 -113.5 -19t-88.5 -50.5t-57.5 -72.5t-20.5 -86q0 -53 25 -88.5t65.5 -60t92.5 -41.5t106 -33.5t106 -35t92.5 -46.5t65.5 -68.5t25 -100.5t-21.5 -113t-62.5 -92t-100.5 -62t-135.5 -23 q-53 0 -94.5 8.5t-77 23.5t-66 37t-60.5 49l6 6q3 3 5 4.5t7 1.5q8 0 26 -17t50.5 -38t82 -38t121.5 -17t127.5 21t93.5 57.5t57.5 85t19.5 104.5q0 57 -25 94.5t-65.5 63.5t-92.5 43.5t-106 33.5t-106 34t-92.5 44.5t-65.5 65.5t-25 97q0 49 22 93.5t62 79t95.5 55 t122.5 20.5q83 0 146 -22.5t122 -73.5z"/>
<glyph glyph-name="t" horiz-adv-x="684" unicode="t" d="M418 -16q-86 0 -135 47t-49 155v732h-162q-14 0 -14 10v6l176 4l8 394q0 5 2.5 9.5t7.5 4.5h6v-408h334v-20h-334v-732q0 -50 12.5 -84.5t34.5 -56t51 -31.5t62 -10q42 0 73.5 13t53.5 28t35.5 28t19.5 13q4 0 8 -4l4 -4q-15 -20 -36.5 -37.5t-47 -30t-54 -19.5t-56.5 -7 z"/>
<glyph glyph-name="u" horiz-adv-x="1056" unicode="u" d="M174 980v-628q0 -82 18 -146.5t55.5 -109.5t93.5 -68.5t133 -23.5q115 0 211.5 61t170.5 169v746h24v-980h-6q-14 0 -14 16l-4 188q-35 -50 -77 -91t-91 -69.5t-103 -44t-111 -15.5q-164 0 -244 97t-80 271v628h24z"/>
<glyph glyph-name="v" horiz-adv-x="930" unicode="v" d="M30 980h14q8 0 12 -4.5t6 -9.5l390 -898q4 -9 7.5 -18t5.5 -19q2 10 5.5 19t7.5 18l390 898q7 14 18 14h14l-426 -980h-18z"/>
<glyph glyph-name="w" horiz-adv-x="1424" unicode="w" d="M30 980h14q8 0 12 -4.5t6 -9.5l300 -898q4 -11 7.5 -21t5.5 -20q2 10 5.5 20t7.5 21l312 908q3 10 10 10h6q7 0 10 -10l310 -908q4 -11 7.5 -22t5.5 -19q5 19 13 41l300 898q7 14 18 14h14l-336 -980h-10q-9 0 -12 10l-314 912q-6 16 -9 28q-2 -7 -4.5 -13.5t-4.5 -14.5 l-318 -912q-3 -10 -10 -10h-10z"/>
<glyph glyph-name="x" horiz-adv-x="846" unicode="x" d="M406 498l-352 482h22q8 0 12 -5.5t6 -8.5l329 -455q2 4 4 7t5 8l320 440q3 5 7.5 9.5t10.5 4.5h22l-353 -479l367 -501h-22q-8 0 -12 5.5t-6 8.5l-344 474q-1 -5 -8 -14l-334 -460q-4 -5 -8 -9.5t-10 -4.5h-22z"/>
<glyph glyph-name="y" horiz-adv-x="930" unicode="y" d="M324 -338q-3 -8 -9 -15t-15 -7h-14l168 377l-424 963h14q8 0 13 -4.5t7 -9.5l390 -890q4 -9 7.5 -18t5.5 -19q2 10 5.5 19t7.5 18l390 890q7 14 18 14h14z"/>
<glyph glyph-name="z" horiz-adv-x="888" unicode="z" d="M804 970q0 -3 -1.5 -5t-4.5 -7l-686 -938h662v-20h-696v6q0 5 1.5 7t4.5 7l687 940h-659v20h692v-10z"/>
<glyph glyph-name="braceleft" horiz-adv-x="600" unicode="{" d="M252 462q0 34 -13 63t-36 50t-54.5 33t-68.5 12v20q37 0 68.5 11.5t54.5 32.5t36 50t13 64q0 58 -10.5 113t-23.5 109t-23.5 109.5t-10.5 114.5q0 54 17.5 101t49 82t76 55t97.5 20h56v-8q0 -10 -12 -10h-44q-47 0 -86.5 -17t-69 -48.5t-46 -75.5t-16.5 -99 q0 -57 10.5 -112.5t23.5 -111t23.5 -111t10.5 -111.5q0 -38 -13.5 -67.5t-34.5 -50.5t-47 -33.5t-51 -16.5q25 -5 51 -17.5t47 -33.5t34.5 -50t13.5 -67q0 -56 -10.5 -111.5t-23.5 -111t-23.5 -111t-10.5 -112.5q0 -55 16.5 -99t46 -75.5t69 -48.5t86.5 -17h44q12 0 12 -10 v-8h-56q-53 0 -97.5 20t-76 55t-49 82t-17.5 101q0 59 10.5 114.5t23.5 109.5t23.5 108.5t10.5 113.5z"/>
<glyph glyph-name="bar" horiz-adv-x="600" unicode="|" d="M290 1502h20v-1862h-20v1862z"/>
<glyph glyph-name="braceright" horiz-adv-x="600" unicode="}" d="M348 462q0 -59 10.5 -113.5t23.5 -108.5t23.5 -109.5t10.5 -114.5q0 -54 -17.5 -101t-49 -82t-76 -55t-97.5 -20h-56v8q0 10 12 10h44q46 0 86 17t69.5 48.5t46 75.5t16.5 99q0 57 -10.5 112.5t-23.5 111t-23.5 111t-10.5 111.5q0 38 13.5 67t34.5 50t47 33.5t50 17.5 q-24 4 -50 16.5t-47 33.5t-34.5 50.5t-13.5 67.5q0 56 10.5 111.5t23.5 111t23.5 111t10.5 112.5q0 55 -16.5 99t-46 75.5t-69.5 48.5t-86 17h-44q-12 0 -12 10v8h56q53 0 97.5 -20t76 -55t49 -82t17.5 -101q0 -59 -10.5 -114.5t-23.5 -109.5t-23.5 -109t-10.5 -113 q0 -35 13 -64t36 -50t54.5 -32.5t68.5 -11.5v-20q-37 0 -68.5 -12t-54.5 -33t-36 -50t-13 -63z"/>
<glyph glyph-name="asciitilde" d="M796 528q42 0 75.5 15.5t57.5 42.5t37 63.5t14 78.5h20q0 -44 -13.5 -83.5t-39.5 -70t-64 -48.5t-87 -18q-51 0 -107 22.5t-112 49.5t-110.5 49.5t-102.5 22.5q-42 0 -75.5 -15.5t-57.5 -42.5t-37 -63.5t-14 -78.5h-20q0 43 13.5 83t39.5 70.5t64 48.5t87 18 q51 0 107 -22.5t112 -49.5t110.5 -49.5t102.5 -22.5z" unicode="~"/>
<glyph glyph-name="uni00A0" horiz-adv-x="386" unicode=" "/>
<glyph glyph-name="exclamdown" horiz-adv-x="610" unicode="¡" d="M240 932q0 27 18.5 45.5t45.5 18.5t46.5 -18.5t19.5 -45.5t-19.5 -46.5t-46.5 -19.5t-45.5 19.5t-18.5 46.5zM294 -360v558q0 44 0.5 82.5t1 78.5t1.5 86t3 105h16q1 -59 2.5 -105t2 -86t1 -78.5t0.5 -82.5v-558h-28z"/>
<glyph glyph-name="cent" d="M200 490q0 -113 29.5 -201.5t83.5 -150t130 -94.5t170 -36l32 968q-105 0 -187.5 -34t-139.5 -97t-87.5 -153t-30.5 -202zM612 -11q-100 3 -180.5 38t-137.5 99t-87.5 156t-30.5 208q0 114 32 207.5t92 159.5t147.5 102.5t198.5 36.5l8 230q0 16 12 16h10l-9 -247 q91 -3 161.5 -31t121.5 -70l-6 -6q-4 -4 -8 -4q-6 0 -23 13.5t-49 30t-80.5 31.5t-116.5 17l-33 -968q84 1 143 19t96.5 39.5t57 39.5t25.5 18q4 0 8 -4l4 -4q-16 -22 -47 -44.5t-74 -40.5t-97 -30t-116 -13l-8 -240q0 -16 -12 -16h-10z" unicode="¢"/>
<glyph glyph-name="sterling" d="M80 656q0 6 4.5 9t9.5 3h192v322q0 92 25 170t74 134.5t122 88t169 31.5q74 0 130 -18t97 -48t69 -70.5t48 -85.5l-8 -2q-2 -1 -3 -1h-4q-6 0 -13 11q-20 36 -44.5 71t-60.5 62t-87 44t-124 17q-90 0 -158.5 -30t-114.5 -83.5t-69.5 -128t-23.5 -162.5v-322h512v-10 q0 -5 -3.5 -7.5t-8.5 -2.5h-500v-358q0 -52 -12 -93.5t-34 -74.5t-53 -58.5t-70 -44.5q20 2 36.5 2.5t36.5 0.5h882v-10q0 -5 -4 -8.5t-10 -3.5h-976v22q35 16 67.5 38t57.5 54t40 75t15 101v358h-206v8z" unicode="£"/>
<glyph glyph-name="currency" d="M270 670q0 -64 24.5 -120.5t66.5 -98.5t98.5 -66.5t120.5 -24.5t121 24.5t99.5 66.5t67 98.5t24.5 120.5t-24.5 121t-67 99.5t-99.5 67t-121 24.5t-120.5 -24.5t-98.5 -67t-66.5 -99.5t-24.5 -121zM250 670q0 66 23.5 124t65.5 103l-157 157l14 14l157 -157 q45 42 103 66.5t124 24.5t124.5 -24t103.5 -66l156 156l14 -14l-156 -156q42 -45 66 -103.5t24 -124.5t-24.5 -124t-66.5 -103l157 -157l-14 -14l-157 157q-45 -42 -103 -65.5t-124 -23.5t-123.5 24t-102.5 66l-158 -158l-14 14l158 158q-42 45 -66 102.5t-24 123.5z" unicode="¤"/>
<glyph glyph-name="yen" d="M174 608h381l-435 792h20q9 0 14 -8l406 -750q5 -8 8 -14.5t6 -14.5q3 8 6 14.5t8 14.5l406 750q5 8 14 8h20l-435 -792h381v-20h-388v-128h388v-20h-388v-440h-24v440h-388v20h388v128h-388v20z" unicode="¥"/>
<glyph glyph-name="brokenbar" horiz-adv-x="600" unicode="¦" d="M290 402h20v-762h-20v762zM290 1502h20v-762h-20v762z"/>
<glyph glyph-name="section" horiz-adv-x="998" unicode="§" d="M182 728q0 -49 23 -86.5t61.5 -68t89 -55.5t104.5 -48.5t108 -48t100 -53.5q85 39 122.5 96t37.5 130q0 54 -20.5 95t-55.5 73t-80 56.5t-94.5 47t-99.5 44t-94 46.5q-111 -44 -156.5 -100.5t-45.5 -127.5zM536 1416q83 0 146 -22.5t120 -75.5l-3 -5q-4 -5 -9 -5 q-8 0 -23.5 13.5t-45 30t-74.5 30.5t-111 14q-62 0 -113.5 -19t-88.5 -50.5t-57.5 -72.5t-20.5 -86q0 -53 25.5 -92t67.5 -69.5t95 -55t109 -49t109 -52t95 -63t67.5 -82t25.5 -109.5q0 -85 -44 -144.5t-119 -95.5q54 -38 88.5 -86t34.5 -116q0 -60 -21.5 -113t-62.5 -92 t-100.5 -62t-135.5 -23q-53 0 -94.5 8.5t-77 23.5t-66 37t-60.5 49l6 6q3 3 5 4.5t7 1.5q8 0 26 -17t50.5 -38t82 -38t121.5 -17t127.5 21t93.5 57.5t57.5 85t19.5 104.5q0 57 -27 99t-71 75t-100.5 59.5t-115.5 51.5t-115.5 52t-100.5 60.5t-71 77t-27 101.5q0 36 11 70 t35 64.5t63 57t96 47.5q-29 18 -53 38t-41 44.5t-27 54t-10 64.5q0 49 22 93.5t62 79t95.5 55t122.5 20.5z"/>
<glyph glyph-name="dieresis" horiz-adv-x="560" unicode="¨" d="M500 1280q0 -21 -17.5 -37.5t-38.5 -16.5q-23 0 -39.5 16.5t-16.5 37.5q0 23 16.5 39.5t39.5 16.5q21 0 38.5 -16.5t17.5 -39.5zM172 1280q0 -21 -17.5 -37.5t-38.5 -16.5q-23 0 -39.5 16.5t-16.5 37.5q0 23 16.5 39.5t39.5 16.5q21 0 38.5 -16.5t17.5 -39.5z"/>
<glyph glyph-name="copyright" horiz-adv-x="1628" unicode="©" d="M124 700q0 -143 54 -269t147.5 -219.5t219.5 -147.5t269 -54q96 0 184 24.5t165 69.5t140 108t108.5 139.5t70 164.5t24.5 184q0 95 -24.5 183.5t-70 165.5t-108.5 140t-140 108.5t-165.5 70t-183.5 24.5q-96 0 -184 -24.5t-164.5 -70t-139.5 -108.5t-108 -140 t-69.5 -165.5t-24.5 -183.5zM100 700q0 148 56 278t153 227t227 153t278 56t278 -56t227 -153t153 -227t56 -278t-56 -278t-153 -227t-227 -153t-278 -56t-278 56t-227 153t-153 227t-56 278zM1136 384q2 2 6 2t10 -6l4 -4q-30 -26 -63.5 -48t-74 -38t-88.5 -25t-106 -9 q-95 0 -174.5 31t-137 88.5t-90 139.5t-32.5 185q0 100 32.5 182t91.5 140.5t141.5 91t182.5 32.5q51 0 92 -6.5t76.5 -19t67.5 -32t64 -44.5l-4 -6q-3 -4 -8 -4q-8 0 -25 14.5t-50 31.5t-84.5 31.5t-128.5 14.5q-94 0 -172 -29.5t-134 -85t-87 -134.5t-31 -177 q0 -100 31 -178.5t85.5 -133t129.5 -83.5t164 -29q57 0 101.5 7t81 20.5t67.5 34t62 46.5z"/>
<glyph glyph-name="ordfeminine" horiz-adv-x="660" unicode="ª" d="M278 848q41 0 74.5 9t62 24.5t53.5 36t48 42.5v166q-192 -6 -284 -45.5t-92 -108.5q0 -33 12 -56.5t31.5 -38.5t44 -22t50.5 -7zM516 1210q0 88 -39 135t-125 47q-47 0 -80 -12.5t-55 -27.5t-34.5 -27.5t-18.5 -12.5q-4 0 -8 4l-4 6q44 45 91 67.5t109 22.5 q95 0 140.5 -53.5t45.5 -148.5v-372h-8q-8 0 -10 10l-4 88q-52 -51 -107 -79.5t-133 -28.5q-29 0 -57 8t-50.5 25t-36.5 44t-14 65t23 69.5t72 54.5t124 36.5t179 15.5v64z"/>
<glyph glyph-name="guillemotleft" horiz-adv-x="828" unicode="«" d="M390 508v4l234 370l6 -4q6 -5 6 -12q0 -5 -4 -12l-204 -322q-14 -20 -18 -22q6 -5 18 -22l204 -322q4 -7 4 -12q0 -8 -6 -12l-6 -4zM170 508v4l234 370l6 -4q6 -5 6 -12q0 -5 -4 -12l-204 -322q-14 -20 -18 -22q6 -5 18 -22l204 -322q4 -7 4 -12q0 -8 -6 -12l-6 -4z"/>
<glyph glyph-name="logicalnot" d="M178 680h802v-320h-22v300h-780v20z" unicode="¬"/>
<glyph glyph-name="uni00AD" horiz-adv-x="640" unicode="­" d="M100 598h440v-20h-440v20z"/>
<glyph glyph-name="registered" horiz-adv-x="1628" unicode="®" d="M598 704h176q130 0 202 56t72 160q0 106 -65.5 153t-196.5 47h-188v-416zM598 684v-424h-24v880h212q137 0 211.5 -53.5t74.5 -166.5q0 -53 -20 -95.5t-57 -73t-88 -47.5t-113 -20q9 -4 16.5 -10.5t15.5 -15.5l334 -398h-20q-5 0 -8 1t-8 7l-330 394q-8 9 -19.5 15.5 t-40.5 6.5h-136zM124 700q0 -143 54 -269t147.5 -219.5t219.5 -147.5t269 -54q96 0 184 24.5t165 69.5t140 108t108.5 139.5t70 164.5t24.5 184q0 95 -24.5 183.5t-70 165.5t-108.5 140t-140 108.5t-165.5 70t-183.5 24.5q-96 0 -184 -24.5t-164.5 -70t-139.5 -108.5 t-108 -140t-69.5 -165.5t-24.5 -183.5zM100 700q0 148 56 278t153 227t227 153t278 56t278 -56t227 -153t153 -227t56 -278t-56 -278t-153 -227t-227 -153t-278 -56t-278 56t-227 153t-153 227t-56 278z"/>
<glyph glyph-name="macron" horiz-adv-x="560" unicode="¯" d="M20 1290h520v-20h-520v20z"/>
<glyph glyph-name="degree" horiz-adv-x="778" unicode="°" d="M132 1140q0 -53 20 -100t54.5 -81.5t81.5 -54.5t100 -20t100 20t81.5 54.5t54.5 81.5t20 100t-20 100t-54.5 81.5t-81.5 54.5t-100 20t-100 -20t-81.5 -54.5t-54.5 -81.5t-20 -100zM108 1140q0 58 22 108t59.5 87.5t88.5 59t110 21.5q58 0 109.5 -21.5t89 -59t59.5 -87.5 t22 -108t-22 -108.5t-59.5 -88t-89 -59.5t-109.5 -22q-59 0 -110 22t-88.5 59.5t-59.5 88t-22 108.5z"/>
<glyph glyph-name="plusminus" d="M118 100h922v-20h-922v20zM588 1110v-430h452v-20h-452v-432h-20v432h-450v20h450v430h20z" unicode="±"/>
<glyph glyph-name="twosuperior" horiz-adv-x="660" unicode="²" d="M340 1610q37 0 72.5 -11t63 -33.5t44 -57.5t16.5 -84q0 -40 -12.5 -74t-34 -65.5t-49.5 -61.5t-58 -61l-242 -246q23 4 62 4h344q8 0 8 -8v-12h-442v8q0 6 6 12l248 252q31 31 58 60.5t47 59.5t31.5 62.5t11.5 69.5q0 43 -15 74.5t-39 52t-55.5 30t-64.5 9.5 q-75 0 -123 -43.5t-63 -112.5q-3 -10 -14 -10l-10 2q6 43 24 77t45 58t63 36.5t78 12.5z"/>
<glyph glyph-name="threesuperior" horiz-adv-x="660" unicode="³" d="M344 1610q37 0 72 -10.5t61.5 -32t42.5 -54.5t16 -79q0 -35 -12.5 -64t-33 -51t-48 -36t-57.5 -20q83 -10 127 -57.5t44 -117.5q0 -41 -16.5 -76.5t-46.5 -62t-70.5 -42t-88.5 -15.5q-62 0 -102 17.5t-64.5 43.5t-37.5 57t-20 58l8 4q4 2 7 2q7 0 9 -5t4 -12 q3 -12 12.5 -36.5t31 -49t58 -43t94.5 -18.5q49 0 86.5 16.5t62 42t37 57t12.5 60.5q0 35 -12 65.5t-37.5 53t-67 35t-99.5 12.5v16q94 3 146 47.5t52 116.5q0 41 -14 71t-38 49.5t-54.5 28.5t-63.5 9q-40 0 -71.5 -12.5t-55 -33.5t-38.5 -49.5t-21 -60.5q-2 -10 -10 -10 q-3 1 -6 1q-6 0 -8 1q6 43 24 77t45 58t63 36.5t78 12.5z"/>
<glyph glyph-name="acute" horiz-adv-x="560" unicode="´" d="M448 1416l-202 -250q-7 -8 -16 -8h-14l164 236q9 14 17 18t25 4h26z"/>
<glyph glyph-name="mu" horiz-adv-x="1056" unicode="µ" d="M174 980v-644q0 -76 18.5 -137t56 -104.5t94 -67t131.5 -23.5q115 0 211.5 61t170.5 169v746h24v-980h-6q-13 0 -18 16v188q-35 -50 -77 -91t-91 -69.5t-103 -44t-111 -15.5q-130 0 -204 61.5t-99 174.5q1 -50 2 -107.5t1 -102.5v-370h-12q-6 0 -9 3.5t-3 8.5v1328h24z "/>
<glyph glyph-name="paragraph" horiz-adv-x="1200" unicode="¶" d="M1150 1378h-230v-1558h-24v1558h-372v-1558h-24v912q-103 0 -184 26t-137 72t-85.5 109t-29.5 137q0 75 29.5 135t85.5 102t137 64.5t184 22.5h650v-22z"/>
<glyph glyph-name="periodcentered" horiz-adv-x="520" unicode="·" d="M200 590q0 26 17.5 44t40.5 18q26 0 44 -18t18 -44q0 -23 -18 -40.5t-44 -17.5q-23 0 -40.5 17.5t-17.5 40.5z"/>
<glyph glyph-name="cedilla" horiz-adv-x="560" unicode="¸" d="M146 -296q4 0 13 -7t25 -15t39.5 -15t58.5 -7q60 0 94 26.5t34 73.5q0 31 -15 51t-41 32.5t-61 19t-75 11.5l40 126h18l-35 -109q43 -7 78 -16t60 -24t39 -36.5t14 -52.5q0 -29 -11.5 -51t-32.5 -37.5t-49.5 -23.5t-62.5 -8q-41 0 -81 14.5t-63 37.5l4 4q6 6 10 6z"/>
<glyph glyph-name="onesuperior" horiz-adv-x="660" unicode="¹" d="M200 918h168v626l4 33l-176 -159q-3 -3 -7 -3q-5 0 -8 4l-5 9l200 178h16v-688h162v-18h-354v18z"/>
<glyph glyph-name="ordmasculine" horiz-adv-x="734" unicode="º" d="M368 842q61 0 107 20t77 56t46.5 87t15.5 113t-15.5 113.5t-46.5 88t-77 56.5t-107 20q-62 0 -108 -20t-77.5 -56.5t-47 -88t-15.5 -113.5t15.5 -113t47 -87t77.5 -56t108 -20zM368 1412q64 0 113.5 -21t83.5 -59.5t51.5 -92.5t17.5 -121t-17.5 -121t-51.5 -92 t-83.5 -58.5t-113.5 -20.5q-65 0 -114.5 20.5t-84 58.5t-52 92t-17.5 121t17.5 121t52 92.5t84 59.5t114.5 21z"/>
<glyph glyph-name="guillemotright" horiz-adv-x="828" unicode="»" d="M654 512v-4l-234 -370l-6 4q-6 4 -6 12q0 5 4 12l204 322q6 10 10 15l7 7q-6 3 -17 22l-204 322q-4 7 -4 12q0 7 6 12l6 4zM434 512v-4l-234 -370l-6 4q-6 4 -6 12q0 5 4 12l204 322q6 10 10 15l7 7q-6 3 -17 22l-204 322q-4 7 -4 12q0 7 6 12l6 4z"/>
<glyph glyph-name="onequarter" horiz-adv-x="1424" unicode="¼" d="M186 716h168v626l4 33l-176 -159q-3 -3 -7 -3q-5 0 -8 4l-5 9l200 178h16v-688h162v-18h-354v18zM385 12q-5 -8 -10.5 -10t-11.5 -2h-10l784 1388q6 12 20 12h12zM1220 230v427q0 6 1 12l-331 -439h330zM1242 230h142v-10q0 -8 -10 -8h-132v-212h-22v212h-342 q-11 0 -12 6l-2 10l360 474h18v-472z"/>
<glyph glyph-name="onehalf" horiz-adv-x="1424" unicode="½" d="M336 12q-5 -8 -10.5 -10t-11.5 -2h-10l784 1388q6 12 20 12h12zM186 716h168v626l4 33l-176 -159q-3 -3 -7 -3q-5 0 -8 4l-5 9l200 178h16v-688h162v-18h-354v18zM1126 710q37 0 72.5 -11t63 -33.5t44 -57.5t16.5 -84q0 -40 -12.5 -74t-34 -65.5t-49.5 -61.5t-58 -61 l-242 -246q23 4 62 4h344q8 0 8 -8v-12h-442v8q0 6 6 12l248 252q31 31 58 60.5t47 59.5t31.5 62.5t11.5 69.5q0 43 -15 74.5t-39 52t-55.5 30t-64.5 9.5q-75 0 -123 -43.5t-63 -112.5q-3 -10 -14 -10l-10 2q6 43 24 77t45 58t63 36.5t78 12.5z"/>
<glyph glyph-name="threequarters" horiz-adv-x="1430" unicode="¾" d="M396 12q-5 -8 -10.5 -10t-11.5 -2h-10l784 1388q6 12 20 12h12zM330 1408q37 0 72 -10.5t61.5 -32t42.5 -54.5t16 -79q0 -35 -12.5 -64t-33 -51t-48 -36t-57.5 -20q83 -10 127 -57.5t44 -117.5q0 -41 -16.5 -76.5t-46.5 -62t-70.5 -42t-88.5 -15.5q-62 0 -102 17.5 t-64.5 43.5t-37.5 57t-20 58l8 4q4 2 6 2q8 0 10 -5.5t4 -11.5q3 -12 12.5 -36.5t31 -49t58 -43t94.5 -18.5q49 0 86.5 16.5t62 42t37 57t12.5 60.5q0 35 -12 65.5t-37.5 53t-67 35t-99.5 12.5v16q94 3 146 47.5t52 116.5q0 41 -14 71t-38 49.5t-54.5 28.5t-63.5 9 q-75 0 -123 -43.5t-63 -112.5q-3 -10 -12 -10l-12 2q6 43 24 77t45 58t63 36.5t78 12.5zM1220 230v427q0 6 1 12l-331 -439h330zM1242 230h142v-10q0 -8 -10 -8h-132v-212h-22v212h-342q-11 0 -12 6l-2 10l360 474h18v-472z"/>
<glyph glyph-name="questiondown" horiz-adv-x="694" unicode="¿" d="M326 930q0 27 18.5 46.5t45.5 19.5t46.5 -19.5t19.5 -46.5t-19.5 -45.5t-46.5 -18.5t-45.5 18.5t-18.5 45.5zM662 -234q-24 -26 -54.5 -50t-68 -43.5t-82.5 -31t-97 -11.5q-62 0 -119.5 19.5t-102 56t-71.5 89t-27 119.5q0 75 24.5 129t61.5 93.5t80.5 68.5t80.5 55.5 t62.5 54t26.5 63.5l6 172h16v-174q0 -39 -24.5 -68t-62 -56t-80.5 -55.5t-80.5 -67t-62 -90.5t-24.5 -125q0 -62 25 -111t66 -83t94.5 -52t110.5 -18q72 0 124.5 20t87 44t53 44t24.5 20q3 0 7 -4z"/>
<glyph glyph-name="Agrave" horiz-adv-x="1228" unicode="À" d="M253 498h722l-345 828q-5 11 -8.5 20.5t-7.5 20.5q-4 -11 -7.5 -20.5t-8.5 -20.5zM1208 0h-18q-9 0 -12 10l-195 468h-738l-195 -468q-3 -10 -14 -10h-16l584 1400h20zM414 1760q17 0 25 -3t17 -11l242 -208h-12q-9 0 -18 6l-290 216h36z"/>
<glyph glyph-name="Aacute" horiz-adv-x="1228" unicode="Á" d="M253 498h722l-345 828q-5 11 -8.5 20.5t-7.5 20.5q-4 -11 -7.5 -20.5t-8.5 -20.5zM1208 0h-18q-9 0 -12 10l-195 468h-738l-195 -468q-3 -10 -14 -10h-16l584 1400h20zM858 1760l-290 -216q-9 -6 -18 -6h-12l242 208q9 8 17 11t25 3h36z"/>
<glyph glyph-name="Acircumflex" horiz-adv-x="1228" unicode="Â" d="M253 498h722l-345 828q-5 11 -8.5 20.5t-7.5 20.5q-4 -11 -7.5 -20.5t-8.5 -20.5zM1208 0h-18q-9 0 -12 10l-195 468h-738l-195 -468q-3 -10 -14 -10h-16l584 1400h20zM854 1538h-20q-5 0 -10 1.5t-10 6.5l-196 160q-2 1 -2.5 2t-1.5 2l-4 -4l-196 -160q-9 -8 -20 -8h-20 l232 190h16z"/>
<glyph glyph-name="Atilde" horiz-adv-x="1228" unicode="Ã" d="M253 498h722l-345 828q-5 11 -8.5 20.5t-7.5 20.5q-4 -11 -7.5 -20.5t-8.5 -20.5zM1208 0h-18q-9 0 -12 10l-195 468h-738l-195 -468q-3 -10 -14 -10h-16l584 1400h20zM732 1576q50 0 74 33t26 81h16q0 -27 -7 -51.5t-21 -42.5t-36 -29t-52 -11q-32 0 -60 18t-55 40 t-53.5 40t-55.5 18q-24 0 -42.5 -9t-31 -24.5t-19 -36.5t-7.5 -44h-18q0 27 7.5 51.5t22.5 42.5t37 29t51 11q33 0 61 -18t54.5 -40t53 -40t55.5 -18z"/>
<glyph glyph-name="Adieresis" horiz-adv-x="1228" unicode="Ä" d="M253 498h722l-345 828q-5 11 -8.5 20.5t-7.5 20.5q-4 -11 -7.5 -20.5t-8.5 -20.5zM1208 0h-18q-9 0 -12 10l-195 468h-738l-195 -468q-3 -10 -14 -10h-16l584 1400h20zM874 1664q0 -21 -17.5 -37.5t-38.5 -16.5q-23 0 -39.5 16.5t-16.5 37.5q0 23 16.5 39.5t39.5 16.5 q21 0 38.5 -16.5t17.5 -39.5zM466 1664q0 -21 -17.5 -37.5t-38.5 -16.5q-23 0 -39.5 16.5t-16.5 37.5q0 23 16.5 39.5t39.5 16.5q21 0 38.5 -16.5t17.5 -39.5z"/>
<glyph glyph-name="Aring" horiz-adv-x="1228" unicode="Å" d="M253 498h722l-345 828q-5 11 -8.5 20.5t-7.5 20.5q-4 -11 -7.5 -20.5t-8.5 -20.5zM1208 0h-18q-9 0 -12 10l-195 468h-738l-195 -468q-3 -10 -14 -10h-16l584 1400h20zM488 1604q0 -27 9.5 -50t26.5 -40t40 -26.5t50 -9.5t50 9.5t40 26.5t26.5 40t9.5 50t-9.5 50 t-26.5 40t-40 26.5t-50 9.5t-50 -9.5t-40 -26.5t-26.5 -40t-9.5 -50zM466 1604q0 31 11.5 57t31.5 45.5t47 30.5t58 11t58 -11t47 -30.5t31.5 -45.5t11.5 -57t-11.5 -57t-31.5 -45.5t-47 -30.5t-58 -11t-58 11t-47 30.5t-31.5 45.5t-11.5 57z"/>
<glyph glyph-name="AE" horiz-adv-x="1838" unicode="Æ" d="M300 498h615l-114 880q-5 -14 -10.5 -25.5t-14.5 -26.5zM790 1400h906v-22h-873l85 -656h668v-22h-665l88 -678h699l-2 -22h-716l-62 478h-629l-270 -470q-4 -8 -13 -8h-20z"/>
<glyph glyph-name="Ccedilla" horiz-adv-x="1438" unicode="Ç" d="M668 -296q4 0 13 -7t25 -15t39.5 -15t58.5 -7q60 0 94 26.5t34 73.5q0 31 -15 51t-41 32.5t-61 19t-75 11.5l35 111q-135 5 -249 57t-196.5 144t-129 222t-46.5 292q0 160 48.5 292t137 226.5t212 146t272.5 51.5q76 0 137 -10t114 -30.5t100.5 -51.5t96.5 -72l-4 -6 q-3 -4 -8 -4q-7 0 -21 11.5t-36.5 28.5t-56 37t-79.5 37t-106.5 28.5t-136.5 11.5q-142 0 -260.5 -48.5t-204 -139t-133.5 -219.5t-48 -289q0 -163 47.5 -292t131.5 -219t198.5 -137.5t248.5 -47.5q85 0 152 12t122.5 35t103 56.5t94.5 76.5q5 5 8 5q4 0 7 -3l9 -8 q-44 -43 -94.5 -78.5t-110.5 -61t-132 -40t-159 -14.5h-11l-30 -93q43 -7 78 -16t60 -24t39 -36.5t14 -52.5q0 -29 -11.5 -51t-32.5 -37.5t-49.5 -23.5t-62.5 -8q-41 0 -81 14.5t-63 37.5l4 4q6 6 10 6z"/>
<glyph glyph-name="Egrave" horiz-adv-x="1200" unicode="È" d="M1058 1400v-22h-794v-656h674v-22h-674v-678h796l-2 -22h-818v1400h818zM456 1760q17 0 25 -3t17 -11l242 -208h-12q-9 0 -18 6l-290 216h36z"/>
<glyph glyph-name="Eacute" horiz-adv-x="1200" unicode="É" d="M1058 1400v-22h-794v-656h674v-22h-674v-678h796l-2 -22h-818v1400h818zM900 1760l-290 -216q-9 -6 -18 -6h-12l242 208q9 8 17 11t25 3h36z"/>
<glyph glyph-name="Ecircumflex" horiz-adv-x="1200" unicode="Ê" d="M1058 1400v-22h-794v-656h674v-22h-674v-678h796l-2 -22h-818v1400h818zM896 1538h-20q-5 0 -10 1.5t-10 6.5l-196 160l-4 4l-4 -4l-196 -160q-5 -5 -10 -6.5t-10 -1.5h-20l232 190h16z"/>
<glyph glyph-name="Edieresis" horiz-adv-x="1200" unicode="Ë" d="M1058 1400v-22h-794v-656h674v-22h-674v-678h796l-2 -22h-818v1400h818zM916 1664q0 -21 -17.5 -37.5t-38.5 -16.5q-23 0 -39.5 16.5t-16.5 37.5q0 23 16.5 39.5t39.5 16.5q21 0 38.5 -16.5t17.5 -39.5zM508 1664q0 -21 -17.5 -37.5t-38.5 -16.5q-23 0 -39.5 16.5 t-16.5 37.5q0 23 16.5 39.5t39.5 16.5q21 0 38.5 -16.5t17.5 -39.5z"/>
<glyph glyph-name="Igrave" horiz-adv-x="584" unicode="Ì" d="M304 0h-24v1400h24v-1400zM94 1760q17 0 25 -3t17 -11l242 -208h-12q-9 0 -18 6l-290 216h36z"/>
<glyph glyph-name="Iacute" horiz-adv-x="584" unicode="Í" d="M304 0h-24v1400h24v-1400zM538 1760l-290 -216q-9 -6 -18 -6h-12l242 208q9 8 17 11t25 3h36z"/>
<glyph glyph-name="Icircumflex" horiz-adv-x="584" unicode="Î" d="M304 0h-24v1400h24v-1400zM534 1538h-20q-5 0 -10 1.5t-10 6.5l-196 160l-4 4l-4 -4l-196 -160q-9 -8 -20 -8h-20l232 190h16z"/>
<glyph glyph-name="Idieresis" horiz-adv-x="584" unicode="Ï" d="M304 0h-24v1400h24v-1400zM554 1664q0 -21 -17.5 -37.5t-38.5 -16.5q-23 0 -39.5 16.5t-16.5 37.5q0 23 16.5 39.5t39.5 16.5q21 0 38.5 -16.5t17.5 -39.5zM146 1664q0 -21 -17.5 -37.5t-38.5 -16.5q-23 0 -39.5 16.5t-16.5 37.5q0 23 16.5 39.5t39.5 16.5 q21 0 38.5 -16.5t17.5 -39.5z"/>
<glyph glyph-name="Eth" horiz-adv-x="1572" unicode="Ð" d="M1402 700q0 163 -45.5 289.5t-127.5 213.5t-196.5 132t-252.5 45h-476v-658h424v-20h-424v-682h476q138 0 252.5 45t196.5 132t127.5 213.5t45.5 289.5zM48 722h232v678h500q144 0 263 -47t204.5 -137t133 -220t47.5 -296t-47.5 -296t-133 -220t-204.5 -137t-263 -47 h-500v702h-232v20z"/>
<glyph glyph-name="Ntilde" horiz-adv-x="1512" unicode="Ñ" d="M920 1574q50 0 74 33t26 81h16q0 -27 -7 -51.5t-21 -42.5t-36 -29t-52 -11q-32 0 -60 18t-55 40t-53.5 40t-55.5 18q-24 0 -42.5 -9t-31 -24.5t-19 -36.5t-7.5 -44h-18q0 27 7.5 51.5t22.5 42.5t37 29t51 11q33 0 61 -18t54.5 -40t53 -40t55.5 -18zM248 1400q9 0 14 -8 l991 -1349q-1 5 -1 10v1347h20v-1400h-6q-6 0 -11 7l-996 1355q1 -6 1 -13v-1349h-20v1400h8z"/>
<glyph glyph-name="Ograve" horiz-adv-x="1594" unicode="Ò" d="M1418 700q0 163 -45.5 292t-127.5 219t-196.5 137.5t-252.5 47.5q-136 0 -250 -47.5t-196.5 -137.5t-129 -219t-46.5 -292t46.5 -291.5t129 -218t196.5 -137t250 -47.5q138 0 252.5 47.5t196.5 137t127.5 218t45.5 291.5zM1444 700q0 -166 -47.5 -298t-133 -224.5 t-204.5 -142t-263 -49.5q-143 0 -261.5 49.5t-204 142t-133 224.5t-47.5 298q0 165 47.5 297.5t133 225.5t204 143t261.5 50q144 0 263 -49.5t204.5 -142.5t133 -225.5t47.5 -298.5zM598 1760q17 0 25 -3t17 -11l242 -208h-12q-9 0 -18 6l-290 216h36z"/>
<glyph glyph-name="Oacute" horiz-adv-x="1594" unicode="Ó" d="M1418 700q0 163 -45.5 292t-127.5 219t-196.5 137.5t-252.5 47.5q-136 0 -250 -47.5t-196.5 -137.5t-129 -219t-46.5 -292t46.5 -291.5t129 -218t196.5 -137t250 -47.5q138 0 252.5 47.5t196.5 137t127.5 218t45.5 291.5zM1444 700q0 -166 -47.5 -298t-133 -224.5 t-204.5 -142t-263 -49.5q-143 0 -261.5 49.5t-204 142t-133 224.5t-47.5 298q0 165 47.5 297.5t133 225.5t204 143t261.5 50q144 0 263 -49.5t204.5 -142.5t133 -225.5t47.5 -298.5zM1042 1760l-290 -216q-9 -6 -18 -6h-12l242 208q9 8 17 11t25 3h36z"/>
<glyph glyph-name="Ocircumflex" horiz-adv-x="1594" unicode="Ô" d="M1418 700q0 163 -45.5 292t-127.5 219t-196.5 137.5t-252.5 47.5q-136 0 -250 -47.5t-196.5 -137.5t-129 -219t-46.5 -292t46.5 -291.5t129 -218t196.5 -137t250 -47.5q138 0 252.5 47.5t196.5 137t127.5 218t45.5 291.5zM1444 700q0 -166 -47.5 -298t-133 -224.5 t-204.5 -142t-263 -49.5q-143 0 -261.5 49.5t-204 142t-133 224.5t-47.5 298q0 165 47.5 297.5t133 225.5t204 143t261.5 50q144 0 263 -49.5t204.5 -142.5t133 -225.5t47.5 -298.5zM1038 1538h-20q-5 0 -10 1.5t-10 6.5l-196 160l-4 4l-4 -4l-196 -160q-9 -8 -20 -8h-20 l232 190h16z"/>
<glyph glyph-name="Otilde" horiz-adv-x="1594" unicode="Õ" d="M1418 700q0 163 -45.5 292t-127.5 219t-196.5 137.5t-252.5 47.5q-136 0 -250 -47.5t-196.5 -137.5t-129 -219t-46.5 -292t46.5 -291.5t129 -218t196.5 -137t250 -47.5q138 0 252.5 47.5t196.5 137t127.5 218t45.5 291.5zM1444 700q0 -166 -47.5 -298t-133 -224.5 t-204.5 -142t-263 -49.5q-143 0 -261.5 49.5t-204 142t-133 224.5t-47.5 298q0 165 47.5 297.5t133 225.5t204 143t261.5 50q144 0 263 -49.5t204.5 -142.5t133 -225.5t47.5 -298.5zM916 1576q50 0 74 33t26 81h16q0 -27 -7 -51.5t-21 -42.5t-36 -29t-52 -11q-32 0 -60 18 t-55 40t-53.5 40t-55.5 18q-24 0 -42.5 -9t-31 -24.5t-19 -36.5t-7.5 -44h-18q0 27 7.5 51.5t22.5 42.5t37 29t51 11q33 0 61 -18t54.5 -40t53 -40t55.5 -18z"/>
<glyph glyph-name="Odieresis" horiz-adv-x="1594" unicode="Ö" d="M1418 700q0 163 -45.5 292t-127.5 219t-196.5 137.5t-252.5 47.5q-136 0 -250 -47.5t-196.5 -137.5t-129 -219t-46.5 -292t46.5 -291.5t129 -218t196.5 -137t250 -47.5q138 0 252.5 47.5t196.5 137t127.5 218t45.5 291.5zM1444 700q0 -166 -47.5 -298t-133 -224.5 t-204.5 -142t-263 -49.5q-143 0 -261.5 49.5t-204 142t-133 224.5t-47.5 298q0 165 47.5 297.5t133 225.5t204 143t261.5 50q144 0 263 -49.5t204.5 -142.5t133 -225.5t47.5 -298.5zM1058 1664q0 -21 -17.5 -37.5t-38.5 -16.5q-23 0 -39.5 16.5t-16.5 37.5q0 23 16.5 39.5 t39.5 16.5q21 0 38.5 -16.5t17.5 -39.5zM650 1664q0 -21 -17.5 -37.5t-38.5 -16.5q-23 0 -39.5 16.5t-16.5 37.5q0 23 16.5 39.5t39.5 16.5q21 0 38.5 -16.5t17.5 -39.5z"/>
<glyph glyph-name="multiply" d="M982 1056l-387 -386l387 -388l-14 -14l-388 387l-390 -389l-14 14l389 390l-389 388l16 16l388 -389l386 387z" unicode="×"/>
<glyph glyph-name="Oslash" horiz-adv-x="1594" unicode="Ø" d="M1418 700q0 175 -52 309.5t-146 225.5l-820 -1093q79 -67 179 -101.5t217 -34.5q138 0 252.5 47.5t196.5 137t127.5 218t45.5 291.5zM174 700q0 -180 55 -317t154 -227l821 1094q-80 72 -183 109t-225 37q-136 0 -250 -47.5t-196.5 -137.5t-129 -219t-46.5 -292z M1444 700q0 -166 -47.5 -298t-133 -224.5t-204.5 -142t-263 -49.5q-121 0 -224.5 35t-185.5 103l-160 -214q-9 -12 -22 -12h-14l180 240q-104 93 -162 234.5t-58 327.5q0 165 47.5 297.5t133 225.5t204 143t261.5 50q126 0 232.5 -38t189.5 -110l138 184q5 6 8.5 9t11.5 3 h16l-158 -211q100 -94 155 -233.5t55 -319.5z"/>
<glyph glyph-name="Ugrave" horiz-adv-x="1472" unicode="Ù" d="M736 4q113 0 202.5 40.5t151.5 110.5t95 164t33 201v880h24v-880q0 -111 -35 -209t-101 -171t-159.5 -115.5t-210.5 -42.5t-210.5 42.5t-159.5 115.5t-101 171t-35 209v880h24v-878q0 -107 33 -201.5t95 -165t151.5 -111t202.5 -40.5zM536 1760q17 0 25 -3t17 -11 l242 -208h-12q-9 0 -18 6l-290 216h36z"/>
<glyph glyph-name="Uacute" horiz-adv-x="1472" unicode="Ú" d="M736 4q113 0 202.5 40.5t151.5 110.5t95 164t33 201v880h24v-880q0 -111 -35 -209t-101 -171t-159.5 -115.5t-210.5 -42.5t-210.5 42.5t-159.5 115.5t-101 171t-35 209v880h24v-878q0 -107 33 -201.5t95 -165t151.5 -111t202.5 -40.5zM980 1760l-290 -216q-9 -6 -18 -6 h-12l242 208q9 8 17 11t25 3h36z"/>
<glyph glyph-name="Ucircumflex" horiz-adv-x="1472" unicode="Û" d="M736 4q113 0 202.5 40.5t151.5 110.5t95 164t33 201v880h24v-880q0 -111 -35 -209t-101 -171t-159.5 -115.5t-210.5 -42.5t-210.5 42.5t-159.5 115.5t-101 171t-35 209v880h24v-878q0 -107 33 -201.5t95 -165t151.5 -111t202.5 -40.5zM976 1538h-20q-5 0 -10 1.5t-10 6.5 l-196 160l-4 4l-4 -4l-196 -160q-9 -8 -20 -8h-20l232 190h16z"/>
<glyph glyph-name="Udieresis" horiz-adv-x="1472" unicode="Ü" d="M736 4q113 0 202.5 40.5t151.5 110.5t95 164t33 201v880h24v-880q0 -111 -35 -209t-101 -171t-159.5 -115.5t-210.5 -42.5t-210.5 42.5t-159.5 115.5t-101 171t-35 209v880h24v-878q0 -107 33 -201.5t95 -165t151.5 -111t202.5 -40.5zM996 1664q0 -21 -17.5 -37.5 t-38.5 -16.5q-23 0 -39.5 16.5t-16.5 37.5q0 23 16.5 39.5t39.5 16.5q21 0 38.5 -16.5t17.5 -39.5zM588 1664q0 -21 -17.5 -37.5t-38.5 -16.5q-23 0 -39.5 16.5t-16.5 37.5q0 23 16.5 39.5t39.5 16.5q21 0 38.5 -16.5t17.5 -39.5z"/>
<glyph glyph-name="Yacute" horiz-adv-x="1148" unicode="Ý" d="M586 595v-595h-24v595l-522 805h20q9 0 14 -8l471 -730q8 -13 15.5 -24.5t13.5 -23.5q5 12 13 23.5t16 24.5l471 730q5 8 14 8h20zM818 1760l-290 -216q-9 -6 -18 -6h-12l242 208q9 8 17 11t25 3h36z"/>
<glyph glyph-name="Thorn" horiz-adv-x="1158" unicode="Þ" d="M304 318h292q103 0 186 29.5t141.5 81t90.5 120.5t32 149q0 187 -112.5 283.5t-337.5 96.5h-292v-760zM304 298v-298h-24v1400h24v-302h292q229 0 351.5 -99t122.5 -301q0 -87 -34.5 -160.5t-97.5 -126.5t-150 -83t-192 -30h-292z"/>
<glyph glyph-name="germandbls" horiz-adv-x="1106" unicode="ß" d="M614 1414q70 0 128 -21t99.5 -56.5t64 -81.5t22.5 -95q0 -65 -25.5 -112.5t-63.5 -85.5t-83 -68.5t-83 -60.5t-63.5 -63t-25.5 -74t17.5 -67.5t46.5 -45.5t66 -32.5t76 -28t76 -32.5t66 -46.5t46.5 -69t17.5 -100.5t-21.5 -113t-62.5 -92t-100.5 -62t-135.5 -23 q-53 0 -94.5 8.5t-77 23.5t-66 37t-60.5 49l6 6q3 3 5 4.5t7 1.5q8 0 26 -17t50.5 -38t82 -38t121.5 -17t127.5 21t93.5 57.5t57.5 85t19.5 104.5q0 58 -17.5 97t-46.5 65.5t-66 43.5t-76 31.5t-76 28.5t-66 34t-46.5 49.5t-17.5 74.5q0 44 25.5 78.5t64 65.5t83.5 61.5 t83.5 67.5t64 83.5t25.5 109.5q0 30 -15 70t-49.5 76t-91 61t-138.5 25q-74 0 -142.5 -21.5t-121 -68t-84.5 -119t-32 -175.5v-1010h-24v1010q0 99 31.5 174.5t86 126.5t128 77t158.5 26z"/>
<glyph glyph-name="agrave" horiz-adv-x="938" unicode="à" d="M362 1416q17 0 25 -4t17 -18l164 -236h-14q-11 0 -16 8l-202 250h26zM370 4q69 0 125 16t103 43t87.5 62.5t78.5 74.5v302q-315 -10 -467.5 -78.5t-152.5 -193.5q0 -59 19.5 -101.5t51 -70t72 -41t83.5 -13.5zM784 0q-14 0 -14 16l-6 159q-42 -44 -84 -79.5t-89 -60 t-101 -38t-120 -13.5q-44 0 -88.5 13.5t-80.5 43t-58.5 76t-22.5 113.5q0 66 38.5 118.5t118 89.5t200.5 58.5t287 25.5v126q0 77 -17 138t-50 103t-83 64.5t-116 22.5q-52 0 -94 -11t-75 -27t-57.5 -35t-42.5 -35t-29 -27t-16 -11q-4 0 -10 6l-4 4q72 76 149 116t179 40 q75 0 129.5 -24t90.5 -69t53 -109.5t17 -145.5v-648h-4z"/>
<glyph glyph-name="aacute" horiz-adv-x="938" unicode="á" d="M656 1416l-202 -250q-7 -8 -16 -8h-14l164 236q9 14 17 18t25 4h26zM370 4q69 0 125 16t103 43t87.5 62.5t78.5 74.5v302q-315 -10 -467.5 -78.5t-152.5 -193.5q0 -59 19.5 -101.5t51 -70t72 -41t83.5 -13.5zM784 0q-14 0 -14 16l-6 159q-42 -44 -84 -79.5t-89 -60 t-101 -38t-120 -13.5q-44 0 -88.5 13.5t-80.5 43t-58.5 76t-22.5 113.5q0 66 38.5 118.5t118 89.5t200.5 58.5t287 25.5v126q0 77 -17 138t-50 103t-83 64.5t-116 22.5q-52 0 -94 -11t-75 -27t-57.5 -35t-42.5 -35t-29 -27t-16 -11q-4 0 -10 6l-4 4q72 76 149 116t179 40 q75 0 129.5 -24t90.5 -69t53 -109.5t17 -145.5v-648h-4z"/>
<glyph glyph-name="acircumflex" horiz-adv-x="938" unicode="â" d="M708 1170h-18q-8 0 -16 8l-180 196l-6 6l-6 -6l-180 -196q-3 -3 -7 -5.5t-9 -2.5h-18l212 230h16zM370 4q69 0 125 16t103 43t87.5 62.5t78.5 74.5v302q-315 -10 -467.5 -78.5t-152.5 -193.5q0 -59 19.5 -101.5t51 -70t72 -41t83.5 -13.5zM784 0q-14 0 -14 16l-6 159 q-42 -44 -84 -79.5t-89 -60t-101 -38t-120 -13.5q-44 0 -88.5 13.5t-80.5 43t-58.5 76t-22.5 113.5q0 66 38.5 118.5t118 89.5t200.5 58.5t287 25.5v126q0 77 -17 138t-50 103t-83 64.5t-116 22.5q-52 0 -94 -11t-75 -27t-57.5 -35t-42.5 -35t-29 -27t-16 -11q-4 0 -10 6 l-4 4q72 76 149 116t179 40q75 0 129.5 -24t90.5 -69t53 -109.5t17 -145.5v-648h-4z"/>
<glyph glyph-name="atilde" horiz-adv-x="938" unicode="ã" d="M606 1242q50 0 74 33t26 81h16q0 -27 -7 -51.5t-21 -42.5t-36 -29t-52 -11q-32 0 -60 18t-55 40t-53.5 40t-55.5 18q-24 0 -42.5 -9t-31 -24.5t-19 -36.5t-7.5 -44h-18q0 27 7.5 51.5t22.5 42.5t37 29t51 11q33 0 61 -18t54.5 -40t53 -40t55.5 -18zM370 4q69 0 125 16 t103 43t87.5 62.5t78.5 74.5v302q-315 -10 -467.5 -78.5t-152.5 -193.5q0 -59 19.5 -101.5t51 -70t72 -41t83.5 -13.5zM784 0q-14 0 -14 16l-6 159q-42 -44 -84 -79.5t-89 -60t-101 -38t-120 -13.5q-44 0 -88.5 13.5t-80.5 43t-58.5 76t-22.5 113.5q0 66 38.5 118.5 t118 89.5t200.5 58.5t287 25.5v126q0 77 -17 138t-50 103t-83 64.5t-116 22.5q-52 0 -94 -11t-75 -27t-57.5 -35t-42.5 -35t-29 -27t-16 -11q-4 0 -10 6l-4 4q72 76 149 116t179 40q75 0 129.5 -24t90.5 -69t53 -109.5t17 -145.5v-648h-4z"/>
<glyph glyph-name="adieresis" horiz-adv-x="938" unicode="ä" d="M708 1280q0 -21 -17.5 -37.5t-38.5 -16.5q-23 0 -39.5 16.5t-16.5 37.5q0 23 16.5 39.5t39.5 16.5q21 0 38.5 -16.5t17.5 -39.5zM380 1280q0 -21 -17.5 -37.5t-38.5 -16.5q-23 0 -39.5 16.5t-16.5 37.5q0 23 16.5 39.5t39.5 16.5q21 0 38.5 -16.5t17.5 -39.5zM370 4 q69 0 125 16t103 43t87.5 62.5t78.5 74.5v302q-315 -10 -467.5 -78.5t-152.5 -193.5q0 -59 19.5 -101.5t51 -70t72 -41t83.5 -13.5zM784 0q-14 0 -14 16l-6 159q-42 -44 -84 -79.5t-89 -60t-101 -38t-120 -13.5q-44 0 -88.5 13.5t-80.5 43t-58.5 76t-22.5 113.5 q0 66 38.5 118.5t118 89.5t200.5 58.5t287 25.5v126q0 77 -17 138t-50 103t-83 64.5t-116 22.5q-52 0 -94 -11t-75 -27t-57.5 -35t-42.5 -35t-29 -27t-16 -11q-4 0 -10 6l-4 4q72 76 149 116t179 40q75 0 129.5 -24t90.5 -69t53 -109.5t17 -145.5v-648h-4z"/>
<glyph glyph-name="aring" horiz-adv-x="938" unicode="å" d="M362 1290q0 -27 9.5 -50t26.5 -40t40 -26.5t50 -9.5t50 9.5t40 26.5t26.5 40t9.5 50t-9.5 50t-26.5 40t-40 26.5t-50 9.5t-50 -9.5t-40 -26.5t-26.5 -40t-9.5 -50zM340 1290q0 31 11.5 57t31.5 45.5t47 30.5t58 11t58 -11t47 -30.5t31.5 -45.5t11.5 -57t-11.5 -57 t-31.5 -45.5t-47 -30.5t-58 -11t-58 11t-47 30.5t-31.5 45.5t-11.5 57zM370 4q69 0 125 16t103 43t87.5 62.5t78.5 74.5v302q-315 -10 -467.5 -78.5t-152.5 -193.5q0 -59 19.5 -101.5t51 -70t72 -41t83.5 -13.5zM784 0q-14 0 -14 16l-6 159q-42 -44 -84 -79.5t-89 -60 t-101 -38t-120 -13.5q-44 0 -88.5 13.5t-80.5 43t-58.5 76t-22.5 113.5q0 66 38.5 118.5t118 89.5t200.5 58.5t287 25.5v126q0 77 -17 138t-50 103t-83 64.5t-116 22.5q-52 0 -94 -11t-75 -27t-57.5 -35t-42.5 -35t-29 -27t-16 -11q-4 0 -10 6l-4 4q72 76 149 116t179 40 q75 0 129.5 -24t90.5 -69t53 -109.5t17 -145.5v-648h-4z"/>
<glyph glyph-name="ae" horiz-adv-x="1590" unicode="æ" d="M1154 976q-82 0 -147.5 -30t-112 -84.5t-74 -130.5t-33.5 -169h677q0 103 -24 180.5t-66 129.5t-98.5 78t-121.5 26zM764 542q-158 -5 -274.5 -27.5t-193 -60.5t-114.5 -89.5t-38 -114.5q0 -66 20 -112.5t54.5 -76.5t82 -43.5t103.5 -13.5q74 0 139.5 25.5t114.5 73.5 t77.5 115.5t28.5 151.5v172zM1152 996q70 0 130.5 -28t105.5 -83.5t70.5 -138.5t25.5 -192q0 -10 -10 -10h-687q-1 -8 -1 -17v-17q0 -122 26.5 -215.5t75 -157t117 -96.5t151.5 -33q73 0 126.5 18t89.5 40t55.5 40t24.5 18q4 0 8 -4l4 -4q-15 -21 -45.5 -43.5t-71.5 -41.5 t-90 -31t-101 -12q-152 0 -248 93.5t-127 266.5q-3 -69 -22 -123t-49 -94.5t-68 -68.5t-79 -45.5t-82 -25t-77 -7.5q-57 0 -108.5 13.5t-90.5 45t-62 82.5t-23 125q0 66 38.5 121.5t118 96.5t200.5 65.5t287 28.5v86q0 77 -17 138t-50 103t-83 64.5t-116 22.5q-52 0 -94 -11 t-75 -27t-57.5 -35t-42.5 -35t-29 -27t-16 -11q-4 0 -10 6l-4 4q72 76 149 116t179 40q70 0 123 -23.5t88.5 -67t53.5 -106t19 -140.5q15 77 47 139t79 106t108 68t136 24z"/>
<glyph glyph-name="ccedilla" horiz-adv-x="890" unicode="ç" d="M388 -296q4 0 13 -7t25 -15t39.5 -15t58.5 -7q60 0 94 26.5t34 73.5q0 31 -15 51t-41 32.5t-61 19t-75 11.5l36 115q-91 3 -164.5 38t-125 99t-79 156t-27.5 208q0 114 29 207.5t84 159.5t134.5 102.5t180.5 36.5q89 0 158.5 -28.5t119.5 -73.5l-6 -6q-4 -4 -8 -4 q-6 0 -22.5 14.5t-48 31.5t-79 31.5t-114.5 14.5q-95 0 -170 -34t-127 -97t-79.5 -153t-27.5 -202q0 -116 27.5 -205.5t78.5 -151t122.5 -93.5t159.5 -32q78 0 132 18t89 40t53 40t24 18q4 0 8 -4l4 -4q-15 -22 -44 -44.5t-68.5 -41t-89 -30.5t-106.5 -12l-31 -97 q43 -7 78 -16t60 -24t39 -36.5t14 -52.5q0 -29 -11.5 -51t-32.5 -37.5t-49.5 -23.5t-62.5 -8q-41 0 -81 14.5t-63 37.5l4 4q6 6 10 6z"/>
<glyph glyph-name="egrave" horiz-adv-x="1000" unicode="è" d="M400 1416q17 0 25 -4t17 -18l164 -236h-14q-11 0 -16 8l-202 250h26zM528 976q-88 0 -158.5 -28.5t-121.5 -80t-81.5 -124.5t-39.5 -161h745q0 95 -26 168.5t-72.5 123.5t-109.5 76t-136 26zM528 996q77 0 144 -27.5t116.5 -81.5t77.5 -132.5t28 -180.5q0 -5 -3.5 -7.5 t-8.5 -2.5h-756q-2 -14 -2 -27v-27q0 -122 29 -215.5t82.5 -157t129 -96.5t167.5 -33q83 0 142.5 18t99 40t60 40t26.5 18q4 0 8 -4l4 -4q-17 -21 -50.5 -43.5t-79 -41.5t-99.5 -31t-111 -12q-101 0 -181 35.5t-135.5 102.5t-85.5 164t-30 220q0 108 29 197.5t84 153.5 t134.5 99.5t180.5 35.5z"/>
<glyph glyph-name="eacute" horiz-adv-x="1000" unicode="é" d="M694 1416l-202 -250q-7 -8 -16 -8h-14l164 236q9 14 17 18t25 4h26zM528 976q-88 0 -158.5 -28.5t-121.5 -80t-81.5 -124.5t-39.5 -161h745q0 95 -26 168.5t-72.5 123.5t-109.5 76t-136 26zM528 996q77 0 144 -27.5t116.5 -81.5t77.5 -132.5t28 -180.5q0 -5 -3.5 -7.5 t-8.5 -2.5h-756q-2 -14 -2 -27v-27q0 -122 29 -215.5t82.5 -157t129 -96.5t167.5 -33q83 0 142.5 18t99 40t60 40t26.5 18q4 0 8 -4l4 -4q-17 -21 -50.5 -43.5t-79 -41.5t-99.5 -31t-111 -12q-101 0 -181 35.5t-135.5 102.5t-85.5 164t-30 220q0 108 29 197.5t84 153.5 t134.5 99.5t180.5 35.5z"/>
<glyph glyph-name="ecircumflex" horiz-adv-x="1000" unicode="ê" d="M746 1170h-18q-8 0 -16 8l-180 196l-6 6l-6 -6l-180 -196q-3 -3 -7 -5.5t-9 -2.5h-18l212 230h16zM528 976q-88 0 -158.5 -28.5t-121.5 -80t-81.5 -124.5t-39.5 -161h745q0 95 -26 168.5t-72.5 123.5t-109.5 76t-136 26zM528 996q77 0 144 -27.5t116.5 -81.5t77.5 -132.5 t28 -180.5q0 -5 -3.5 -7.5t-8.5 -2.5h-756q-2 -14 -2 -27v-27q0 -122 29 -215.5t82.5 -157t129 -96.5t167.5 -33q83 0 142.5 18t99 40t60 40t26.5 18q4 0 8 -4l4 -4q-17 -21 -50.5 -43.5t-79 -41.5t-99.5 -31t-111 -12q-101 0 -181 35.5t-135.5 102.5t-85.5 164t-30 220 q0 108 29 197.5t84 153.5t134.5 99.5t180.5 35.5z"/>
<glyph glyph-name="edieresis" horiz-adv-x="1000" unicode="ë" d="M746 1280q0 -21 -17.5 -37.5t-38.5 -16.5q-23 0 -39.5 16.5t-16.5 37.5q0 23 16.5 39.5t39.5 16.5q21 0 38.5 -16.5t17.5 -39.5zM418 1280q0 -21 -17.5 -37.5t-38.5 -16.5q-23 0 -39.5 16.5t-16.5 37.5q0 23 16.5 39.5t39.5 16.5q21 0 38.5 -16.5t17.5 -39.5zM528 976 q-88 0 -158.5 -28.5t-121.5 -80t-81.5 -124.5t-39.5 -161h745q0 95 -26 168.5t-72.5 123.5t-109.5 76t-136 26zM528 996q77 0 144 -27.5t116.5 -81.5t77.5 -132.5t28 -180.5q0 -5 -3.5 -7.5t-8.5 -2.5h-756q-2 -14 -2 -27v-27q0 -122 29 -215.5t82.5 -157t129 -96.5 t167.5 -33q83 0 142.5 18t99 40t60 40t26.5 18q4 0 8 -4l4 -4q-17 -21 -50.5 -43.5t-79 -41.5t-99.5 -31t-111 -12q-101 0 -181 35.5t-135.5 102.5t-85.5 164t-30 220q0 108 29 197.5t84 153.5t134.5 99.5t180.5 35.5z"/>
<glyph glyph-name="igrave" horiz-adv-x="444" unicode="ì" d="M97 1416q17 0 25 -4t17 -18l164 -236h-14q-11 0 -16 8l-202 250h26zM234 980v-980h-24v980h24z"/>
<glyph glyph-name="iacute" horiz-adv-x="444" unicode="í" d="M391 1416l-202 -250q-7 -8 -16 -8h-14l164 236q9 14 17 18t25 4h26zM234 980v-980h-24v980h24z"/>
<glyph glyph-name="icircumflex" horiz-adv-x="444" unicode="î" d="M443 1170h-18q-8 0 -16 8l-180 196l-6 6l-6 -6l-180 -196q-3 -3 -7 -5.5t-9 -2.5h-18l212 230h16zM234 980v-980h-24v980h24z"/>
<glyph glyph-name="idieresis" horiz-adv-x="444" unicode="ï" d="M443 1280q0 -21 -17.5 -37.5t-38.5 -16.5q-23 0 -39.5 16.5t-16.5 37.5q0 23 16.5 39.5t39.5 16.5q21 0 38.5 -16.5t17.5 -39.5zM115 1280q0 -21 -17.5 -37.5t-38.5 -16.5q-23 0 -39.5 16.5t-16.5 37.5q0 23 16.5 39.5t39.5 16.5q21 0 38.5 -16.5t17.5 -39.5zM234 980 v-980h-24v980h24z"/>
<glyph glyph-name="eth" horiz-adv-x="1042" unicode="ð" d="M514 10q101 0 176.5 41t126.5 113.5t78 173.5t30 221q-14 58 -45.5 117.5t-81 108.5t-118 80t-156.5 31q-99 0 -174 -34.5t-125 -95t-75.5 -143t-25.5 -177.5q0 -103 31.5 -184t85.5 -137t124.5 -85.5t148.5 -29.5zM485 1074q-5 3 -5 10q0 4 4 8l137 145q-72 45 -151 73 t-162 42q-12 2 -12 8v5q0 2 1 3l1 4q86 -14 171.5 -42.5t163.5 -79.5l137 148l4 -4q3 -3 3 -9q0 -5 -6 -12l-122 -134q64 -44 118 -103.5t94 -139t62.5 -179.5t22.5 -223q0 -134 -26 -245t-79 -190.5t-134.5 -124t-192.5 -44.5q-85 0 -160 32t-131.5 91t-89.5 143.5 t-33 189.5q0 98 27.5 184t81.5 149.5t133 100t182 36.5q55 0 115 -17t115.5 -53.5t101.5 -95t72 -142.5q-2 116 -24 211t-60.5 171.5t-91.5 134.5t-116 101l-146 -156z"/>
<glyph glyph-name="ntilde" horiz-adv-x="1056" unicode="ñ" d="M654 1242q50 0 74 33t26 81h16q0 -27 -7 -51.5t-21 -42.5t-36 -29t-52 -11q-32 0 -60 18t-55 40t-53.5 40t-55.5 18q-24 0 -42.5 -9t-31 -24.5t-19 -36.5t-7.5 -44h-18q0 27 7.5 51.5t22.5 42.5t37 29t51 11q33 0 61 -18t54.5 -40t53 -40t55.5 -18zM176 0v980h6 q14 0 14 -16l3 -189q34 50 76.5 91t91.5 70t103 44.5t112 15.5q163 0 243.5 -97t80.5 -271v-628h-24v628q0 82 -18 146.5t-55.5 109.5t-94 68.5t-132.5 23.5q-115 0 -212 -61.5t-170 -169.5v-745h-24z"/>
<glyph glyph-name="ograve" horiz-adv-x="1056" unicode="ò" d="M404 1416q17 0 25 -4t17 -18l164 -236h-14q-11 0 -16 8l-202 250h26zM528 8q100 0 176 35t126.5 98t76 152t25.5 197t-25.5 197.5t-76 153.5t-126.5 99.5t-176 35.5q-101 0 -176.5 -35.5t-126 -99.5t-76 -153.5t-25.5 -197.5t25.5 -197t76 -152t126 -98t176.5 -35z M528 996q103 0 183 -36.5t134.5 -102.5t82.5 -159.5t28 -207.5t-28 -206.5t-82.5 -158.5t-134.5 -101.5t-183 -35.5q-104 0 -183.5 35.5t-134 101.5t-82.5 158.5t-28 206.5t28 207.5t82.5 159.5t134 102.5t183.5 36.5z"/>
<glyph glyph-name="oacute" horiz-adv-x="1056" unicode="ó" d="M698 1416l-202 -250q-7 -8 -16 -8h-14l164 236q9 14 17 18t25 4h26zM528 8q100 0 176 35t126.5 98t76 152t25.5 197t-25.5 197.5t-76 153.5t-126.5 99.5t-176 35.5q-101 0 -176.5 -35.5t-126 -99.5t-76 -153.5t-25.5 -197.5t25.5 -197t76 -152t126 -98t176.5 -35z M528 996q103 0 183 -36.5t134.5 -102.5t82.5 -159.5t28 -207.5t-28 -206.5t-82.5 -158.5t-134.5 -101.5t-183 -35.5q-104 0 -183.5 35.5t-134 101.5t-82.5 158.5t-28 206.5t28 207.5t82.5 159.5t134 102.5t183.5 36.5z"/>
<glyph glyph-name="ocircumflex" horiz-adv-x="1056" unicode="ô" d="M750 1170h-18q-8 0 -16 8l-180 196l-6 6l-6 -6l-180 -196q-3 -3 -7 -5.5t-9 -2.5h-18l212 230h16zM528 8q100 0 176 35t126.5 98t76 152t25.5 197t-25.5 197.5t-76 153.5t-126.5 99.5t-176 35.5q-101 0 -176.5 -35.5t-126 -99.5t-76 -153.5t-25.5 -197.5t25.5 -197 t76 -152t126 -98t176.5 -35zM528 996q103 0 183 -36.5t134.5 -102.5t82.5 -159.5t28 -207.5t-28 -206.5t-82.5 -158.5t-134.5 -101.5t-183 -35.5q-104 0 -183.5 35.5t-134 101.5t-82.5 158.5t-28 206.5t28 207.5t82.5 159.5t134 102.5t183.5 36.5z"/>
<glyph glyph-name="otilde" horiz-adv-x="1056" unicode="õ" d="M648 1242q50 0 74 33t26 81h16q0 -27 -7 -51.5t-21 -42.5t-36 -29t-52 -11q-32 0 -60 18t-55 40t-53.5 40t-55.5 18q-24 0 -42.5 -9t-31 -24.5t-19 -36.5t-7.5 -44h-18q0 27 7.5 51.5t22.5 42.5t37 29t51 11q33 0 61 -18t54.5 -40t53 -40t55.5 -18zM528 8q100 0 176 35 t126.5 98t76 152t25.5 197t-25.5 197.5t-76 153.5t-126.5 99.5t-176 35.5q-101 0 -176.5 -35.5t-126 -99.5t-76 -153.5t-25.5 -197.5t25.5 -197t76 -152t126 -98t176.5 -35zM528 996q103 0 183 -36.5t134.5 -102.5t82.5 -159.5t28 -207.5t-28 -206.5t-82.5 -158.5 t-134.5 -101.5t-183 -35.5q-104 0 -183.5 35.5t-134 101.5t-82.5 158.5t-28 206.5t28 207.5t82.5 159.5t134 102.5t183.5 36.5z"/>
<glyph glyph-name="odieresis" horiz-adv-x="1056" unicode="ö" d="M750 1280q0 -21 -17.5 -37.5t-38.5 -16.5q-23 0 -39.5 16.5t-16.5 37.5q0 23 16.5 39.5t39.5 16.5q21 0 38.5 -16.5t17.5 -39.5zM422 1280q0 -21 -17.5 -37.5t-38.5 -16.5q-23 0 -39.5 16.5t-16.5 37.5q0 23 16.5 39.5t39.5 16.5q21 0 38.5 -16.5t17.5 -39.5zM528 8 q100 0 176 35t126.5 98t76 152t25.5 197t-25.5 197.5t-76 153.5t-126.5 99.5t-176 35.5q-101 0 -176.5 -35.5t-126 -99.5t-76 -153.5t-25.5 -197.5t25.5 -197t76 -152t126 -98t176.5 -35zM528 996q103 0 183 -36.5t134.5 -102.5t82.5 -159.5t28 -207.5t-28 -206.5 t-82.5 -158.5t-134.5 -101.5t-183 -35.5q-104 0 -183.5 35.5t-134 101.5t-82.5 158.5t-28 206.5t28 207.5t82.5 159.5t134 102.5t183.5 36.5z"/>
<glyph glyph-name="divide" d="M514 312q0 27 18.5 46.5t45.5 19.5t46.5 -19.5t19.5 -46.5t-19.5 -45.5t-46.5 -18.5t-45.5 18.5t-18.5 45.5zM514 1024q0 27 18.5 46.5t45.5 19.5t46.5 -19.5t19.5 -46.5t-19.5 -45.5t-46.5 -18.5t-45.5 18.5t-18.5 45.5zM118 680h922v-20h-922v20z" unicode="÷"/>
<glyph glyph-name="oslash" horiz-adv-x="1056" unicode="ø" d="M528 8q100 0 176 35t126.5 98t76 152t25.5 197q0 110 -26.5 200.5t-79.5 154.5l-559 -748q49 -44 114 -66.5t147 -22.5zM124 490q0 -122 32 -218t95 -160l561 750q-51 54 -121.5 84t-162.5 30q-101 0 -176.5 -35.5t-126 -99.5t-76 -153.5t-25.5 -197.5zM840 863 q57 -67 86.5 -161t29.5 -212q0 -114 -28 -206.5t-82.5 -158.5t-134.5 -101.5t-183 -35.5q-167 0 -274 92l-106 -142q-9 -12 -22 -12h-14l126 169q-68 66 -103 166t-35 229q0 114 28 207.5t82.5 159.5t134 102.5t183.5 36.5q95 0 169 -30t128 -87l105 141q5 6 8.5 9t11.5 3 h16z"/>
<glyph glyph-name="ugrave" horiz-adv-x="1056" unicode="ù" d="M396 1416q17 0 25 -4t17 -18l164 -236h-14q-11 0 -16 8l-202 250h26zM174 980v-628q0 -82 18 -146.5t55.5 -109.5t93.5 -68.5t133 -23.5q115 0 211.5 61t170.5 169v746h24v-980h-6q-14 0 -14 16l-4 188q-35 -50 -77 -91t-91 -69.5t-103 -44t-111 -15.5q-164 0 -244 97 t-80 271v628h24z"/>
<glyph glyph-name="uacute" horiz-adv-x="1056" unicode="ú" d="M690 1416l-202 -250q-7 -8 -16 -8h-14l164 236q9 14 17 18t25 4h26zM174 980v-628q0 -82 18 -146.5t55.5 -109.5t93.5 -68.5t133 -23.5q115 0 211.5 61t170.5 169v746h24v-980h-6q-14 0 -14 16l-4 188q-35 -50 -77 -91t-91 -69.5t-103 -44t-111 -15.5q-164 0 -244 97 t-80 271v628h24z"/>
<glyph glyph-name="ucircumflex" horiz-adv-x="1056" unicode="û" d="M742 1170h-18q-8 0 -16 8l-180 196l-6 6l-6 -6l-180 -196q-3 -3 -7 -5.5t-9 -2.5h-18l212 230h16zM174 980v-628q0 -82 18 -146.5t55.5 -109.5t93.5 -68.5t133 -23.5q115 0 211.5 61t170.5 169v746h24v-980h-6q-14 0 -14 16l-4 188q-35 -50 -77 -91t-91 -69.5t-103 -44 t-111 -15.5q-164 0 -244 97t-80 271v628h24z"/>
<glyph glyph-name="udieresis" horiz-adv-x="1056" unicode="ü" d="M742 1280q0 -21 -17.5 -37.5t-38.5 -16.5q-23 0 -39.5 16.5t-16.5 37.5q0 23 16.5 39.5t39.5 16.5q21 0 38.5 -16.5t17.5 -39.5zM414 1280q0 -21 -17.5 -37.5t-38.5 -16.5q-23 0 -39.5 16.5t-16.5 37.5q0 23 16.5 39.5t39.5 16.5q21 0 38.5 -16.5t17.5 -39.5zM174 980 v-628q0 -82 18 -146.5t55.5 -109.5t93.5 -68.5t133 -23.5q115 0 211.5 61t170.5 169v746h24v-980h-6q-14 0 -14 16l-4 188q-35 -50 -77 -91t-91 -69.5t-103 -44t-111 -15.5q-164 0 -244 97t-80 271v628h24z"/>
<glyph glyph-name="yacute" horiz-adv-x="930" unicode="ý" d="M662 1416l-202 -250q-7 -8 -16 -8h-14l164 236q9 14 17 18t25 4h26zM324 -338q-3 -8 -9 -15t-15 -7h-14l168 377l-424 963h14q8 0 13 -4.5t7 -9.5l390 -890q4 -9 7.5 -18t5.5 -19q2 10 5.5 19t7.5 18l390 890q7 14 18 14h14z"/>
<glyph glyph-name="thorn" horiz-adv-x="1042" unicode="þ" d="M564 976q-109 0 -202.5 -61t-161.5 -169v-551q64 -103 143 -145t183 -42q103 0 179 37.5t126.5 103.5t75.5 155t25 192q0 244 -93.5 362t-274.5 118zM176 -360v1800h24v-662q66 100 159.5 159t204.5 59q190 0 291 -122.5t101 -377.5q0 -107 -27.5 -199.5t-81.5 -161 t-134.5 -108t-186.5 -39.5q-216 0 -326 175v-523h-24z"/>
<glyph glyph-name="ydieresis" horiz-adv-x="930" unicode="ÿ" d="M714 1280q0 -21 -17.5 -37.5t-38.5 -16.5q-23 0 -39.5 16.5t-16.5 37.5q0 23 16.5 39.5t39.5 16.5q21 0 38.5 -16.5t17.5 -39.5zM386 1280q0 -21 -17.5 -37.5t-38.5 -16.5q-23 0 -39.5 16.5t-16.5 37.5q0 23 16.5 39.5t39.5 16.5q21 0 38.5 -16.5t17.5 -39.5zM324 -338 q-3 -8 -9 -15t-15 -7h-14l168 377l-424 963h14q8 0 13 -4.5t7 -9.5l390 -890q4 -9 7.5 -18t5.5 -19q2 10 5.5 19t7.5 18l390 890q7 14 18 14h14z"/>
<glyph glyph-name="Aogonek" horiz-adv-x="1228" unicode="Ą" d="M253 498h722l-345 828q-5 11 -9 20.5t-7 20.5q-4 -11 -7.5 -20.5t-8.5 -20.5zM1326 -270q4 0 8 -4l6 -6q-26 -26 -65 -40t-81 -14q-66 0 -110 35t-44 103q0 33 13 63t33.5 55.5t45.5 46t48 35.5l-197 474h-738l-195 -468q-3 -10 -14 -10h-16l584 1400h20l584 -1400 q-20 -11 -45.5 -29.5t-48 -43.5t-37.5 -56t-15 -67q0 -56 38.5 -87t95.5 -31q32 0 54.5 7t37.5 15t24 15t14 7z"/>
<glyph glyph-name="aogonek" horiz-adv-x="938" unicode="ą" d="M370 4q69 0 125 16t103 43t87.5 62.5t78.5 74.5v302q-315 -10 -467.5 -78.5t-152.5 -193.5q0 -59 19.5 -101.5t51 -70t72 -41t83.5 -13.5zM906 -270q4 0 8 -4l6 -6q-26 -26 -65 -40t-81 -14q-66 0 -110 35t-44 103q0 35 14.5 66.5t37 57.5t48.5 47t50 35l-6 165 q-42 -44 -84 -79.5t-89 -60t-101 -38t-120 -13.5q-44 0 -88.5 13.5t-80.5 43t-58.5 76t-22.5 113.5q0 66 38.5 118.5t118 89.5t200.5 58.5t287 25.5v126q0 77 -17 138t-50 103t-83 64.5t-116 22.5q-52 0 -94 -11t-75 -27t-57.5 -35t-42.5 -35t-29 -27t-16 -11q-4 0 -10 6 l-4 4q72 76 149 116t179 40q75 0 129.5 -24t90.5 -69t53 -109.5t17 -145.5v-648q-20 -11 -45.5 -29.5t-48 -43.5t-37.5 -56t-15 -67q0 -56 38.5 -87t95.5 -31q32 0 54.5 7t37.5 15t24 15t14 7z"/>
<glyph glyph-name="Cacute" horiz-adv-x="1438" unicode="Ć" d="M1097 1760l-290 -216q-9 -6 -18 -6h-12l242 208q9 8 17 11t25 3h36zM1284 189q4 0 7 -3l9 -8q-44 -43 -94.5 -78.5t-110.5 -61t-132 -40t-159 -14.5q-141 0 -260 49.5t-206 142.5t-135.5 225.5t-48.5 298.5q0 160 48.5 292t137 226.5t212 146t272.5 51.5q76 0 137 -10 t114 -30.5t100.5 -51.5t96.5 -72l-3 -5q-4 -5 -9 -5q-8 0 -21.5 11.5t-36 28.5t-55.5 37t-79 37t-106.5 28.5t-137.5 11.5q-142 0 -260.5 -48.5t-204 -139t-133.5 -219.5t-48 -289q0 -163 47.5 -292t131.5 -219t198.5 -137.5t248.5 -47.5q85 0 152 12t122.5 35t103 56.5 t94.5 76.5z"/>
<glyph glyph-name="cacute" horiz-adv-x="890" unicode="ć" d="M700 1416l-202 -250q-7 -8 -16 -8h-14l164 236q9 14 17 18t25 4h26zM800 888q-4 -4 -8 -4q-6 0 -22.5 14.5t-48 31.5t-79 31.5t-114.5 14.5q-95 0 -170 -34t-127 -97t-79.5 -153t-27.5 -202q0 -116 27.5 -205.5t78.5 -151t122.5 -93.5t159.5 -32q78 0 132 18t89 40t53 40 t24 18q4 0 8 -4l4 -4q-15 -22 -44 -44.5t-69 -41t-90 -30.5t-107 -12q-95 0 -171 34t-129.5 98.5t-82.5 157.5t-29 212q0 114 29 207.5t84 159.5t134.5 102.5t180.5 36.5q89 0 158.5 -28.5t119.5 -73.5z"/>
<glyph glyph-name="Eogonek" horiz-adv-x="1256" unicode="Ę" d="M1086 -270q4 0 8 -4l6 -6q-26 -26 -65 -40t-81 -14q-66 0 -110 35t-44 103q0 32 12 61t31.5 54t43 45.5t46.5 35.5h-693v1400h818v-22h-794v-656h674v-22h-674v-678h796l-2 -22h-90q-20 -11 -45.5 -29.5t-48 -43.5t-37.5 -56t-15 -67q0 -56 38.5 -87t95.5 -31 q32 0 54.5 7t37.5 15t24 15t14 7z"/>
<glyph glyph-name="eogonek" horiz-adv-x="1000" unicode="ę" d="M528 976q-88 0 -158.5 -28.5t-121.5 -80t-81.5 -124.5t-39.5 -161h745q0 95 -26 168.5t-72.5 123.5t-109.5 76t-136 26zM746 -270q4 0 8 -4l6 -6q-26 -26 -65 -40t-81 -14q-66 0 -110 35t-44 103q0 30 10.5 56.5t27.5 50t38.5 43.5t42.5 36q-11 -1 -23 -1.5t-24 -0.5 q-101 0 -181 35.5t-135.5 102.5t-85.5 164t-30 220q0 108 29 197.5t84 153.5t134.5 99.5t180.5 35.5q77 0 144 -27.5t116.5 -81.5t77.5 -132.5t28 -180.5q0 -5 -3.5 -7.5t-8.5 -2.5h-756q-2 -14 -2 -27v-27q0 -122 29 -215.5t82.5 -157t129 -96.5t167.5 -33q82 0 142 18 t100 40t61 40t25 18t8 -4l4 -4q-13 -17 -37.5 -35t-57.5 -34.5t-73 -30t-83 -20.5q-21 -12 -45 -30.5t-45 -43t-35 -54.5t-14 -64q0 -56 38.5 -87t95.5 -31q32 0 54.5 7t37.5 15t24 15t14 7z"/>
<glyph glyph-name="Gbreve" horiz-adv-x="1522" unicode="Ğ" d="M761 1528q-56 0 -96 14t-65.5 39.5t-37 62.5t-11.5 84h20q0 -41 10 -74t32.5 -56.5t58.5 -36.5t89 -13q52 0 88.5 13t59 36.5t32.5 56.5t10 74h20q0 -93 -49 -146.5t-161 -53.5zM822 4q86 0 155.5 9.5t129.5 28t113.5 45t107.5 60.5v435h-314q-12 0 -12 10v10h348v-464 q-52 -35 -107.5 -63.5t-119 -48.5t-138 -31t-163.5 -11q-151 0 -274 49.5t-210.5 142.5t-135.5 225.5t-48 298.5q0 165 48 297.5t138 225.5t217.5 143t286.5 50q78 0 143 -9.5t120.5 -29.5t104.5 -50t96 -72l-3 -5q-4 -5 -9 -5q-8 0 -34 23.5t-78.5 52t-135.5 52t-204 23.5 q-152 0 -275 -47.5t-210 -137.5t-134 -219t-47 -292t46.5 -292t131.5 -219t203.5 -137.5t262.5 -47.5z"/>
<glyph glyph-name="gbreve" horiz-adv-x="996" unicode="ğ" d="M498 1172q-56 0 -96 18t-65.5 49.5t-37 72.5t-11.5 88h20q0 -41 10 -78.5t32.5 -66t58.5 -46t89 -17.5q52 0 88.5 17.5t59 46t32.5 66t10 78.5h20q0 -47 -11.5 -88t-37 -72.5t-65.5 -49.5t-96 -18zM490 392q73 0 130 21t96.5 59.5t60.5 92.5t21 119t-21.5 119t-61.5 92.5 t-97 59.5t-128 21t-128 -21t-97 -59.5t-61.5 -92.5t-21.5 -119t21.5 -119t61.5 -92.5t97 -59.5t128 -21zM906 -78q0 56 -27.5 89.5t-73.5 52t-105 25.5t-123 10.5t-127 6.5t-116 13q-47 -17 -87 -39t-68.5 -51t-44.5 -64t-16 -77q0 -51 27 -95.5t76.5 -77.5t120.5 -52 t160 -19q79 0 152 20.5t129 57t89.5 87.5t33.5 113zM490 996q65 0 118.5 -17t95.5 -47h238v-4q0 -6 -5 -10t-11 -4l-196 -4q45 -42 68.5 -99t23.5 -127t-23.5 -127.5t-67 -98.5t-104.5 -63.5t-137 -22.5q-98 0 -172 37q-25 -14 -46 -32t-36 -38t-23.5 -41t-8.5 -40 q0 -50 31 -76.5t82 -39.5t116 -16.5t133 -6.5t133 -10t116 -27.5t82 -58t31 -101.5q0 -59 -30.5 -112.5t-86 -95t-134 -66t-175.5 -24.5q-99 0 -175 21t-128 57t-78.5 84t-26.5 102q0 84 57 144.5t154 93.5q-56 14 -89.5 44.5t-33.5 87.5q0 20 8.5 42t23.5 43.5t36.5 41 t48.5 34.5q-68 40 -104.5 108t-36.5 157q0 69 23 126.5t66.5 98.5t104.5 64t138 23z"/>
<glyph glyph-name="Idotaccent" horiz-adv-x="584" unicode="İ" d="M348 1668q0 -21 -17.5 -37.5t-38.5 -16.5q-23 0 -39.5 16.5t-16.5 37.5q0 23 16.5 39.5t39.5 16.5q21 0 38.5 -16.5t17.5 -39.5zM304 0h-24v1400h24v-1400z"/>
<glyph glyph-name="dotlessi" horiz-adv-x="444" unicode="ı" d="M234 980v-980h-24v980h24z"/>
<glyph glyph-name="Lslash" horiz-adv-x="1050" unicode="Ł" d="M296 650l444 236v-6q0 -6 -1.5 -10.5t-10.5 -9.5l-432 -232v-606h714v-22h-738v617l-202 -107v8q0 8 2 11.5t10 8.5l190 101v761h24v-750z"/>
<glyph glyph-name="lslash" horiz-adv-x="564" unicode="ł" d="M294 1440v-611l210 101v-6q0 -6 -1.5 -10.5t-10.5 -9.5l-198 -97v-807h-24v797l-210 -103v6q0 8 2 11.5t10 8.5l198 99v621h24z"/>
<glyph glyph-name="Nacute" horiz-adv-x="1512" unicode="Ń" d="M1046 1759l-290 -216q-9 -6 -18 -6h-12l242 208q9 8 17 11t25 3h36zM248 1400q9 0 14 -8l991 -1349q-1 5 -1 10v1347h20v-1400h-6q-6 0 -11 7l-996 1355q1 -6 1 -13v-1349h-20v1400h8z"/>
<glyph glyph-name="nacute" horiz-adv-x="1056" unicode="ń" d="M704 1416l-202 -250q-7 -8 -16 -8h-14l164 236q9 14 17 18t25 4h26zM176 0v980h6q14 0 14 -16l3 -189q34 50 76.5 91t91.5 70t103 44.5t112 15.5q163 0 243.5 -97t80.5 -271v-628h-24v628q0 82 -18 146.5t-55.5 109.5t-94 68.5t-132.5 23.5q-115 0 -212 -61.5 t-170 -169.5v-745h-24z"/>
<glyph glyph-name="OE" horiz-adv-x="2258" unicode="Œ" d="M1298 700q0 163 -41 292t-115.5 219t-178 137.5t-227.5 47.5q-123 0 -226 -47.5t-178 -137.5t-116.5 -219t-41.5 -292t41.5 -291.5t116.5 -217.5t178 -136t226 -47q124 0 227.5 47t178 136t115.5 217.5t41 291.5zM2116 1400v-22h-794v-656h674v-22h-674v-678h796l-2 -22 h-816v499q-23 -121 -73 -216t-123 -160.5t-167 -100t-205 -34.5q-128 0 -235 49t-184 141t-120 224t-43 298q0 165 43 297.5t120 225.5t184 143t235 50q111 0 205 -35t167 -101.5t123 -162t73 -216.5v499h816z"/>
<glyph glyph-name="oe" horiz-adv-x="1702" unicode="œ" d="M1266 976q-82 0 -147.5 -30t-112 -84.5t-74 -130.5t-33.5 -169h677q0 103 -24 180.5t-66 129.5t-98.5 78t-121.5 26zM500 8q93 0 163 35t117 98t70.5 152t23.5 197t-23.5 197.5t-70.5 153.5t-117 99.5t-163 35.5q-94 0 -164.5 -35.5t-117.5 -99.5t-70.5 -153.5 t-23.5 -197.5t23.5 -197t70.5 -152t117.5 -98t164.5 -35zM1264 996q70 0 130.5 -28t105.5 -83.5t70.5 -138.5t25.5 -192q0 -10 -10 -10h-687q-1 -8 -1 -17v-17q0 -122 26.5 -215.5t75 -157t117 -96.5t151.5 -33q73 0 126.5 18t89.5 40t55.5 40t24.5 18q4 0 8 -4l4 -4 q-15 -21 -45.5 -43.5t-71.5 -41.5t-90 -31t-101 -12q-80 0 -145 27t-113.5 79t-79.5 126.5t-43 170.5q-10 -93 -40 -167.5t-78.5 -127t-116 -80.5t-152.5 -28q-97 0 -171.5 35.5t-125.5 101.5t-77 158.5t-26 206.5t26 207.5t77 159.5t125.5 102.5t171.5 36.5q84 0 150 -27.5 t114.5 -79t78.5 -124.5t42 -163q10 89 40 161.5t78 124.5t114 80t147 28z"/>
<glyph glyph-name="Sacute" horiz-adv-x="1070" unicode="Ś" d="M796 1760l-290 -216q-9 -6 -18 -6h-12l242 208q9 8 17 11t25 3h36zM882 1272q-5 -6 -11 -6q-9 0 -27.5 20.5t-54 44.5t-91.5 44.5t-140 20.5q-86 0 -152.5 -26.5t-111.5 -70.5t-68.5 -102t-23.5 -121q0 -81 31.5 -135t82.5 -91t117 -61.5t134 -47t134 -47.5t117 -63.5 t82.5 -95t31.5 -141.5q0 -86 -29 -160.5t-84 -130t-135 -87.5t-182 -32q-71 0 -127 12.5t-102.5 36t-85.5 57t-75 76.5l4 4q3 3 5 4.5t7 1.5q6 0 17.5 -12.5t31.5 -32t48 -41.5t68 -41.5t91.5 -32t117.5 -12.5q97 0 172.5 31t128 83.5t80 122.5t27.5 149q0 66 -20.5 114 t-55.5 82.5t-81.5 59t-99.5 44t-108 36t-108 36.5t-99.5 45.5t-81.5 62t-55.5 87t-20.5 119.5q0 67 25 128.5t73 108.5t118.5 75t161.5 28q102 0 180.5 -33t147.5 -105z"/>
<glyph glyph-name="sacute" horiz-adv-x="854" unicode="ś" d="M654 1416l-202 -250q-7 -8 -16 -8h-14l164 236q9 14 17 18t25 4h26zM696 894q-4 -6 -10 -6q-8 0 -23.5 13.5t-45 30t-74.5 30.5t-111 14q-62 0 -113.5 -19t-88.5 -50.5t-57.5 -72.5t-20.5 -86q0 -53 25 -88.5t65.5 -60t92.5 -41.5t106 -33.5t106 -35t92.5 -46.5 t65.5 -68.5t25 -100.5t-21.5 -113t-62.5 -92t-100.5 -62t-135.5 -23q-53 0 -94.5 8.5t-77 23.5t-66 37t-60.5 49l6 6q3 3 5 4.5t7 1.5q8 0 26 -17t50.5 -38t82 -38t121.5 -17t127.5 21t93.5 57.5t57.5 85t19.5 104.5q0 57 -25 94.5t-65.5 63.5t-92.5 43.5t-106 33.5t-106 34 t-92.5 44.5t-65.5 65.5t-25 97q0 49 22 93.5t62 79t95.5 55t122.5 20.5q83 0 146 -22.5t122 -73.5z"/>
<glyph glyph-name="Scedilla" horiz-adv-x="1032" unicode="Ş" d="M380 -296q4 0 13 -7t25 -15t39.5 -15t58.5 -7q60 0 94 26.5t34 73.5q0 31 -15 51t-41 32.5t-61 19t-75 11.5l35 110q-62 2 -112 13q-56 12 -102.5 35.5t-85.5 57t-75 76.5l4 4q3 3 5 4.5t7 1.5q6 0 17.5 -12.5t31.5 -32t48 -41.5t68 -41.5t91.5 -32t117.5 -12.5 q97 0 172.5 31t128 83.5t80 122.5t27.5 149q0 66 -20.5 114t-55.5 82.5t-81.5 59t-99.5 44t-108 36t-108 36.5t-99.5 45.5t-81.5 62t-55.5 87t-20.5 119.5q0 67 25 128.5t73 108.5t118.5 75t161.5 28q102 0 180.5 -33t147.5 -105l-4 -6q-5 -6 -11 -6q-9 0 -27.5 20.5 t-54 44.5t-91.5 44.5t-140 20.5q-86 0 -152.5 -26.5t-111.5 -70.5t-68.5 -102t-23.5 -121q0 -81 31.5 -135t82.5 -91t117 -61.5t134 -47t134 -47.5t117 -63.5t82.5 -95t31.5 -141.5q0 -86 -29 -160.5t-84 -130t-135 -87.5q-79 -31 -179 -32l-30 -93q43 -7 78 -16t60 -24 t39 -36.5t14 -52.5q0 -29 -11.5 -51t-32.5 -37.5t-49.5 -23.5t-62.5 -8q-41 0 -81 14.5t-63 37.5l4 4q6 6 10 6z"/>
<glyph glyph-name="scedilla" horiz-adv-x="854" unicode="ş" d="M291 -296q4 0 13 -7t25 -15t39.5 -15t58.5 -7q60 0 94 26.5t34 73.5q0 31 -15 51t-41 32.5t-61 19t-75 11.5l35 110q-46 1 -83 9q-41 8 -76.5 23t-66 37t-60.5 49l6 6q3 3 5 4.5t7 1.5q8 0 26 -17t50.5 -38t82 -38t121.5 -17t127.5 21t93.5 57.5t57.5 85t19.5 104.5 q0 57 -25 94.5t-65.5 63.5t-92.5 43.5t-106 33.5t-106 34t-92.5 44.5t-65.5 65.5t-25 97q0 49 22 93.5t62 79t95.5 55t122.5 20.5q83 0 146 -22.5t122 -73.5l-4 -6q-4 -6 -10 -6q-8 0 -23.5 13.5t-45 30t-74.5 30.5t-111 14q-62 0 -113.5 -19t-88.5 -50.5t-57.5 -72.5 t-20.5 -86q0 -53 25 -88.5t65.5 -60t92.5 -41.5t106 -33.5t106 -35t92.5 -46.5t65.5 -68.5t25 -100.5t-21.5 -113t-62.5 -92t-101 -62q-57 -22 -129 -23l-30 -93q43 -7 78 -16t60 -24t39 -36.5t14 -52.5q0 -29 -11.5 -51t-32.5 -37.5t-49.5 -23.5t-62.5 -8q-41 0 -81 14.5 t-63 37.5l4 4q6 6 10 6z"/>
<glyph glyph-name="Scaron" horiz-adv-x="1032" unicode="Š" d="M882 1272q-5 -6 -11 -6q-9 0 -27.5 20.5t-54 44.5t-91.5 44.5t-140 20.5q-86 0 -152.5 -26.5t-111.5 -70.5t-68.5 -102t-23.5 -121q0 -81 31.5 -135t82.5 -91t117 -61.5t134 -47t134 -47.5t117 -63.5t82.5 -95t31.5 -141.5q0 -86 -29 -160.5t-84 -130t-135 -87.5 t-182 -32q-71 0 -127 12.5t-102.5 36t-85.5 57t-75 76.5l4 4q3 3 5 4.5t7 1.5q6 0 17.5 -12.5t31.5 -32t48 -41.5t68 -41.5t91.5 -32t117.5 -12.5q97 0 172.5 31t128 83.5t80 122.5t27.5 149q0 66 -20.5 114t-55.5 82.5t-81.5 59t-99.5 44t-108 36t-108 36.5t-99.5 45.5 t-81.5 62t-55.5 87t-20.5 119.5q0 67 25 128.5t73 108.5t118.5 75t161.5 28q102 0 180.5 -33t147.5 -105zM330 1728h20q11 0 20 -8l196 -160l4 -5l4 5l196 160q9 8 20 8h20l-232 -190h-16z"/>
<glyph glyph-name="scaron" horiz-adv-x="854" unicode="š" d="M462 1170h-16l-212 230h18q8 0 16 -8l180 -196l6 -7l6 7l180 196q8 8 16 8h18zM696 894q-4 -6 -10 -6q-8 0 -23.5 13.5t-45 30t-74.5 30.5t-111 14q-62 0 -113.5 -19t-88.5 -50.5t-57.5 -72.5t-20.5 -86q0 -53 25 -88.5t65.5 -60t92.5 -41.5t106 -33.5t106 -35 t92.5 -46.5t65.5 -68.5t25 -100.5t-21.5 -113t-62.5 -92t-100.5 -62t-135.5 -23q-53 0 -94.5 8.5t-77 23.5t-66 37t-60.5 49l6 6q3 3 5 4.5t7 1.5q8 0 26 -17t50.5 -38t82 -38t121.5 -17t127.5 21t93.5 57.5t57.5 85t19.5 104.5q0 57 -25 94.5t-65.5 63.5t-92.5 43.5 t-106 33.5t-106 34t-92.5 44.5t-65.5 65.5t-25 97q0 49 22 93.5t62 79t95.5 55t122.5 20.5q83 0 146 -22.5t122 -73.5z"/>
<glyph glyph-name="Ydieresis" horiz-adv-x="1148" unicode="Ÿ" d="M586 595v-595h-24v595l-522 805h20q9 0 14 -8l471 -730q8 -13 15.5 -24.5t13.5 -23.5q5 12 13 23.5t16 24.5l471 730q5 8 14 8h20zM834 1664q0 -21 -17.5 -37.5t-38.5 -16.5q-23 0 -39.5 16.5t-16.5 37.5q0 23 16.5 39.5t39.5 16.5q21 0 38.5 -16.5t17.5 -39.5zM426 1664 q0 -21 -17.5 -37.5t-38.5 -16.5q-23 0 -39.5 16.5t-16.5 37.5q0 23 16.5 39.5t39.5 16.5q21 0 38.5 -16.5t17.5 -39.5z"/>
<glyph glyph-name="Zacute" horiz-adv-x="1282" unicode="Ź" d="M906 1760l-290 -216q-9 -6 -18 -6h-12l242 208q9 8 17 11t25 3h36zM1156 1400v-4q0 -9 -8 -20l-974 -1354h980l-2 -22h-1012v4q0 6 1.5 9.5t4.5 8.5l976 1356h-966v22h1000z"/>
<glyph glyph-name="zacute" horiz-adv-x="888" unicode="ź" d="M630 1416l-202 -250q-7 -8 -16 -8h-14l164 236q9 14 17 18t25 4h26zM804 970q0 -3 -1.5 -5t-4.5 -7l-686 -938h662v-20h-696v6q0 5 1.5 7t4.5 7l687 940h-659v20h692v-10z"/>
<glyph glyph-name="Zdotaccent" horiz-adv-x="1282" unicode="Ż" d="M716 1668q0 -21 -17.5 -37.5t-38.5 -16.5q-23 0 -39.5 16.5t-16.5 37.5q0 23 16.5 39.5t39.5 16.5q21 0 38.5 -16.5t17.5 -39.5zM1156 1400v-4q0 -9 -8 -20l-974 -1354h980l-2 -22h-1012v4q0 6 1.5 9.5t4.5 8.5l976 1356h-966v22h1000z"/>
<glyph glyph-name="zdotaccent" horiz-adv-x="888" unicode="ż" d="M518 1360q0 -21 -17.5 -37.5t-38.5 -16.5q-23 0 -39.5 16.5t-16.5 37.5q0 23 16.5 39.5t39.5 16.5q21 0 38.5 -16.5t17.5 -39.5zM804 970q0 -3 -1.5 -5t-4.5 -7l-686 -938h662v-20h-696v6q0 5 1.5 7t4.5 7l687 940h-659v20h692v-10z"/>
<glyph glyph-name="Zcaron" horiz-adv-x="1282" unicode="Ž" d="M1156 1400v-4q0 -9 -8 -20l-974 -1354h980l-2 -22h-1012v4q0 6 1.5 9.5t4.5 8.5l976 1356h-966v22h1000zM420 1728h20q5 0 10 -1.5t10 -6.5l196 -160l4 -5l4 5l196 160q5 5 10 6.5t10 1.5h20l-232 -190h-16z"/>
<glyph glyph-name="zcaron" horiz-adv-x="888" unicode="ž" d="M470 1170h-16l-212 230h18q8 0 16 -8l180 -196l6 -7l6 7l180 196q8 8 16 8h18zM804 970q0 -3 -1.5 -5t-4.5 -7l-686 -938h662v-20h-696v6q0 5 1.5 7t4.5 7l687 940h-659v20h692v-10z"/>
<glyph glyph-name="florin" d="M601 822l-101 -830q-11 -94 -43.5 -162t-81.5 -112t-112 -65t-135 -21v10q0 10 16 10q56 1 111 19t100 58t77.5 104t43.5 159l101 830l-225 4q-12 0 -12 8v8h240l26 212q11 94 42 162t79 112t111.5 65t139.5 21v-10q0 -10 -16 -10q-59 0 -113.5 -17.5t-99 -58t-76 -105.5 t-43.5 -159l-27 -212h385v-20h-387z" unicode="ƒ"/>
<glyph glyph-name="circumflex" horiz-adv-x="560" unicode="ˆ" d="M500 1170h-18q-8 0 -16 8l-180 196l-6 6l-6 -6l-180 -196q-3 -3 -7 -5.5t-9 -2.5h-18l212 230h16z"/>
<glyph glyph-name="caron" horiz-adv-x="560" unicode="ˇ" d="M288 1170h-16l-212 230h18q8 0 16 -8l180 -196l6 -7l6 7l180 196q8 8 16 8h18z"/>
<glyph glyph-name="uni02C9" horiz-adv-x="560" unicode="ˉ" d="M20 1290h520v-20h-520v20z"/>
<glyph glyph-name="breve" horiz-adv-x="560" unicode="˘" d="M280 1172q-56 0 -96 18t-65.5 49.5t-37 72.5t-11.5 88h20q0 -41 10 -78.5t32.5 -66t58.5 -46t89 -17.5q52 0 88.5 17.5t59 46t32.5 66t10 78.5h20q0 -47 -11.5 -88t-37 -72.5t-65.5 -49.5t-96 -18z"/>
<glyph glyph-name="dotaccent" horiz-adv-x="560" unicode="˙" d="M336 1360q0 -21 -17.5 -37.5t-38.5 -16.5q-23 0 -39.5 16.5t-16.5 37.5q0 23 16.5 39.5t39.5 16.5q21 0 38.5 -16.5t17.5 -39.5z"/>
<glyph glyph-name="ring" horiz-adv-x="560" unicode="˚" d="M154 1290q0 -27 9.5 -50t26.5 -40t40 -26.5t50 -9.5t50 9.5t40 26.5t26.5 40t9.5 50t-9.5 50t-26.5 40t-40 26.5t-50 9.5t-50 -9.5t-40 -26.5t-26.5 -40t-9.5 -50zM132 1290q0 31 11.5 57t31.5 45.5t47 30.5t58 11t58 -11t47 -30.5t31.5 -45.5t11.5 -57t-11.5 -57 t-31.5 -45.5t-47 -30.5t-58 -11t-58 11t-47 30.5t-31.5 45.5t-11.5 57z"/>
<glyph glyph-name="ogonek" horiz-adv-x="560" unicode="˛" d="M428 -270q4 0 8 -4l6 -6q-26 -26 -65 -40t-81 -14q-66 0 -110 35t-44 103q0 36 15.5 68t38.5 59t50.5 48t51.5 35l12 -14q-20 -11 -45.5 -29.5t-48 -43.5t-37.5 -56t-15 -67q0 -56 38.5 -87t95.5 -31q32 0 54.5 7t37.5 15t24 15t14 7z"/>
<glyph glyph-name="tilde" horiz-adv-x="560" unicode="˜" d="M398 1242q50 0 74 33t26 81h16q0 -27 -7 -51.5t-21 -42.5t-36 -29t-52 -11q-32 0 -60 18t-55 40t-53.5 40t-55.5 18q-24 0 -42.5 -9t-31 -24.5t-19 -36.5t-7.5 -44h-18q0 27 7.5 51.5t22.5 42.5t37 29t51 11q33 0 61 -18t54.5 -40t53 -40t55.5 -18z"/>
<glyph glyph-name="hungarumlaut" horiz-adv-x="560" unicode="˝" d="M614 1416l-222 -250q-5 -8 -16 -8h-14l184 236q11 14 18 18t24 4h26zM378 1416l-198 -250q-5 -8 -16 -8h-14l164 236q9 14 17 18t25 4h22z"/>
<glyph glyph-name="pi" horiz-adv-x="1120" unicode="π" d="M1086 980v-6q0 -6 -4.5 -11t-13.5 -5h-202v-958h-24v958h-528v-766q0 -51 -13.5 -88.5t-37.5 -62.5t-58 -37t-75 -12q-29 0 -48.5 3.5t-37.5 14.5l4 8q4 8 11 8q9 0 25 -7t46 -7q75 0 117.5 44.5t42.5 135.5v766h-212v8q0 5 3.5 9.5t12.5 4.5h992z"/>
<glyph glyph-name="endash" horiz-adv-x="1056" unicode="–" d="M140 578h776v-20h-776v20z"/>
<glyph glyph-name="emdash" horiz-adv-x="1548" unicode="—" d="M140 578h1268v-20h-1268v20z"/>
<glyph glyph-name="quoteleft" horiz-adv-x="370" unicode="‘" d="M133 1096q-16 29 -22.5 57.5t-6.5 57.5q0 34 8.5 67t23.5 64t35 59t42 53l4 -4q2 -2 2 -5q0 -1 -2 -5q-44 -60 -67 -111t-23 -101q0 -32 7 -54.5t21 -49.5q4 -8 4 -10q0 -5 -6 -8z"/>
<glyph glyph-name="quoteright" horiz-adv-x="370" unicode="’" d="M206 1450q16 -29 22.5 -57.5t6.5 -57.5q0 -34 -8.5 -67t-23.5 -64t-35 -59t-42 -53l-4 4q-2 2 -2 5q0 1 2 5q44 60 67 111t23 101q0 32 -7 54.5t-21 49.5q-4 8 -4 10q0 5 6 8z"/>
<glyph glyph-name="quotesinglbase" horiz-adv-x="370" unicode="‚" d="M206 120q16 -29 22.5 -57.5t6.5 -57.5q0 -34 -8.5 -67t-23.5 -64t-35 -59t-42 -53l-4 4q-2 2 -2 5q0 1 2 5q44 60 67 111t23 101q0 32 -7 54.5t-21 49.5q-4 8 -4 10q0 5 6 8z"/>
<glyph glyph-name="quotedblleft" horiz-adv-x="610" unicode="“" d="M373 1096q-16 29 -22.5 57.5t-6.5 57.5q0 34 8.5 67t23.5 64t35 59t42 53l4 -4q2 -2 2 -5q0 -1 -2 -5q-44 -60 -67 -111t-23 -101q0 -32 7 -54.5t21 -49.5q4 -8 4 -10q0 -5 -6 -8zM133 1096q-16 29 -22.5 57.5t-6.5 57.5q0 34 8.5 67t23.5 64t35 59t42 53l4 -4q2 -2 2 -5 q0 -1 -2 -5q-44 -60 -67 -111t-23 -101q0 -32 7 -54.5t21 -49.5q4 -8 4 -10q0 -5 -6 -8z"/>
<glyph glyph-name="quotedblright" horiz-adv-x="610" unicode="”" d="M206 1450q16 -29 22.5 -57.5t6.5 -57.5q0 -34 -8.5 -67t-23.5 -64t-35 -59t-42 -53l-4 4q-2 2 -2 5q0 1 2 5q44 60 67 111t23 101q0 32 -7 54.5t-21 49.5q-4 8 -4 10q0 5 6 8zM446 1450q16 -29 22.5 -57.5t6.5 -57.5q0 -34 -8.5 -67t-23.5 -64t-35 -59t-42 -53l-4 4 q-2 2 -2 5q0 1 2 5q44 60 67 111t23 101q0 32 -7 54.5t-21 49.5q-4 8 -4 10q0 5 6 8z"/>
<glyph glyph-name="quotedblbase" horiz-adv-x="610" unicode="„" d="M206 120q16 -29 22.5 -57.5t6.5 -57.5q0 -34 -8.5 -67t-23.5 -64t-35 -59t-42 -53l-4 4q-2 2 -2 5q0 1 2 5q44 60 67 111t23 101q0 32 -7 54.5t-21 49.5q-4 8 -4 10q0 5 6 8zM446 120q16 -29 22.5 -57.5t6.5 -57.5q0 -34 -8.5 -67t-23.5 -64t-35 -59t-42 -53l-4 4 q-2 2 -2 5q0 1 2 5q44 60 67 111t23 101q0 32 -7 54.5t-21 49.5q-4 8 -4 10q0 5 6 8z"/>
<glyph glyph-name="dagger" d="M196 930q0 5 4 9.5t10 4.5l356 -6l-4 478q3 2 6 3t8 1t8 -1t6 -3l-4 -478l356 6q6 0 10 -4.5t4 -9.5v-8h-370v-564l4 -720q-3 -2 -6 -3t-8 -1t-8 1t-6 3l4 720v564h-370v8z" unicode="†"/>
<glyph glyph-name="daggerdbl" d="M196 930q0 5 4 9.5t10 4.5l356 -6l-4 478q3 2 6 3t8 1t8 -1t6 -3l-4 -478l356 6q6 0 10 -4.5t4 -9.5v-8h-370v-790h370v-8q0 -5 -4 -9.5t-10 -4.5l-356 5l4 -477q-3 -2 -6 -3t-8 -1t-8 1t-6 3l4 477l-356 -5q-6 0 -10 4.5t-4 9.5v8h370v790h-370v8z" unicode="‡"/>
<glyph glyph-name="bullet" d="M354 598q0 47 18 88.5t48.5 72.5t71 49t86.5 18q47 0 88.5 -18t72.5 -49t49 -72.5t18 -88.5q0 -46 -18 -86.5t-49 -71t-72.5 -48.5t-88.5 -18q-46 0 -86.5 18t-71 48.5t-48.5 71t-18 86.5z" unicode="•"/>
<glyph glyph-name="ellipsis" horiz-adv-x="1310" unicode="…" d="M590 48q0 27 18.5 46.5t45.5 19.5t46.5 -19.5t19.5 -46.5t-19.5 -45.5t-46.5 -18.5t-45.5 18.5t-18.5 45.5zM1060 48q0 27 18.5 46.5t45.5 19.5t46.5 -19.5t19.5 -46.5t-19.5 -45.5t-46.5 -18.5t-45.5 18.5t-18.5 45.5zM120 48q0 27 18.5 46.5t45.5 19.5t46.5 -19.5 t19.5 -46.5t-19.5 -45.5t-46.5 -18.5t-45.5 18.5t-18.5 45.5z"/>
<glyph glyph-name="perthousand" horiz-adv-x="2216" unicode="‰" d="M2094 334q0 87 -20.5 150t-56 104t-82.5 60.5t-99 19.5q-53 0 -99.5 -19.5t-82 -60.5t-56 -104t-20.5 -150t20.5 -150t56 -103.5t82 -59.5t99.5 -19q52 0 99 19t82.5 59.5t56 103.5t20.5 150zM2116 334q0 -90 -22.5 -156t-60.5 -109t-89 -64t-108 -21q-58 0 -109 21 t-89 64t-60 109t-22 156q0 91 22 157t60 109.5t89 64.5t109 21q57 0 108 -21t89 -64.5t60.5 -109.5t22.5 -157zM1378 334q0 87 -20.5 150t-56 104t-82.5 60.5t-99 19.5q-53 0 -99.5 -19.5t-82 -60.5t-56 -104t-20.5 -150t20.5 -150t56 -103.5t82 -59.5t99.5 -19q52 0 99 19 t82.5 59.5t56 103.5t20.5 150zM1400 334q0 -90 -22.5 -156t-60.5 -109t-89 -64t-108 -21q-58 0 -109 21t-89 64t-60 109t-22 156q0 91 22 157t60 109.5t89 64.5t109 21q57 0 108 -21t89 -64.5t60.5 -109.5t22.5 -157zM1224 1392q5 8 16 8h14l-988 -1392q-5 -8 -16 -8h-14z M638 1064q0 87 -20.5 150t-56 104t-82.5 60.5t-99 19.5q-53 0 -99.5 -19.5t-82 -60.5t-56 -104t-20.5 -150t20.5 -150t56 -103.5t82 -59.5t99.5 -19q52 0 99 19t82.5 59.5t56 103.5t20.5 150zM660 1064q0 -90 -22.5 -156t-60.5 -109t-89 -64t-108 -21q-58 0 -109 21t-89 64 t-60 109t-22 156q0 91 22 157t60 109.5t89 64.5t109 21q57 0 108 -21t89 -64.5t60.5 -109.5t22.5 -157z"/>
<glyph glyph-name="guilsinglleft" horiz-adv-x="608" unicode="‹" d="M170 508v4l234 370l6 -4q6 -5 6 -12q0 -5 -4 -12l-204 -322q-14 -20 -18 -22q6 -5 18 -22l204 -322q4 -7 4 -12q0 -8 -6 -12l-6 -4z"/>
<glyph glyph-name="guilsinglright" horiz-adv-x="608" unicode="›" d="M200 138l-6 4q-6 4 -6 12q0 5 4 12l204 322q11 17 17 22q-4 2 -17 22l-204 322q-4 7 -4 12q0 7 6 12l6 4l234 -370v-4z"/>
<glyph glyph-name="fraction" horiz-adv-x="396" unicode="⁄" d="M-182 12q-5 -8 -10.5 -10t-11.5 -2h-10l784 1388q6 12 20 12h12z"/>
<glyph glyph-name="Euro" d="M28 832h180q13 138 55 246t109.5 183t158.5 114t203 39q62 0 113.5 -10t96.5 -30.5t85 -51.5t79 -72l-4 -6q-3 -4 -8 -4t-16 11.5t-29.5 28.5t-46 37t-66 37t-89.5 28.5t-115 11.5q-105 0 -191.5 -36.5t-151 -108t-105.5 -176.5t-54 -241h648v-8q0 -6 -2.5 -9t-11.5 -3 h-636q-2 -27 -3 -55t-1 -57q0 -50 3 -96h561v-8q0 -12 -14 -12h-545q12 -142 51.5 -250.5t104 -181.5t151.5 -110.5t192 -37.5q68 0 122 13.5t95 34t70 44.5t49.5 44.5t32.5 34t19 13.5q4 0 10 -6l4 -4q-36 -43 -77 -78.5t-90.5 -61t-108 -40t-128.5 -14.5q-111 0 -202 39 t-158 115t-108.5 188t-53.5 258h-178v20h177q-3 46 -3 96q0 29 1 57t3 55h-178v20z" unicode="€"/>
<glyph glyph-name="trademark" horiz-adv-x="1416" unicode="™" d="M538 1400v-20h-216v-542h-24v542h-218v20h458zM977 968l5 10l250 416q3 6 10 6h14v-562h-20v512l1 16l-249 -416q-3 -6 -10 -6h-4q-7 0 -10 6l-256 415l2 -15v-512h-22v562h14q5 0 7 -1.5t5 -4.5l258 -416z"/>
<glyph glyph-name="Omega" horiz-adv-x="1524" unicode="Ω" d="M894 0v298q109 25 197.5 70t151.5 111.5t97 155t34 199.5q0 142 -50.5 247.5t-135 175.5t-195 104.5t-231.5 34.5t-231.5 -34.5t-195 -104.5t-135 -175.5t-50.5 -247.5q0 -111 34 -199.5t97 -155t151.5 -111.5t197.5 -70v-298h-498q-12 0 -12 12v12h488v261 q-99 21 -186.5 65.5t-153 113t-104 161t-38.5 209.5q0 145 51.5 254t139 182t202.5 109.5t243 36.5q127 0 242.5 -36.5t203 -109.5t139 -182t51.5 -254q0 -117 -38.5 -209.5t-104 -161t-153 -113t-186.5 -65.5v-261h488v-12q0 -12 -12 -12h-498z"/>
<glyph glyph-name="partialdiff" d="M490 10q97 0 177.5 42t142.5 117t104.5 178.5t63.5 226.5q-9 58 -32.5 115.5t-63.5 103.5t-98 74.5t-136 28.5q-110 0 -197.5 -41t-149 -113t-94.5 -168.5t-33 -207.5q0 -84 23 -150t64.5 -112t99.5 -70t129 -24zM446 1344q34 21 64.5 35.5t59.5 23.5t57.5 13t60.5 4 q84 0 148 -35t107 -101.5t65 -163t22 -220.5q0 -126 -15.5 -242.5t-46 -217.5t-76 -184t-106 -142t-136 -91.5t-164.5 -32.5q-76 0 -138 26t-106 74t-68 117.5t-24 156.5q0 113 34.5 213.5t99 175.5t156 119t204.5 44q54 0 108.5 -16t101 -51.5t82 -92t51.5 -137.5 q6 40 10 82t6 80t2.5 70t0.5 51q0 118 -20 210.5t-60 156t-99.5 96.5t-138.5 33q-54 0 -94 -10.5t-67.5 -22.5t-44.5 -22.5t-24 -10.5q-5 0 -8 6z" unicode="∂"/>
<glyph glyph-name="Delta" horiz-adv-x="1228" unicode="∆" d="M54 20h1120l-544 1306q-5 11 -8.5 20.5t-7.5 20.5q-4 -11 -7.5 -20.5t-8.5 -20.5zM604 1400h20l584 -1400h-1188z"/>
<glyph glyph-name="product" horiz-adv-x="1360" unicode="∏" d="M1270 1400v-22h-230v-1738h-24v1738h-672v-1738h-24v1738h-230v22h1180z"/>
<glyph glyph-name="summation" horiz-adv-x="1360" unicode="∑" d="M90 1400h1180v-22h-1143l709 -856v-4l-709 -856h1143v-22h-1180v12q0 7 4 11l710 857l-709 856q-5 5 -5 12v12z"/>
<glyph glyph-name="minus" d="M178 680h802v-20h-802v20z" unicode="−"/>
<glyph glyph-name="radical" horiz-adv-x="1104" unicode="√" d="M628 0h-18l-283 714h-279q-14 0 -14 12v6h296q9 0 13.5 -4.5t6.5 -9.5l256 -650q4 -11 7.5 -20t4.5 -17q2 8 4.5 17t5.5 20l536 1644q5 14 18 14h8z"/>
<glyph glyph-name="infinity" horiz-adv-x="1360" unicode="∞" d="M1009 326q51 0 95 18t76.5 52.5t51 83t18.5 110.5q0 61 -18.5 110t-51 83.5t-76.5 52.5t-95 18t-94.5 -22.5t-81 -59.5t-72 -84.5t-67.5 -97.5q33 -50 67.5 -97.5t72 -84.5t81 -59.5t94.5 -22.5zM355 326q51 0 94 22.5t81 59.5t72 84.5t67 97.5q-33 50 -67 97.5t-72 84.5 t-81 59.5t-94 22.5t-95 -18t-76.5 -52.5t-51 -83.5t-18.5 -110q0 -62 18.5 -110.5t51 -83t76.5 -52.5t95 -18zM1009 306q-54 0 -99.5 22.5t-85 59.5t-74.5 85t-68 98q-34 -50 -69 -98t-74 -85t-84.5 -59.5t-99.5 -22.5q-53 0 -101.5 19.5t-85 56t-58.5 89t-22 119.5 t22 119.5t58.5 89t85 56t101.5 19.5q54 0 99.5 -22.5t84.5 -60t74 -85.5t69 -98q33 50 68 98t74.5 85.5t85 60t99.5 22.5q53 0 101.5 -19.5t85 -56t58.5 -89t22 -119.5t-22 -119.5t-58.5 -89t-85 -56t-101.5 -19.5z"/>
<glyph glyph-name="integral" horiz-adv-x="744" unicode="∫" d="M408 1082q10 87 39.5 150t71.5 104t94.5 60.5t108.5 19.5q39 0 62 -4.5t44 -15.5l-2 -5q-2 -5 -4 -6.5t-6 -1.5q-10 0 -31 7t-61 7q-54 0 -102.5 -18.5t-87.5 -56.5t-65.5 -98t-36.5 -142l-134 -1090q-12 -97 -42 -165.5t-73.5 -111.5t-100 -63t-120.5 -20q-32 0 -60 3.5 t-46 14.5l4 8q4 7 11 7q10 0 30.5 -7t60.5 -7q60 0 112 18.5t92.5 59t68 105.5t39.5 158z"/>
<glyph glyph-name="approxequal" d="M776 472q47 0 87.5 21.5t64.5 54.5l14 -10q-26 -39 -70.5 -62.5t-95.5 -23.5t-100.5 19.5t-98.5 42.5t-97 42.5t-96 19.5q-50 0 -89 -21.5t-63 -54.5l-14 10q26 39 69 62.5t97 23.5q52 0 102.5 -19.5t99 -42.5t96 -42.5t94.5 -19.5zM776 768q47 0 87.5 21.5t64.5 54.5 l14 -10q-26 -39 -70.5 -62.5t-95.5 -23.5t-100.5 19.5t-98.5 42.5t-97 42.5t-96 19.5q-50 0 -89 -21.5t-63 -54.5l-14 10q26 39 69 62.5t97 23.5q52 0 102.5 -19.5t99 -42.5t96 -42.5t94.5 -19.5z" unicode="≈"/>
<glyph glyph-name="notequal" d="M180 834h466l118 290h22l-117 -290h311v-20h-319l-111 -274h430v-20h-438l-116 -288h-22l116 288h-340v20h348l110 274h-458v20z" unicode="≠"/>
<glyph glyph-name="lessequal" d="M170 100h730v-20h-730v20zM170 676l730 372v-11q0 -12 -19 -21l-643 -326q-12 -6 -23.5 -11.5t-23.5 -8.5q12 -4 23.5 -9.5t23.5 -10.5l643 -326q19 -10 19 -21v-11l-730 372v12z" unicode="≤"/>
<glyph glyph-name="greaterequal" d="M990 80h-730v20h730v-20zM990 676v-12l-730 -372v11q0 11 19 21l643 326q11 5 22.5 10.5t23.5 9.5q-12 3 -23.5 8.5t-22.5 11.5l-643 326q-19 9 -19 21v11z" unicode="≥"/>
<glyph glyph-name="lozenge" d="M186 658l380 -774q9 -20 14 -40q4 20 14 40l380 774l-380 774q-10 20 -14 40q-5 -20 -14 -40zM160 658l412 842h16l412 -842l-412 -842h-16z" unicode="◊"/>
<glyph glyph-name="uni2669" horiz-adv-x="0" unicode="♩" d="M-2 1440h4v-1800h-4v1800z"/>
<glyph glyph-name="fl" horiz-adv-x="1084" unicode="ﬂ" d="M210 0v918l-164 4q-12 0 -12 8v8h176v76q0 91 26 166.5t75 129t120 83t161 29.5q66 0 130.5 -7t117.5 -7h12v-1408h-24v1392q-51 1 -114.5 5.5t-121.5 4.5q-85 0 -151.5 -27.5t-112.5 -78t-70 -122.5t-24 -160v-76h310v-20h-310v-918h-24z"/>
<glyph glyph-name="undercommaaccent" d="M274 -100q16 0 16 -22q0 -11 -3.5 -30t-10 -48.5t-16 -70t-22.5 -95.5q-2 -6 -4 -10t-10 -4h-6l46 280h10z" horiz-adv-x="560"/>
<glyph glyph-name="grave.case" d="M80 1760q17 0 25 -3t17 -11l242 -208h-12q-9 0 -18 6l-290 216h36z" horiz-adv-x="560"/>
<glyph glyph-name="dieresis.case" d="M540 1664q0 -21 -17.5 -37.5t-38.5 -16.5q-23 0 -39.5 16.5t-16.5 37.5q0 23 16.5 39.5t39.5 16.5q21 0 38.5 -16.5t17.5 -39.5zM132 1664q0 -21 -17.5 -37.5t-38.5 -16.5q-23 0 -39.5 16.5t-16.5 37.5q0 23 16.5 39.5t39.5 16.5q21 0 38.5 -16.5t17.5 -39.5z" horiz-adv-x="560"/>
<glyph glyph-name="macron.case" d="M100 1622h360v-20h-360v20z" horiz-adv-x="560"/>
<glyph glyph-name="acute.case" d="M524 1760l-290 -216q-9 -6 -18 -6h-12l242 208q9 8 17 11t25 3h36z" horiz-adv-x="560"/>
<glyph glyph-name="circumflex.case" d="M520 1538h-20q-9 0 -20 8l-189 154q-7 5 -8.5 7.5t-2.5 3.5l-4 -4q-2 -2 -10 -9l-186 -152q-11 -8 -20 -8h-20l232 190h16z" horiz-adv-x="560"/>
<glyph glyph-name="caron.case" d="M40 1728h20q5 0 10 -1.5t10 -6.5l196 -160l4 -5l4 5l196 160q5 5 10 6.5t10 1.5h20l-232 -190h-16z" horiz-adv-x="560"/>
<glyph glyph-name="breve.case" d="M280 1528q-56 0 -96 14t-65.5 39.5t-37 62.5t-11.5 84h20q0 -41 10 -74t32.5 -56.5t58.5 -36.5t89 -13q52 0 88.5 13t59 36.5t32.5 56.5t10 74h20q0 -93 -49 -146.5t-161 -53.5z" horiz-adv-x="560"/>
<glyph glyph-name="dotaccent.case" d="M336 1668q0 -21 -17.5 -37.5t-38.5 -16.5q-23 0 -39.5 16.5t-16.5 37.5q0 23 16.5 39.5t39.5 16.5q21 0 38.5 -16.5t17.5 -39.5z" horiz-adv-x="560"/>
<glyph glyph-name="ring.case" d="M154 1604q0 -27 9.5 -50t26.5 -40t40 -26.5t50 -9.5t50 9.5t40 26.5t26.5 40t9.5 50t-9.5 50t-26.5 40t-40 26.5t-50 9.5t-50 -9.5t-40 -26.5t-26.5 -40t-9.5 -50zM132 1604q0 31 11.5 57t31.5 45.5t47 30.5t58 11t58 -11t47 -30.5t31.5 -45.5t11.5 -57t-11.5 -57 t-31.5 -45.5t-47 -30.5t-58 -11t-58 11t-47 30.5t-31.5 45.5t-11.5 57z" horiz-adv-x="560"/>
<glyph glyph-name="tilde.case" d="M398 1576q50 0 74 33t26 81h16q0 -27 -7 -51.5t-21 -42.5t-36 -29t-52 -11q-32 0 -60 18t-55 40t-53.5 40t-55.5 18q-24 0 -42.5 -9t-31 -24.5t-19 -36.5t-7.5 -44h-18q0 27 7.5 51.5t22.5 42.5t37 29t51 11q33 0 61 -18t54.5 -40t53 -40t55.5 -18z" horiz-adv-x="560"/>
<glyph glyph-name="hungarumlaut.case" d="M632 1760l-220 -214q-8 -8 -16 -8h-14l182 200q11 13 19 17.5t25 4.5h24zM356 1760l-196 -214q-5 -8 -16 -8h-14l162 200q10 13 18.5 17.5t25.5 4.5h20z" horiz-adv-x="560"/>
<glyph glyph-name="caron.salt" d="M304 1442q16 0 16 -22q0 -11 -3.5 -30t-10 -48.5t-16 -70t-22.5 -95.5q-2 -6 -4 -10t-10 -4h-6l46 280h10z" horiz-adv-x="560"/>
</font>
</defs>
</svg>
