<?xml version="1.0" encoding="UTF-8" standalone="no"?>
<!DOCTYPE svg  PUBLIC '-//W3C//DTD SVG 1.1//EN'  'http://www.w3.org/Graphics/SVG/1.1/DTD/svg11.dtd'>
<svg xmlns="http://www.w3.org/2000/svg">
<defs>
<font id="LatoTR-Italic" horiz-adv-x="1160">
<font-face slope="-12" underline-position="-84" font-weight="400" descent="-400" panose-1="2 0 5 3 0 0 0 9 0 4" units-per-em="2000" unicode-range="U+000D-FB02" bbox="-230 -500 2047 1837" x-height="1013" underline-thickness="116" font-family="LatoTR" ascent="1600" font-style="italic" cap-height="1433"/>
<missing-glyph d="M95 54h867v1324h-867v-1324zM45 1433h974v-1433h-974v1433zM396 292q0 47 31 79t79 32q22 0 42 -8.5t34.5 -23.5t23 -35.5t8.5 -43.5t-8.5 -43t-23 -35t-34.5 -23.5t-42 -8.5q-48 0 -79 31.5t-31 78.5zM250 1141q25 22 53.5 41t62.5 33.5t73.5 23t85.5 8.5 q63 0 114.5 -17.5t88 -49.5t57 -77.5t20.5 -101.5q0 -55 -15 -95t-37.5 -69.5t-49.5 -51t-51 -40.5t-41.5 -37.5t-21.5 -41.5l-17 -105h-122l-10 97q-2 19 -2.5 25t-0.5 10q0 31 15 54.5t37.5 43.5t49 39t49 42t37.5 51t15 67q0 51 -36.5 81t-93.5 30q-41 0 -69 -9t-48 -20 t-34 -20t-25 -9q-25 0 -37 22z" horiz-adv-x="1063"/>
<glyph glyph-name=".notdef" d="M95 54h867v1324h-867v-1324zM45 1433h974v-1433h-974v1433zM396 292q0 47 31 79t79 32q22 0 42 -8.5t34.5 -23.5t23 -35.5t8.5 -43.5t-8.5 -43t-23 -35t-34.5 -23.5t-42 -8.5q-48 0 -79 31.5t-31 78.5zM250 1141q25 22 53.5 41t62.5 33.5t73.5 23t85.5 8.5 q63 0 114.5 -17.5t88 -49.5t57 -77.5t20.5 -101.5q0 -55 -15 -95t-37.5 -69.5t-49.5 -51t-51 -40.5t-41.5 -37.5t-21.5 -41.5l-17 -105h-122l-10 97q-2 19 -2.5 25t-0.5 10q0 31 15 54.5t37.5 43.5t49 39t49 42t37.5 51t15 67q0 51 -36.5 81t-93.5 30q-41 0 -69 -9t-48 -20 t-34 -20t-25 -9q-25 0 -37 22z" horiz-adv-x="1063"/>
<glyph glyph-name=".null" horiz-adv-x="0"/>
<glyph glyph-name="nonmarkingreturn" horiz-adv-x="0" unicode=""/>
<glyph glyph-name="NULL" horiz-adv-x="0"/>
<glyph glyph-name="NULL" horiz-adv-x="0"/>
<glyph glyph-name="space" horiz-adv-x="386" unicode=" "/>
<glyph glyph-name="exclam" horiz-adv-x="635" unicode="!" d="M159 110q0 26 9.5 49t26 40t39 27t49.5 10q26 0 49 -10t40 -27t26.5 -40t9.5 -49q0 -27 -9.5 -49.5t-26.5 -39.5t-40 -26.5t-49 -9.5q-27 0 -49.5 9.5t-39 26.5t-26 39.5t-9.5 49.5zM518 1433l-70 -574q-6 -45 -13 -87.5t-15 -85.5t-18 -89t-22 -98h-117q1 52 2.5 98 t4 89t6 85.5t9.5 87.5l70 574h163z"/>
<glyph glyph-name="quotedbl" horiz-adv-x="736" unicode='&quot;' d="M715 1431l-36 -289l-34 -155q-7 -31 -22.5 -48t-44.5 -17q-26 0 -37 17t-11 48v155l37 289h148zM403 1431l-36 -289l-34 -155q-7 -31 -22.5 -48t-44.5 -17q-26 0 -37 17t-11 48v155l37 289h148z"/>
<glyph glyph-name="numbersign" d="M421 551h251l106 331h-250zM780 424l-137 -424h-78q-20 0 -32.5 13.5t-12.5 35.5q0 14 4 26l113 349h-250l-116 -358q-11 -35 -35 -50.5t-52 -15.5h-77l137 424h-147q-43 0 -43 40q0 7 1 14l4 18l15 55h205l106 331h-233l21 71q8 28 27.5 41t57.5 13h161l118 363 q10 29 32.5 45t51.5 16h78l-138 -424h250l138 424h77q22 0 36 -12t14 -32q0 -11 -4 -20l-118 -360h214l-22 -71q-8 -28 -27 -41t-56 -13h-143l-106 -331h182q20 0 32 -9.5t12 -30.5q0 -7 -1 -14.5t-4 -17.5l-16 -55h-239z" unicode="#"/>
<glyph glyph-name="dollar" d="M405 1047q0 -42 15.5 -73.5t42 -56t62.5 -43t77 -34.5l87 458q-72 -6 -125.5 -28.5t-89 -56.5t-52.5 -76.5t-17 -89.5zM887 432q0 44 -17 76.5t-46 56.5t-68 41.5t-83 32.5l-96 -508q74 7 131.5 32t97.5 64.5t60.5 91.5t20.5 113zM440 -12q-119 11 -212.5 59.5 t-156.5 123.5l61 78q19 25 49 25q18 0 39.5 -19t54 -43.5t78.5 -48t114 -31.5l103 540q-62 19 -121.5 43.5t-106 62t-75 93t-28.5 137.5q0 83 33 160t95 137t150.5 98t199.5 42l28 145q4 19 19 33.5t35 14.5h64l-38 -197q103 -12 174.5 -52.5t122.5 -99.5l-48 -64 q-11 -15 -22 -22t-26 -7q-14 0 -32.5 13t-45.5 30t-63.5 33.5t-86.5 23.5l-93 -491q64 -21 127 -46t112.5 -61.5t80.5 -90.5t31 -133q0 -95 -35 -180.5t-101 -152t-160 -108t-211 -48.5l-34 -178q-4 -18 -18.5 -32t-35.5 -14h-64z" unicode="$"/>
<glyph glyph-name="percent" horiz-adv-x="1452" unicode="%" d="M1238 396q0 50 -10.5 85.5t-28.5 58.5t-42.5 33.5t-52.5 10.5q-40 0 -75.5 -17t-62 -54t-42 -94t-15.5 -138q0 -49 10 -84t28 -57.5t42.5 -33t53.5 -10.5q39 0 74.5 16.5t62.5 52.5t42.5 93t15.5 138zM1372 397q0 -99 -29 -176.5t-77 -130t-110 -80t-127 -27.5 q-56 0 -102.5 20.5t-80 59t-52 93.5t-18.5 125q0 99 27 176.5t73.5 131.5t109 82t132.5 28q56 0 102.5 -20.5t80.5 -59.5t52.5 -95t18.5 -127zM1228 1403q11 11 25.5 19.5t37.5 8.5h124l-1140 -1403q-10 -13 -24.5 -20.5t-34.5 -7.5h-126zM597 1143q0 50 -10.5 86t-28.5 59 t-42.5 34t-52.5 11q-40 0 -75.5 -17t-61.5 -54t-41.5 -94.5t-15.5 -138.5q0 -49 10 -83.5t28 -57t42.5 -33t53.5 -10.5q39 0 74.5 16.5t62 52t42 92t15.5 137.5zM732 1144q0 -99 -29.5 -176t-77.5 -130t-109.5 -80.5t-126.5 -27.5q-56 0 -103 20.5t-80.5 59t-52 94 t-18.5 125.5q0 99 27 176.5t73.5 131t109 81.5t132.5 28q56 0 103 -20.5t80.5 -59.5t52.5 -95t19 -127z"/>
<glyph glyph-name="ampersand" horiz-adv-x="1297" unicode="&amp;" d="M235 357q0 -56 17.5 -99.5t48 -73.5t72.5 -45.5t91 -15.5q95 0 179 43t154 113l-333 425q-115 -62 -172 -151.5t-57 -195.5zM724 1447q70 0 127 -22t98 -61t63.5 -92t22.5 -115v-6q0 -3 -1 -8l-101 -19q-5 -1 -8.5 -1.5t-7.5 -0.5q-29 0 -36 33q-6 29 -18 57t-32.5 50.5 t-50.5 36.5t-71 14q-51 0 -92 -19t-70.5 -52.5t-45.5 -79t-16 -97.5q0 -57 23.5 -117t73.5 -123l322 -409q41 66 68 136.5t41 141.5q4 18 13 29t28 11h119q-16 -115 -61.5 -226t-116.5 -207l238 -301h-148q-21 0 -36.5 2.5t-27.5 8.5t-22.5 16t-22.5 24l-96 122 q-94 -87 -209 -138t-244 -51q-82 0 -150 24.5t-117 70t-76 110.5t-27 146q0 79 26.5 149t73 128.5t109 104.5t134.5 78q-39 66 -57.5 130t-18.5 127q0 82 28.5 154.5t81 125.5t126.5 84t164 31z"/>
<glyph glyph-name="quotesingle" horiz-adv-x="426" unicode="&apos;" d="M403 1431l-36 -289l-34 -155q-7 -31 -22.5 -48t-44.5 -17q-26 0 -37 17t-11 48v155l37 289h148z"/>
<glyph glyph-name="parenleft" horiz-adv-x="552" unicode="(" d="M274 441q0 -74 7 -153.5t20.5 -159.5t34.5 -157t48 -144q6 -15 6 -27q0 -17 -9 -27.5t-21 -17.5l-81 -46q-42 86 -71.5 177.5t-48.5 183.5t-28 182t-9 173q0 140 16 272.5t58.5 267.5t116.5 278.5t191 305.5l71 -47q8 -5 14 -13.5t6 -20.5q0 -16 -14 -37 q-74 -114 -131 -227.5t-96 -233.5t-59.5 -250.5t-20.5 -278.5z"/>
<glyph glyph-name="parenright" horiz-adv-x="552" unicode=")" d="M313 817q0 73 -7 153t-21.5 160t-35 157t-47.5 144q-6 15 -6 26q0 17 9 27t21 18l82 47q41 -87 70.5 -178t48.5 -183t28 -182t9 -174q0 -140 -16 -272.5t-58 -267.5t-116.5 -278t-191.5 -305l-70 46q-8 6 -14 14t-6 19q0 17 14 39q73 114 130.5 230t96.5 238.5t59.5 252 t20.5 269.5z"/>
<glyph glyph-name="asterisk" horiz-adv-x="736" unicode="*" d="M361 865l25 198q2 18 6 34.5t12 31.5q-11 -13 -24 -22.5t-30 -19.5l-169 -100l-33 73l169 101q35 20 70 24q-35 3 -64 24l-145 102l51 73l145 -101q16 -11 27 -22t19 -26q-7 23 -7 46q0 6 0.5 12t1.5 13l25 199h84l-24 -198q-2 -19 -7 -35.5t-14 -32.5q11 13 25.5 23.5 t31.5 20.5l169 100l32 -73l-169 -101q-35 -21 -66 -24q16 -2 30.5 -7.5t29.5 -16.5l145 -102l-50 -72l-145 100q-15 10 -27 20q-12 9 -20 23q7 -20 7 -41q0 -6 -0.5 -12t-1.5 -13l-24 -199h-85z"/>
<glyph glyph-name="plus" d="M732 1165l-53 -429h410l-16 -130h-410l-53 -431h-141l53 431h-407l16 130h407l54 429h140z" unicode="+"/>
<glyph glyph-name="comma" horiz-adv-x="425" unicode="," d="M50 123q0 47 32.5 80t86.5 33q30 0 53 -11t38.5 -30.5t23.5 -45t8 -55.5q0 -45 -12.5 -93.5t-37 -96t-59.5 -92.5t-80 -83l-31 29q-13 12 -13 28q0 12 16 31t37 45.5t40.5 61t26.5 76.5h-12q-52 0 -84.5 34.5t-32.5 88.5z"/>
<glyph glyph-name="hyphen" horiz-adv-x="641" unicode="-" d="M115 672h457l-19 -146h-456z"/>
<glyph glyph-name="period" horiz-adv-x="425" unicode="." d="M45 110q0 26 9.5 49t26.5 40t39.5 27t49.5 10q26 0 48.5 -10t39.5 -27t27 -40t10 -49q0 -27 -10 -49.5t-27 -39.5t-39.5 -26.5t-48.5 -9.5q-27 0 -49.5 9.5t-39.5 26.5t-26.5 39.5t-9.5 49.5z"/>
<glyph glyph-name="slash" horiz-adv-x="695" unicode="/" d="M93 -25q-16 -32 -45 -49t-56 -17h-73l724 1479q14 30 40 46.5t58 16.5h73z"/>
<glyph glyph-name="zero" d="M537 130q84 0 159.5 44.5t132 134.5t89.5 227.5t33 323.5q0 120 -22.5 204.5t-60.5 137.5t-88.5 77t-106.5 24q-84 0 -159.5 -44.5t-132 -135t-89.5 -228t-33 -323.5q0 -120 22.5 -204.5t60.5 -137t88.5 -76.5t106.5 -24zM695 1447q95 0 175 -36.5t137.5 -109t90 -182 t32.5 -255.5q0 -223 -49 -388.5t-133 -274.5t-195.5 -162.5t-237.5 -53.5q-96 0 -176 36.5t-137.5 109t-90 182t-32.5 256.5q0 223 49 388t133 274t196 162.5t238 53.5z" unicode="0"/>
<glyph glyph-name="one" d="M244 132h310l123 1005l18 77l-293 -229q-18 -14 -38 -14q-15 0 -27 6.5t-17 14.5l-44 75l470 369h140l-160 -1304h284l-16 -132h-765z" unicode="1"/>
<glyph glyph-name="two" d="M715 1447q83 0 153.5 -23.5t121.5 -68.5t79.5 -109.5t28.5 -146.5q0 -91 -28.5 -166t-77.5 -142t-114.5 -130t-139.5 -130l-431 -392q41 11 82 17t79 6h490q26 0 40 -14t14 -37q0 -10 -2 -27t-4 -31l-7 -53h-952l7 59q2 17 12 37.5t28 36.5l518 463q73 65 130 123.5 t96.5 116t60 117.5t20.5 129q0 54 -17.5 95t-48.5 68t-73.5 41t-92.5 14q-112 0 -190.5 -58.5t-115.5 -160.5q-11 -29 -28.5 -41t-42.5 -12q-5 0 -11 0.5t-12 1.5l-87 15q25 98 74.5 173t116.5 126t149.5 77t174.5 26z" unicode="2"/>
<glyph glyph-name="three" d="M737 1447q84 0 153.5 -23t118.5 -65.5t76 -102.5t27 -133q0 -79 -21 -139.5t-59.5 -105.5t-93 -74.5t-121.5 -47.5q122 -35 183.5 -112.5t61.5 -189.5q0 -108 -43 -194.5t-116 -148t-169.5 -94.5t-202.5 -33q-100 0 -175 23t-128 69t-86 116t-49 165l80 30q22 8 40 8 q19 0 32.5 -8t18.5 -24q16 -58 38 -101.5t55 -72.5t79 -43.5t111 -14.5q82 0 146 28t107.5 73t66.5 102t23 116q0 48 -15 88.5t-54 70t-105 46.5t-168 17l16 123q190 4 283 81.5t93 211.5q0 53 -17 93t-48 66.5t-73 39.5t-92 13q-114 0 -192 -59t-116 -160 q-11 -29 -28.5 -41t-41.5 -12q-5 0 -10.5 0.5t-10.5 1.5l-88 15q25 98 74.5 173t116.5 126t149 77t174 26z" unicode="3"/>
<glyph glyph-name="four" d="M828 1117q2 24 8 51.5t14 56.5l-615 -711h518zM909 514h217l-14 -98q-2 -15 -12.5 -26t-30.5 -11h-177l-46 -379h-156l47 379h-630q-20 0 -37 11t-19 28l-6 87l811 928h166z" unicode="4"/>
<glyph glyph-name="five" d="M1084 1357q-5 -36 -30.5 -59.5t-80.5 -23.5h-455l-115 -385q111 24 203 24q105 0 183.5 -28.5t131 -78.5t78.5 -118.5t26 -149.5q0 -126 -46.5 -228.5t-125.5 -174.5t-184.5 -111.5t-222.5 -39.5q-63 0 -119 12t-103.5 32.5t-86.5 47.5t-69 57l61 74q21 24 49 24 q19 0 42.5 -15.5t57 -34t81 -34t114.5 -15.5q83 0 152.5 28t119.5 78.5t77.5 121t27.5 156.5q0 57 -18 103.5t-54 80t-91 51.5t-130 18q-50 0 -107.5 -8.5t-125.5 -26.5l-103 31l197 668h676z" unicode="5"/>
<glyph glyph-name="six" d="M267 397q0 -59 18 -108.5t52 -85.5t84 -56t114 -20q79 0 145.5 26.5t115 73.5t75.5 111t27 140q0 61 -19.5 110.5t-55 84t-86 53t-112.5 18.5q-79 0 -145 -28t-113 -75.5t-73.5 -110.5t-26.5 -133zM697 876q79 0 147.5 -25t119 -73t79.5 -117t29 -156q0 -111 -42 -206 t-116 -165t-174.5 -110t-218.5 -40q-98 0 -175 30t-131 85t-82.5 132t-28.5 172q0 62 14 121.5t42.5 120t72 123t103.5 131.5l427 491q15 17 40.5 29t55.5 12h153l-492 -537q-46 -51 -83 -95q55 36 120.5 56.5t139.5 20.5z" unicode="6"/>
<glyph glyph-name="seven" d="M1200 1433l-7 -68q-3 -25 -9.5 -47.5t-15.5 -36.5l-766 -1237q-11 -18 -30.5 -31t-42.5 -13h-142l753 1190q15 24 30.5 44.5t34.5 39.5h-753q-17 0 -27.5 11t-10.5 27v4l15 117h971z" unicode="7"/>
<glyph glyph-name="eight" d="M619 811q81 0 137.5 26t92 67.5t51.5 92.5t16 102q0 45 -14.5 84t-43.5 68.5t-73 46.5t-103 17q-72 0 -127.5 -22.5t-93.5 -60.5t-57.5 -90t-19.5 -110q0 -43 13 -83t41.5 -70.5t73 -49t107.5 -18.5zM534 121q78 0 141 23t108 64t69 99t24 128q0 64 -22.5 109t-60.5 73.5 t-87.5 42t-102.5 13.5q-66 0 -127 -18t-108.5 -56t-76 -97.5t-28.5 -142.5q0 -53 18 -96.5t53 -75t85 -49t115 -17.5zM518 -16q-99 0 -179.5 25.5t-137.5 72.5t-88 113.5t-31 147.5q0 161 86.5 262t242.5 142q-97 38 -145.5 111t-48.5 171q0 88 36 164.5t99.5 133 t151.5 88.5t193 32q90 0 162 -26t122.5 -71.5t77.5 -107t27 -131.5q0 -131 -69.5 -226t-203.5 -140q116 -35 178 -112t62 -194q0 -105 -40.5 -189t-112 -143.5t-169.5 -91t-213 -31.5z" unicode="8"/>
<glyph glyph-name="nine" d="M979 1047q0 58 -18.5 105.5t-52.5 81.5t-81.5 52.5t-105.5 18.5q-73 0 -134.5 -25t-106.5 -69.5t-70.5 -106t-25.5 -135.5q0 -117 66.5 -182t186.5 -65q79 0 142 26.5t107.5 71.5t68.5 104t24 123zM565 589q-75 0 -140 24t-113 70t-75.5 112.5t-27.5 150.5 q0 105 41 196.5t112.5 159t168.5 106.5t209 39q94 0 168.5 -29.5t126.5 -82.5t80 -127t28 -162q0 -72 -15 -134.5t-44.5 -121.5t-71.5 -118t-96 -125l-413 -506q-15 -18 -39 -29.5t-54 -11.5h-158l505 572q26 29 49 56t43 53q-61 -45 -133.5 -68.5t-150.5 -23.5z" unicode="9"/>
<glyph glyph-name="colon" horiz-adv-x="425" unicode=":" d="M145 860q0 26 9.5 49t26.5 40t39.5 27t49.5 10q26 0 48.5 -10t39.5 -27t27 -40t10 -49q0 -27 -10 -49.5t-27 -39.5t-39.5 -26.5t-48.5 -9.5q-27 0 -49.5 9.5t-39.5 26.5t-26.5 39.5t-9.5 49.5zM45 110q0 26 9.5 49t26.5 40t39.5 27t49.5 10q26 0 48.5 -10t39.5 -27 t27 -40t10 -49q0 -27 -10 -49.5t-27 -39.5t-39.5 -26.5t-48.5 -9.5q-27 0 -49.5 9.5t-39.5 26.5t-26.5 39.5t-9.5 49.5z"/>
<glyph glyph-name="semicolon" horiz-adv-x="425" unicode=";" d="M151 860q0 26 9.5 49t26.5 40t39.5 27t49.5 10q26 0 48.5 -10t39.5 -27t27 -40t10 -49q0 -27 -10 -49.5t-27 -39.5t-39.5 -26.5t-48.5 -9.5q-27 0 -49.5 9.5t-39.5 26.5t-26.5 39.5t-9.5 49.5zM46 123q0 47 32.5 80t86.5 33q30 0 53 -11t38.5 -30.5t23.5 -45t8 -55.5 q0 -45 -12.5 -93.5t-37 -96t-59.5 -92.5t-80 -83l-31 29q-13 12 -13 28q0 12 16 31t37 45.5t40.5 61t26.5 76.5h-12q-52 0 -84.5 34.5t-32.5 88.5z"/>
<glyph glyph-name="less" horiz-adv-x="1067" unicode="&lt;" d="M168 710l822 401l-16 -127q-2 -17 -12 -29.5t-30 -22.5l-477 -228q-21 -11 -44.5 -18.5t-49.5 -13.5q24 -5 45.5 -13t40.5 -18l422 -227q15 -8 22.5 -19.5t7.5 -22.5q0 -1 -1.5 -14t-4 -32.5t-5.5 -43.5l-6 -48l-723 402z"/>
<glyph glyph-name="equal" d="M199 906h856l-15 -131h-857zM157 573h858l-16 -131h-858z" unicode="="/>
<glyph glyph-name="greater" horiz-adv-x="1067" unicode="&gt;" d="M947 636l-822 -401l16 127q2 17 12 29.5t30 22.5l477 228q21 11 44.5 18.5t49.5 13.5q-24 5 -45.5 13t-40.5 18l-422 227q-15 8 -22.5 19.5t-7.5 22.5q0 1 1.5 14t4 32.5t5.5 43.5l6 48l723 -402z"/>
<glyph glyph-name="question" horiz-adv-x="737" unicode="?" d="M183 110q0 26 9.5 49t26 40t39 27t49.5 10q26 0 49 -10t40 -27t26.5 -40t9.5 -49q0 -27 -9.5 -49.5t-26.5 -39.5t-40 -26.5t-49 -9.5q-27 0 -49.5 9.5t-39 26.5t-26 39.5t-9.5 49.5zM132 1303q33 29 70.5 55t81 46t93 31.5t105.5 11.5q70 0 126.5 -21t96.5 -58t61 -87.5 t21 -109.5q0 -84 -23.5 -143t-59.5 -102.5t-79.5 -75t-83 -61t-70 -61.5t-40.5 -75l-37 -154h-119l11 166q3 48 29.5 85t64.5 69.5t81.5 63.5t80 67t61 81.5t24.5 106.5q0 78 -47.5 123t-128.5 45q-56 0 -97 -15t-70.5 -33t-49 -33t-32.5 -15q-24 0 -34 22z"/>
<glyph glyph-name="at" horiz-adv-x="1497" unicode="@" d="M650 303q27 0 57 10t59 35.5t57 69t52 110.5l107 296q-35 9 -76 9q-73 0 -138 -35.5t-113.5 -92.5t-77 -128.5t-28.5 -144.5q0 -57 25 -93t76 -36zM1026 186q-70 0 -111 37t-45 114q-63 -80 -130 -114.5t-139 -34.5q-48 0 -83.5 17.5t-58.5 47.5t-34.5 71t-11.5 89 q0 60 16 123t47.5 121.5t77 110.5t105 91t131.5 61.5t156 22.5q63 0 108.5 -10t86.5 -30l-132 -360q-19 -52 -27.5 -90t-8.5 -66q0 -27 7 -44.5t19.5 -28t29 -14.5t35.5 -4q51 0 99.5 35t86 98.5t60.5 151.5t23 193q0 116 -34 204t-95 147t-145.5 89t-185.5 30 q-135 0 -256.5 -58.5t-213 -163.5t-145.5 -249t-54 -315q0 -141 40 -250t111.5 -182.5t170.5 -111.5t217 -38q141 0 248 31t183 79q11 7 19 9t16 2q15 0 24 -9.5t13 -21.5l12 -51q-107 -72 -237.5 -113t-290.5 -41q-145 0 -265 47.5t-206.5 137t-134 217t-47.5 287.5 q0 127 30 243.5t83.5 217t128.5 183t165 141t192 90.5t211 32q117 0 220.5 -39.5t181 -114.5t122.5 -183t45 -246q0 -127 -34.5 -234.5t-93.5 -186t-137 -123t-165 -44.5z"/>
<glyph glyph-name="A" horiz-adv-x="1237" unicode="A" d="M379 531h491l-132 593q-6 26 -13 59t-12 71q-14 -38 -28.5 -71.5t-27.5 -59.5zM1180 0h-144q-25 0 -39 12.5t-19 32.5l-78 350h-584l-164 -350q-9 -18 -27.5 -31.5t-41.5 -13.5h-146l703 1433h189z"/>
<glyph glyph-name="B" horiz-adv-x="1191" unicode="B" d="M381 787h231q81 0 141.5 21.5t101 60t60.5 92.5t20 119q0 103 -62 154.5t-192 51.5h-238zM365 655l-63 -507h282q79 0 139 21t100 60t60 94t20 124q0 95 -64 151.5t-193 56.5h-281zM97 0l177 1433h424q112 0 192.5 -22.5t132.5 -64t77 -101t25 -132.5q0 -64 -18.5 -122 t-55.5 -107t-92.5 -87t-129.5 -61q129 -29 194 -101.5t65 -184.5q0 -99 -35.5 -181.5t-102.5 -142.5t-163.5 -93t-217.5 -33h-472z"/>
<glyph glyph-name="C" horiz-adv-x="1234" unicode="C" d="M679 145q66 0 117 11t90 27t66.5 35.5t48 35.5t34.5 27t25 11q9 0 15 -3.5t10 -8.5l65 -81q-94 -102 -216.5 -158.5t-285.5 -56.5q-128 0 -230 46t-172.5 128.5t-108 196.5t-37.5 251q0 187 58 342t159.5 266.5t238.5 173t295 61.5q76 0 138 -13t113 -38t92.5 -60 t77.5 -78l-64 -78q-8 -10 -18 -16.5t-25 -6.5q-18 0 -38 20t-54.5 43.5t-89 43.5t-141.5 20q-116 0 -217 -46.5t-175 -133t-116.5 -209.5t-42.5 -276q0 -111 29 -199t80.5 -149.5t122.5 -94.5t156 -33z"/>
<glyph glyph-name="D" horiz-adv-x="1385" unicode="D" d="M1149 813q0 108 -27.5 195t-79 147.5t-125.5 93t-167 32.5h-306l-140 -1130h306q120 0 219 45.5t170 131t110.5 208t39.5 277.5zM1341 817q0 -183 -56.5 -333.5t-156 -258t-237 -166.5t-299.5 -59h-495l177 1433h494q132 0 238.5 -45t180.5 -126.5t114 -195t40 -249.5z "/>
<glyph glyph-name="E" horiz-adv-x="1067" unicode="E" d="M1070 1280h-627l-60 -483h508l-19 -147h-507l-61 -498h629l-19 -152h-817l177 1433h815z"/>
<glyph glyph-name="F" horiz-adv-x="1041" unicode="F" d="M1070 1280h-627l-63 -510h537l-21 -152h-534l-76 -618h-189l177 1433h815z"/>
<glyph glyph-name="G" horiz-adv-x="1349" unicode="G" d="M704 135q52 0 97 5.5t84.5 16.5t76 26.5t72.5 35.5l39 324h-199q-17 0 -26.5 9t-9.5 23v5q1 5 1.5 11t0.5 11l1 5l9 79h410l-67 -547q-54 -39 -111.5 -68t-121.5 -48.5t-135 -29t-153 -9.5q-130 0 -235.5 46.5t-180.5 130t-115.5 199.5t-40.5 254q0 185 57.5 338.5 t159 264t241 171.5t304.5 61q83 0 151 -14t123 -39t99.5 -59t81.5 -74l-60 -78q-10 -13 -20.5 -20t-24.5 -7q-17 0 -33 10q-22 13 -48.5 33.5t-64 39t-90.5 32t-128 13.5q-123 0 -225.5 -47t-176 -134t-114.5 -210t-41 -274q0 -113 29.5 -203t83.5 -153t130 -96.5t170 -33.5 z"/>
<glyph glyph-name="H" horiz-adv-x="1392" unicode="H" d="M1173 0h-189l81 654h-699l-80 -654h-189l177 1433h188l-79 -643h699l79 643h188z"/>
<glyph glyph-name="I" horiz-adv-x="566" unicode="I" d="M317 0h-188l175 1433h188z"/>
<glyph glyph-name="J" horiz-adv-x="817" unicode="J" d="M657 475q-29 -238 -148.5 -364.5t-317.5 -126.5q-54 0 -101 7t-95 21l14 109q2 15 11.5 26t29.5 11q10 0 23 -2.5t29.5 -6t38 -6t49.5 -2.5q52 0 98 17t83 56t62.5 102t36.5 155l117 962h187z"/>
<glyph glyph-name="K" horiz-adv-x="1257" unicode="K" d="M398 802h66q35 0 57.5 9.5t43.5 32.5l496 544q23 26 45 35.5t52 9.5h159l-572 -620q-21 -23 -39.5 -38.5t-38.5 -24.5q24 -10 41.5 -27.5t34.5 -43.5l432 -679h-161q-18 0 -30.5 3t-21 8t-14.5 12.5t-12 16.5l-376 572q-16 24 -35.5 35t-62.5 11h-81l-81 -658h-186 l175 1433h187z"/>
<glyph glyph-name="L" horiz-adv-x="947" unicode="L" d="M303 158h567l-19 -158h-754l177 1433h187z"/>
<glyph glyph-name="M" horiz-adv-x="1696" unicode="M" d="M820 500q6 -21 11.5 -40.5t10.5 -40.5q18 42 42 81l563 901q14 23 28.5 27.5t39.5 4.5h139l-176 -1433h-164l131 1059q2 20 6.5 43t9.5 48l-557 -898q-26 -43 -73 -43h-26q-46 0 -63 43l-345 900q-1 -24 -2 -47t-3 -43l-130 -1062h-165l177 1433h137q25 0 39.5 -4.5 t22.5 -27.5z"/>
<glyph glyph-name="N" horiz-adv-x="1391" unicode="N" d="M370 1433q25 0 36.5 -6t23.5 -26l618 -1095q2 23 4 43.5t4 39.5l128 1044h165l-176 -1433h-94q-23 0 -38 7.5t-26 27.5l-617 1096q0 -5 -0.5 -14t-1.5 -19t-2 -20.5t-2 -17.5l-130 -1060h-165l177 1433h96z"/>
<glyph glyph-name="O" horiz-adv-x="1465" unicode="O" d="M1230 814q0 109 -28 197.5t-79.5 150.5t-126 96t-167.5 34q-118 0 -217 -47.5t-170 -135.5t-111 -212.5t-40 -278.5q0 -109 28 -197t79.5 -150t125.5 -95.5t167 -33.5q120 0 219 47t170 134.5t110.5 212t39.5 278.5zM1422 818q0 -122 -26 -231t-73.5 -201.5t-115 -166.5 t-151 -126t-181 -80t-204.5 -28q-132 0 -237.5 47t-180 130.5t-114 198.5t-39.5 252q0 183 57 336.5t157.5 264.5t238 173t298.5 62q132 0 237.5 -47.5t180 -131.5t114 -199.5t39.5 -252.5z"/>
<glyph glyph-name="P" horiz-adv-x="1128" unicode="P" d="M458 1286l-74 -600h208q85 0 150 26t109 72.5t67 111t23 140.5q0 58 -17 104t-51 78.5t-86 50t-121 17.5h-208zM366 538l-66 -538h-186l175 1433h395q114 0 198 -27t138.5 -77t81.5 -120t27 -156q0 -113 -37 -207.5t-107.5 -162.5t-174 -106.5t-236.5 -38.5h-208z"/>
<glyph glyph-name="Q" horiz-adv-x="1464" unicode="Q" d="M1230 814q0 109 -28 197.5t-79.5 150.5t-126 96t-167.5 34q-118 0 -217 -47.5t-170 -135.5t-111 -212.5t-40 -278.5q0 -109 28 -197t79.5 -150t125.5 -95.5t167 -33.5q120 0 219 47t170 134.5t110.5 212t39.5 278.5zM1422 818q0 -121 -25.5 -229t-72.5 -200 t-113.5 -166.5t-148.5 -126.5l289 -393h-151q-34 0 -60.5 9.5t-44.5 34.5l-197 273q-54 -17 -110.5 -26t-116.5 -9q-132 0 -237.5 47t-180 130.5t-114 198.5t-39.5 252q0 183 57 336.5t157.5 264.5t238 173t298.5 62q132 0 237.5 -47.5t180 -131.5t114 -199.5t39.5 -252.5z "/>
<glyph glyph-name="R" horiz-adv-x="1188" unicode="R" d="M459 1286l-68 -549h183q85 0 150 24t109.5 67.5t67 103t22.5 130.5q0 109 -68.5 166.5t-205.5 57.5h-190zM374 601l-74 -601h-186l175 1433h377q114 0 197.5 -24t138 -68.5t81 -108t26.5 -141.5q0 -87 -26 -162t-75 -134.5t-118 -101t-156 -61.5q32 -22 53 -60l309 -572 h-166q-49 0 -70 40l-270 516q-13 25 -30 35t-54 10h-132z"/>
<glyph glyph-name="S" horiz-adv-x="977" unicode="S" d="M926 1211q-11 -14 -21 -21.5t-24 -7.5q-17 0 -36 17.5t-48.5 38t-71.5 38t-105 17.5q-64 0 -114 -20t-84.5 -54.5t-52.5 -80.5t-18 -99q0 -52 24 -87.5t63 -61t89.5 -45t102.5 -40t102.5 -45.5t89.5 -62t63 -89t24 -126q0 -102 -35 -192.5t-100.5 -158.5t-158.5 -108 t-209 -40q-128 0 -228.5 50.5t-165.5 136.5l66 89q8 11 20 18t26 7q19 0 41 -22.5t56 -50t84 -50t125 -22.5q69 0 124.5 22t94 61t59.5 93.5t21 120.5q0 55 -24 91.5t-63 61.5t-88.5 43.5t-102 37.5t-102 43t-88.5 61t-63 91t-24 133q0 88 32 169t92 143t146 99t194 37 q110 0 198 -42t145 -115z"/>
<glyph glyph-name="T" horiz-adv-x="1087" unicode="T" d="M1177 1433l-20 -157h-423l-156 -1276h-186l156 1276h-425l19 157h1035z"/>
<glyph glyph-name="U" horiz-adv-x="1343" unicode="U" d="M630 147q80 0 147.5 31t118 85.5t83 130.5t43.5 166l107 873h187l-106 -873q-15 -123 -64.5 -228.5t-127.5 -183t-181.5 -121.5t-226.5 -44q-111 0 -197 36t-145.5 100.5t-90.5 153.5t-31 195q0 45 6 92l106 873h187l-107 -872q-2 -20 -3.5 -39t-1.5 -37q0 -75 19.5 -137 t57 -107t93 -69.5t127.5 -24.5z"/>
<glyph glyph-name="V" horiz-adv-x="1259" unicode="V" d="M124 1433h149q25 0 39 -13t19 -32l239 -1024q8 -32 15.5 -70.5t12.5 -80.5q14 42 29.5 80t31.5 71l489 1024q8 16 26.5 30.5t42.5 14.5h150l-713 -1433h-169z"/>
<glyph glyph-name="W" horiz-adv-x="1882" unicode="W" d="M129 1433h146q25 0 40 -12.5t18 -32.5l154 -1014q2 -14 3.5 -34t3.5 -39q1 -22 2 -45q10 32 20.5 62t21.5 56l429 1014q8 17 26 31t42 14h43q25 0 40 -12.5t19 -32.5l179 -1014q5 -26 8 -55t5 -61q10 32 18.5 61t18.5 55l403 1014q7 17 26.5 31t43.5 14h146l-587 -1433 h-169l-194 1103q-3 16 -5.5 35t-4.5 39q-7 -20 -13.5 -39t-13.5 -35l-465 -1103h-168z"/>
<glyph glyph-name="X" horiz-adv-x="1192" unicode="X" d="M500 765l-337 668h169q21 0 30 -7t16 -21l256 -540q9 19 22 37l364 502q11 14 21.5 21.5t25.5 7.5h193l-501 -660l378 -773h-168q-20 0 -31.5 11.5t-17.5 24.5l-292 625q-8 -17 -18 -30l-431 -595q-26 -36 -62 -36h-187z"/>
<glyph glyph-name="Y" horiz-adv-x="1165" unicode="Y" d="M686 573l-71 -573h-187l71 571l-378 862h166q25 0 38 -12.5t21 -31.5l238 -574q10 -29 17 -55t12 -52q12 26 26.5 52t31.5 55l381 574q11 16 27.5 30t40.5 14h155z"/>
<glyph glyph-name="Z" horiz-adv-x="1148" unicode="Z" d="M1195 1433l-8 -60q-2 -14 -8 -25.5t-15 -23.5l-876 -1172h738l-20 -152h-990l8 59q2 14 7.5 25t14.5 23l876 1173h-713l19 153h967z"/>
<glyph glyph-name="bracketleft" horiz-adv-x="552" unicode="[" d="M33 -287l223 1819h343l-8 -67q-2 -20 -17 -33t-36 -13h-151l-197 -1592h153q19 0 30.5 -11t11.5 -28q0 -1 -0.5 -7t-1.5 -14.5t-2.5 -18t-2.5 -18.5l-2 -17h-343z"/>
<glyph glyph-name="backslash" horiz-adv-x="694" unicode="\" d="M108 1451h73q32 0 53.5 -17t29.5 -46l361 -1479h-72q-28 0 -53 17t-33 49z"/>
<glyph glyph-name="bracketright" horiz-adv-x="552" unicode="]" d="M209 1532h344l-224 -1819h-344l9 67q2 20 16.5 33.5t36.5 13.5h152l196 1592h-152q-20 0 -31.5 11.5t-11.5 28.5l6 48z"/>
<glyph glyph-name="asciicircum" d="M574 1433h114l359 -646h-130q-17 0 -29 10t-20 24l-196 352q-13 23 -22.5 44.5t-16.5 42.5q-14 -44 -37 -87l-193 -352q-8 -14 -20 -24t-32 -10h-136z" unicode="^"/>
<glyph glyph-name="underscore" horiz-adv-x="726" unicode="_" d="M645 -168l-15 -116h-725l14 116h726z"/>
<glyph glyph-name="grave" horiz-adv-x="568" unicode="`" d="M240 1447q31 0 45 -10t24 -32l107 -242h-99q-20 0 -32 6t-23 21l-185 257h163z"/>
<glyph glyph-name="a" horiz-adv-x="1010" unicode="a" d="M380 134q49 0 96 30.5t89 84.5t78.5 128.5t64.5 163.5l43 348q-22 5 -43.5 6.5t-42.5 1.5q-60 0 -116 -19.5t-105 -54.5t-89 -83.5t-68.5 -106.5t-44.5 -123.5t-16 -134.5q0 -241 154 -241zM816 0h-92q-35 0 -47.5 18t-12.5 44l18 205q-36 -64 -77.5 -116t-88 -88.5 t-97.5 -56.5t-106 -20q-60 0 -109 23.5t-83.5 69t-53.5 112t-19 152.5q0 90 22.5 175.5t64 161.5t99.5 139.5t129.5 110t153.5 72t172 25.5q65 0 126.5 -10.5t121.5 -36.5z"/>
<glyph glyph-name="b" horiz-adv-x="1050" unicode="b" d="M657 885q-48 0 -97 -30t-94.5 -83t-85.5 -126t-69 -160l-32 -263q38 -54 91 -76.5t108 -22.5q52 0 98 22t84 59.5t68 88t50.5 108t31.5 119t11 121.5q0 119 -43 181t-121 62zM79 0l178 1473h175l-88 -716q38 61 82 111.5t92 85.5t100 54.5t106 19.5q129 0 201 -94 t72 -275q0 -82 -17 -164t-48.5 -156.5t-76 -139t-99 -112t-118.5 -74.5t-134 -27q-81 0 -146.5 34t-107.5 97l-13 -65q-8 -26 -20.5 -39t-42.5 -13h-95z"/>
<glyph glyph-name="c" horiz-adv-x="866" unicode="c" d="M819 182q-52 -57 -98.5 -95t-93.5 -60.5t-97.5 -31.5t-108.5 -9q-88 0 -155.5 30t-113 84.5t-69 131t-23.5 168.5q0 123 38.5 236t107.5 200t164 139t209 52q100 0 168 -35.5t119 -103.5l-56 -67q-6 -8 -15 -13t-20 -5q-14 0 -27.5 12.5t-35 28t-54 28t-83.5 12.5 q-69 0 -130.5 -37.5t-107.5 -102.5t-72.5 -154t-26.5 -191q0 -62 14 -112.5t42 -86t68.5 -55t94.5 -19.5q45 0 80 9.5t62 23.5t47.5 30.5t37 30.5t30 23.5t27.5 9.5q20 0 34 -17z"/>
<glyph glyph-name="d" horiz-adv-x="1052" unicode="d" d="M393 129q48 0 96.5 29.5t94 82t85 125t68.5 158.5l33 268q-38 53 -91 75t-107 22q-79 0 -142.5 -47t-108 -121.5t-68.5 -166.5t-24 -181q0 -119 43 -181.5t121 -62.5zM756 0q-35 0 -47.5 18t-12.5 44l19 211q-38 -65 -83 -118t-94.5 -90.5t-103 -58t-108.5 -20.5 q-130 0 -201.5 94.5t-71.5 274.5q0 82 17 164t48.5 157t76 139.5t99 111.5t118.5 74t134 27q74 0 135.5 -29t104.5 -83l69 557h175l-182 -1473h-92z"/>
<glyph glyph-name="e" horiz-adv-x="922" unicode="e" d="M575 899q-63 0 -116 -26t-94 -71.5t-70 -107t-45 -132.5q154 19 247 43.5t143 53t66 61.5t16 69q0 18 -8 37.5t-25.5 35.5t-45.5 26.5t-68 10.5zM881 796q0 -66 -27 -121.5t-99 -100t-198 -77.5t-324 -53q-1 -11 -1 -22v-21q0 -134 58.5 -204.5t176.5 -70.5q48 0 85.5 10 t67 24.5t52 32t41.5 32t35 24.5t32 10q18 0 33 -17l44 -55q-51 -53 -99.5 -90.5t-99.5 -62.5t-106.5 -36.5t-119.5 -11.5q-87 0 -156 29t-117 82.5t-74 129.5t-26 170q0 78 16.5 155.5t48 147.5t77 130t104 103.5t129 68.5t151.5 25q77 0 133 -22t92 -56t53.5 -75t17.5 -78z "/>
<glyph glyph-name="f" horiz-adv-x="605" unicode="f" d="M374 865l-101 -832l-46 -207q-17 -75 -92 -75h-70l135 1111l-100 13q-17 5 -27 14t-10 26l8 78h145l12 98q11 87 43.5 154.5t82 114t113 70.5t136.5 24q62 0 113 -20l-17 -92q-2 -14 -13.5 -17.5t-29.5 -3.5q-9 0 -19.5 0.5t-22.5 0.5q-43 0 -79.5 -12.5t-64.5 -40.5 t-47 -73t-27 -110l-12 -93h253l-17 -128h-246z"/>
<glyph glyph-name="g" horiz-adv-x="929" unicode="g" d="M630 -25q0 26 -5 48.5t-13 42.5q-54 9 -101.5 13t-89.5 4q-82 0 -142 -14.5t-99 -38.5t-58 -55.5t-19 -65.5q0 -72 60.5 -110t171.5 -38q66 0 120.5 17.5t93 46.5t60 68t21.5 82zM430 457q54 0 95 23.5t69.5 62t43.5 86.5t15 97q0 88 -44.5 133t-122.5 45q-54 0 -95 -22 t-69 -59t-42.5 -84t-14.5 -98q0 -90 43.5 -137t121.5 -47zM816 732q-1 -50 -12.5 -90t-28.5 -74t-37 -64t-37 -60t-28.5 -61.5t-11.5 -68.5q0 -42 20.5 -76t45 -70t45 -78.5t20.5 -100.5q0 -71 -33 -134.5t-94 -112.5t-148.5 -77.5t-196.5 -28.5q-87 0 -158.5 18t-122 51 t-78 79.5t-27.5 102.5q0 79 41 136t108 94t152.5 54t174.5 17q36 0 71.5 -3t70.5 -8q-9 19 -14.5 39.5t-5.5 44.5q0 31 9.5 64t31.5 74q-38 -26 -85 -40t-107 -14q-58 0 -108.5 19t-88.5 56t-60 92.5t-22 129.5q0 72 26.5 141.5t77.5 124t126 87.5t173 33q110 0 191 -52h275 l-8 -59q-2 -17 -11.5 -31t-28.5 -17l-126 -22q9 -26 14 -54.5t5 -60.5z"/>
<glyph glyph-name="h" horiz-adv-x="1060" unicode="h" d="M79 0l178 1473h178l-83 -684q79 118 175.5 178.5t197.5 60.5q115 0 177 -76t62 -221q0 -20 -1 -41.5t-4 -44.5l-76 -645h-178l76 645q2 20 3.5 38.5t1.5 35.5q0 82 -30.5 122t-96.5 40q-45 0 -92.5 -24.5t-92.5 -69.5t-84 -108.5t-68 -141.5l-65 -537h-178z"/>
<glyph glyph-name="i" horiz-adv-x="487" unicode="i" d="M459 1331q0 -26 -10.5 -48.5t-28 -40t-39.5 -27.5t-46 -10q-23 0 -45 10t-38.5 27.5t-26.5 40t-10 48.5t10 49t27 40.5t39 28t45 10.5q24 0 46 -10t39.5 -27.5t27.5 -41t10 -49.5zM392 1013l-122 -1013h-175l122 1013h175z"/>
<glyph glyph-name="j" horiz-adv-x="475" unicode="j" d="M454 1331q0 -26 -10.5 -48.5t-28 -40t-40 -27.5t-45.5 -10q-24 0 -45.5 10t-38 27.5t-26.5 40t-10 48.5t10 49t27 40.5t38.5 28t45.5 10.5t46 -10t39.5 -27.5t27.5 -41t10 -49.5zM391 1013l-134 -1088q-8 -61 -30.5 -113.5t-60.5 -91.5t-90.5 -61.5t-119.5 -22.5 q-35 0 -60 5t-49 15l18 96q5 13 12 16.5t21 3.5q7 0 15.5 -0.5t19.5 -0.5q71 0 105.5 36.5t44.5 117.5l133 1088h175z"/>
<glyph glyph-name="k" horiz-adv-x="959" unicode="k" d="M434 1473l-106 -867h31q20 0 33 5.5t29 22.5l335 343q16 16 31 26t39 10h157l-391 -397q-15 -16 -29.5 -29.5t-31.5 -23.5q16 -12 27 -28t22 -35l304 -500h-153q-22 0 -35.5 8t-24.5 27l-258 415q-13 20 -25.5 27t-40.5 7h-34l-59 -484h-176l181 1473h175z"/>
<glyph glyph-name="l" horiz-adv-x="475" unicode="l" d="M88 0l179 1473h175l-179 -1473h-175z"/>
<glyph glyph-name="m" horiz-adv-x="1567" unicode="m" d="M71 0l122 1014h89q60 0 60 -60l-14 -181q75 126 164 190.5t188 64.5q103 0 152 -70.5t49 -201.5q76 139 170.5 205.5t198.5 66.5q112 0 167.5 -73t55.5 -210q0 -23 -2 -48t-5 -52l-76 -645h-175l76 645q6 49 6 89q0 75 -25 110.5t-84 35.5q-43 0 -86 -21.5t-83 -63 t-74.5 -103t-61.5 -141.5l-65 -551h-176l77 645q3 27 5 51t2 45q0 71 -23.5 105t-82.5 34q-48 0 -92.5 -24t-84 -69.5t-73.5 -111t-62 -147.5l-63 -528h-174z"/>
<glyph glyph-name="n" horiz-adv-x="1052" unicode="n" d="M71 0l121 1014h89q60 0 60 -60l-15 -196q81 134 182.5 202t210.5 68q113 0 175.5 -76t62.5 -222q0 -20 -1 -41t-4 -44l-76 -645h-178l76 645q2 20 3.5 38.5t1.5 35.5q0 82 -30.5 121.5t-95.5 39.5q-48 0 -97.5 -26t-95.5 -73.5t-85.5 -115t-67.5 -150.5l-58 -515h-178z "/>
<glyph glyph-name="o" horiz-adv-x="1005" unicode="o" d="M432 -14q-83 0 -152 28.5t-119 82.5t-78 132t-28 178q0 128 40 241t109.5 198t164 134t204.5 49q83 0 152 -28.5t119 -82.5t78 -132.5t28 -177.5q0 -127 -40 -240t-109.5 -198t-164.5 -134.5t-204 -49.5zM448 125q73 0 133 40t102 106.5t65 153.5t23 182q0 140 -55 211 t-159 71q-74 0 -133.5 -39.5t-101.5 -106t-65 -153.5t-23 -182q0 -140 54.5 -211.5t159.5 -71.5z"/>
<glyph glyph-name="p" horiz-adv-x="1036" unicode="p" d="M649 885q-48 0 -97.5 -30t-95.5 -84t-85.5 -128t-68.5 -161l-32 -258q38 -55 91.5 -77.5t108.5 -22.5q52 0 98 22t84 59.5t68 88t50.5 108t31.5 119t11 121.5q0 119 -43 181t-121 62zM28 -343l165 1357h89q60 0 60 -60l-17 -216q38 66 83 119.5t94.5 91.5t103.5 58.5 t110 20.5q129 0 201 -94t72 -275q0 -82 -17 -164t-48.5 -156.5t-76 -139t-99 -112t-118.5 -74.5t-134 -27q-75 0 -137 29.5t-104 84.5l-54 -443h-173z"/>
<glyph glyph-name="q" horiz-adv-x="1010" unicode="q" d="M380 134q48 0 94.5 30t88.5 83t78 126.5t64 160.5l45 355q-21 5 -42.5 6.5t-42.5 1.5q-60 0 -116 -19.5t-105 -54.5t-89 -83.5t-68.5 -106.5t-44.5 -123.5t-16 -134.5q0 -241 154 -241zM773 -343h-112q-32 0 -45 18.5t-13 43.5q0 3 1 11t2 16.5t2 15.5t1 9l59 471 q-35 -59 -75 -106t-85 -80.5t-94 -51.5t-101 -18q-60 0 -109 23.5t-83.5 69t-53.5 112t-19 152.5q0 90 22.5 175.5t64 161.5t99.5 139.5t129.5 110t153.5 72t172 25.5q65 0 126.5 -10.5t121.5 -36.5z"/>
<glyph glyph-name="r" horiz-adv-x="702" unicode="r" d="M71 0l122 1014h89q28 0 44 -13t16 -40q0 -4 -0.5 -11.5t-1 -15.5t-1 -14t-0.5 -7l-14 -184q65 140 145.5 216t169.5 76q42 0 84 -18l-32 -171q-47 19 -91 19q-97 0 -173 -94.5t-127 -286.5l-56 -470h-174z"/>
<glyph glyph-name="s" horiz-adv-x="778" unicode="s" d="M723 851q-8 -12 -16 -17.5t-20 -5.5q-14 0 -30.5 11t-40 24.5t-57.5 25t-82 11.5q-45 0 -82 -12.5t-64 -34.5t-41.5 -51.5t-14.5 -62.5q0 -47 31 -75t78 -48.5t101.5 -39.5t101.5 -48t78 -74t31 -117q0 -70 -27.5 -134t-79 -112.5t-124 -77.5t-162.5 -29 q-97 0 -171.5 34.5t-121.5 88.5l44 68q8 13 19 20t28 7q16 0 32 -14t40 -31.5t60.5 -31.5t92.5 -14q49 0 88.5 15t67 40t42 58.5t14.5 71.5q0 51 -31 81t-78 50t-101 37.5t-101 45t-78 71.5t-31 117q0 64 25.5 123.5t73.5 105.5t116.5 73.5t154.5 27.5q91 0 160.5 -30.5 t119.5 -82.5z"/>
<glyph glyph-name="t" horiz-adv-x="685" unicode="t" d="M159 191q0 6 0.5 15.5t2 27.5t4.5 47t9 76l63 507h-113q-13 0 -21.5 7.5t-8.5 23.5q0 3 1 12t2.5 20.5t3 23.5t2.5 23l156 21l75 313q4 15 15 24.5t27 9.5h94l-44 -349h266l-15 -129h-267l-61 -498q-5 -41 -8 -66l-4 -40q-1 -15 -1.5 -21t-0.5 -9q0 -51 23.5 -75.5 t64.5 -24.5q26 0 46 7.5t34.5 16.5t24.5 16.5t18 7.5t12.5 -4t9.5 -13l37 -85q-48 -43 -110.5 -67.5t-125.5 -24.5q-97 0 -153 53t-58 154z"/>
<glyph glyph-name="u" horiz-adv-x="1050" unicode="u" d="M354 1013l-76 -644q-2 -20 -3.5 -38t-1.5 -35q0 -82 30.5 -122t96.5 -40q46 0 94.5 25t94 71t84.5 111t68 145l63 527h177l-122 -1013h-88q-31 0 -48 14t-17 43q0 1 1 18t2.5 37t3 37t1.5 18l7 81q-81 -129 -181 -195.5t-206 -66.5q-113 0 -175.5 77t-62.5 221q0 20 1 41 t4 44l76 644h177z"/>
<glyph glyph-name="v" horiz-adv-x="952" unicode="v" d="M75 1013h144q20 0 32 -11t15 -26l151 -652q8 -37 11.5 -74t5.5 -73q11 36 23 72.5t30 74.5l314 652q8 16 22 26.5t31 10.5h139l-508 -1013h-149z"/>
<glyph glyph-name="w" horiz-adv-x="1419" unicode="w" d="M81 1013h133q20 0 32.5 -10t14.5 -27l93 -652q5 -35 5.5 -67.5t1.5 -64.5q12 32 24.5 64.5t26.5 67.5l277 656q6 15 19.5 25t30.5 10h74q20 0 31 -10t13 -25l113 -656q6 -35 9.5 -68t6.5 -66q10 32 19.5 65.5t23.5 68.5l256 652q6 16 20 26.5t32 10.5h128l-425 -1013 h-135q-23 0 -29 34l-123 687q-3 16 -5 32.5t-4 32.5q-5 -17 -10 -33t-12 -33l-293 -686q-14 -34 -40 -34h-130z"/>
<glyph glyph-name="x" horiz-adv-x="937" unicode="x" d="M360 545l-243 468h159q20 0 28.5 -5.5t15.5 -19.5l170 -348q5 11 10.5 21t13.5 21l229 303q11 14 20 21t22 7h161l-362 -469l270 -544h-159q-20 0 -31 10.5t-18 24.5l-191 405q-10 -22 -21 -38l-276 -368q-10 -14 -22 -24t-30 -10h-156z"/>
<glyph glyph-name="y" horiz-adv-x="952" unicode="y" d="M316 -302q-21 -41 -62 -41h-130l219 403l-262 953h147q21 0 31.5 -10.5t14.5 -26.5l163 -638q5 -21 8 -42t5 -42q9 21 17.5 42.5t19.5 42.5l320 639q8 16 22.5 25.5t29.5 9.5h141z"/>
<glyph glyph-name="z" horiz-adv-x="858" unicode="z" d="M848 937q-2 -19 -11 -36.5t-20 -31.5l-584 -730h500l-16 -139h-714l9 74q2 13 10.5 30.5t20.5 33.5l587 735h-492l17 140h702z"/>
<glyph glyph-name="braceleft" horiz-adv-x="552" unicode="{" d="M158 453q0 52 -28 85t-81 33l13 104q74 0 110.5 59.5t36.5 183.5q0 22 -1.5 48.5t-3 54t-3 54t-1.5 48.5q0 97 22.5 173t67 128.5t110.5 80t152 27.5h49l-9 -77q-2 -20 -17.5 -28t-25.5 -8h-18q-39 0 -72 -15t-56.5 -49.5t-36.5 -90t-13 -136.5v-50q0 -29 0.5 -60.5 t0.5 -61.5v-49q0 -77 -17 -128.5t-42.5 -84t-55 -49t-54.5 -23.5q53 -17 85 -62.5t32 -108.5q0 -60 -15 -117t-32.5 -114.5t-32.5 -116t-15 -121.5q0 -70 33.5 -112.5t94.5 -42.5h19q10 0 21.5 -7.5t11.5 -24.5q0 -3 -1 -10t-1.5 -14.5t-1.5 -13.5t-1 -7l-4 -37h-50 q-69 0 -120 20t-84.5 55.5t-50.5 84.5t-17 107q0 66 16 126t35 117.5t35 114t16 115.5z"/>
<glyph glyph-name="bar" horiz-adv-x="600" unicode="|" d="M171 1533h138v-1876h-138v1876z"/>
<glyph glyph-name="braceright" horiz-adv-x="552" unicode="}" d="M427 793q0 -52 28 -85t81 -33l-13 -104q-74 0 -110.5 -59.5t-36.5 -183.5q0 -22 1.5 -48.5t3 -54t3 -54t1.5 -48.5q0 -97 -22.5 -173t-67 -128.5t-110.5 -80t-152 -27.5h-49l9 77q1 10 6 16.5t11.5 11t13.5 6.5t12 2h18q39 0 72 15t56.5 49.5t36.5 90t13 136.5v49 q0 30 -0.5 61.5t-0.5 60.5v50q0 76 17 128t42.5 84.5t55 49t54.5 23.5q-53 17 -85 62.5t-32 108.5q0 60 15 117t32.5 114.5t32.5 116t15 121.5q0 70 -33.5 112.5t-94.5 42.5h-19q-10 0 -21.5 7.5t-11.5 24.5q0 3 1 10t1.5 14.5t1.5 13.5t1 7l4 37h50q69 0 120 -20 t84.5 -55.5t50.5 -84.5t17 -107q0 -66 -16 -126t-35 -117.5t-35 -114t-16 -115.5z"/>
<glyph glyph-name="asciitilde" d="M700 613q65 0 101.5 42.5t37.5 112.5h144q0 -67 -18.5 -123t-53 -96t-85.5 -62t-115 -22q-52 0 -103 16t-98.5 35.5t-90.5 36t-79 16.5q-65 0 -101.5 -42t-37.5 -113h-144q0 67 18.5 123t53 96t85 62.5t115.5 22.5q52 0 103 -16.5t98.5 -36t90.5 -36t79 -16.5z" unicode="~"/>
<glyph glyph-name="uni00A0" horiz-adv-x="386" unicode=" "/>
<glyph glyph-name="exclamdown" horiz-adv-x="635" unicode="¡" d="M243 903q0 26 9.5 49t26.5 40t39.5 27t49.5 10q26 0 48.5 -10t39.5 -27t27 -40t10 -49q0 -27 -10 -49.5t-27 -39.5t-39.5 -26.5t-48.5 -9.5q-27 0 -49.5 9.5t-39.5 26.5t-26.5 39.5t-9.5 49.5zM148 -344l67 542q6 45 12.5 87.5t14 86t16.5 89.5t19 98h104 q-2 -53 -4.5 -99t-5.5 -89t-6.5 -85.5t-9.5 -87.5l-66 -542h-141z"/>
<glyph glyph-name="cent" d="M307 439q0 -132 58 -212.5t164 -101.5l146 768q-90 -6 -158.5 -40t-115 -93t-70.5 -140.5t-24 -180.5zM503 -10q-82 9 -149.5 43t-115.5 90.5t-74 134t-26 173.5q0 126 38.5 233.5t110.5 186.5t176.5 125t236.5 49l34 181q4 19 19 33.5t35 14.5h64l-45 -234 q82 -11 144.5 -42.5t110.5 -80.5l-52 -60q-8 -11 -16.5 -15.5t-22.5 -4.5q-12 0 -27 9t-36.5 21t-52 24t-72.5 19l-147 -771q64 4 109.5 19.5t77 32.5t52.5 30.5t37 13.5q22 0 31 -15l39 -60q-33 -35 -74.5 -62t-89.5 -46t-100.5 -30t-106.5 -14l-33 -177 q-4 -19 -18.5 -33.5t-35.5 -14.5h-64z" unicode="¢"/>
<glyph glyph-name="sterling" d="M890 661q-2 -17 -17.5 -31.5t-38.5 -14.5h-423l-31 -256q-9 -75 -36 -128t-75 -95q29 6 59 9.5t59 3.5h686l-9 -73q-2 -13 -8.5 -26.5t-18 -24.5t-26 -18t-31.5 -7h-965l14 112q35 10 63.5 25.5t50 39t35 57t19.5 79.5l36 302h-163l8 70q2 18 17.5 32t38.5 14h113l33 265 q12 94 52 176.5t104.5 143.5t152.5 96t197 35q84 0 145.5 -19t105.5 -52t72.5 -78.5t46.5 -98.5l-75 -44q-20 -10 -40 -10q-14 0 -26 5t-20 19q-17 27 -34.5 51t-42.5 42t-61 28t-88 10q-65 0 -118.5 -21.5t-94 -61t-66 -95.5t-33.5 -125l-32 -266h472z" unicode="£"/>
<glyph glyph-name="currency" d="M394 672q0 -46 17.5 -86.5t48.5 -71t71.5 -48.5t87.5 -18t88.5 18t72 48.5t48.5 71t18 86.5q0 47 -18 88t-48.5 72t-72 48.5t-88.5 17.5t-87.5 -17.5t-71.5 -48.5t-48.5 -72t-17.5 -88zM262 672q0 57 16.5 107.5t45.5 94.5l-153 153l91 90l151 -152q44 31 96 48t110 17 q57 0 108 -16.5t94 -46.5l153 153l89 -91l-151 -152q31 -44 48 -95.5t17 -109.5q0 -57 -16.5 -108t-45.5 -94l152 -151l-91 -92l-152 152q-44 -31 -96 -47.5t-109 -16.5t-107.5 16.5t-94.5 45.5l-153 -153l-90 91l152 152q-31 44 -47.5 95.5t-16.5 109.5z" unicode="¤"/>
<glyph glyph-name="yen" d="M163 624h310l-310 807h144q24 0 38 -11.5t21 -31.5l211 -573q12 -33 17 -62t9 -57q9 28 20.5 57.5t31.5 61.5l351 573q11 17 28 30t41 13h145l-510 -807h310l-11 -99h-343l-13 -105h342l-12 -99h-342l-39 -321h-172l39 321h-343l13 99h342l13 105h-343z" unicode="¥"/>
<glyph glyph-name="brokenbar" horiz-adv-x="600" unicode="¦" d="M171 452h138v-795h-138v795zM171 1533h138v-794h-138v794z"/>
<glyph glyph-name="section" horiz-adv-x="927" unicode="§" d="M283 711q0 -47 29 -80t74 -61t100 -53t106 -55q58 29 83 72t25 96q0 49 -27 83t-69.5 61.5t-94 51.5t-100.5 52q-69 -35 -97.5 -75t-28.5 -92zM850 1267q-15 -22 -38 -22q-15 0 -31.5 11.5t-40 25t-56.5 25t-81 11.5q-47 0 -84.5 -14t-64.5 -37t-41.5 -54t-14.5 -65 q0 -46 34 -78.5t85 -60.5t110 -56t110 -65t85 -87t34 -122q0 -91 -44.5 -162.5t-139.5 -112.5q37 -33 59.5 -75.5t22.5 -99.5q0 -74 -27 -138.5t-78 -112.5t-124.5 -75.5t-167.5 -27.5q-97 0 -173.5 34t-124.5 88l48 66q9 13 20 19t29 6t34.5 -14t40.5 -31t60.5 -31 t94.5 -14q50 0 89.5 14.5t67 40t42 60t14.5 75.5t-20.5 71t-53.5 54t-75.5 44t-87 41t-87 45t-75.5 55.5t-53.5 72.5t-20.5 97q0 89 48.5 159t151.5 109q-37 34 -60 78t-23 106q0 65 25.5 124t74 104t118 71.5t156.5 26.5q91 0 161 -31t117 -85z"/>
<glyph glyph-name="dieresis" horiz-adv-x="568" unicode="¨" d="M678 1311q0 -23 -9 -43t-24.5 -35t-36 -24t-43.5 -9t-43.5 9t-35.5 24t-24 35t-9 43t9 44t24 36.5t35.5 24.5t43.5 9t43.5 -9t36 -24.5t24.5 -36.5t9 -44zM319 1311q0 -23 -9 -43t-25 -35t-36.5 -24t-43.5 -9t-43 9t-35 24t-24 35t-9 43t9 44t24 36.5t35 24.5t43 9 t43.5 -9t36.5 -24.5t25 -36.5t9 -44z"/>
<glyph glyph-name="copyright" horiz-adv-x="1597" unicode="©" d="M194 716q0 -89 22 -171t62.5 -153.5t98 -129.5t127 -99.5t150.5 -64t169 -22.5t169.5 22.5t152 64t128 99.5t98.5 129.5t63.5 153.5t22.5 171q0 134 -49.5 251.5t-135 205t-201.5 138t-248 50.5q-88 0 -169 -23t-150.5 -64.5t-127 -100.5t-98 -130.5t-62.5 -154.5 t-22 -172zM93 716q0 101 26 194.5t74 175t114.5 148t147.5 114.5t174 74t194 26t194.5 -26t174.5 -74t148 -114.5t114.5 -148t73.5 -175t26 -194.5q0 -100 -26 -193.5t-73.5 -174.5t-114.5 -147.5t-148 -114.5t-174.5 -74t-194.5 -26q-100 0 -193.5 26t-174.5 74 t-147.5 114.5t-114.5 147.5t-74 174t-26 194zM1083 474q9 0 13.5 -3t9.5 -8l60 -64q-57 -66 -139.5 -102.5t-198.5 -36.5q-98 0 -178.5 34t-138 95t-89 145t-31.5 184q0 101 34 185.5t95 145t144.5 94t181.5 33.5q109 0 184.5 -33.5t132.5 -89.5l-46 -65q-5 -6 -13 -12 t-19 -6q-14 0 -29.5 11t-40.5 24.5t-63.5 25t-96.5 11.5q-71 0 -127 -22.5t-96 -64.5t-61 -102t-21 -135q0 -77 21 -137.5t58.5 -101.5t89 -62.5t113.5 -21.5q63 0 106 12.5t71.5 27t45 27t28.5 12.5z"/>
<glyph glyph-name="ordfeminine" horiz-adv-x="632" unicode="ª" d="M339 920q46 0 81.5 19t71.5 54l13 109q-66 -2 -112 -11t-74.5 -24t-41 -36t-12.5 -47q0 -34 21 -49t53 -15zM536 840q-17 0 -27 4.5t-12 23.5l-5 49q-25 -21 -48 -37t-47 -27t-50 -16.5t-57 -5.5q-65 0 -106 34.5t-41 102.5q0 40 18.5 77.5t61.5 67t114 48.5t177 22l5 38 q1 7 1 13v12q0 46 -20 73t-68 27q-34 0 -58 -9t-42 -19.5t-33 -19.5t-30 -9q-14 0 -22 7t-12 17l-17 40q54 50 114 73t128 23q44 0 78 -15.5t57.5 -41.5t35.5 -61.5t12 -75.5q0 -8 -0.5 -17t-1.5 -17l-47 -381h-58z"/>
<glyph glyph-name="guillemotleft" horiz-adv-x="875" unicode="«" d="M409 518l3 22l278 388l52 -27q23 -12 23 -34q0 -20 -15 -39l-175 -263q-16 -25 -32 -36q10 -10 23 -36l111 -263q6 -14 6 -27q0 -32 -32 -47l-59 -27zM133 518l3 22l278 388l52 -27q23 -12 23 -34q0 -20 -15 -39l-175 -263q-16 -25 -32 -36q10 -10 23 -36l111 -263 q6 -14 6 -27q0 -32 -32 -47l-59 -27z"/>
<glyph glyph-name="logicalnot" d="M180 736h859l-52 -418h-147l36 288h-711z" unicode="¬"/>
<glyph glyph-name="uni00AD" horiz-adv-x="641" unicode="­" d="M115 672h457l-19 -146h-456z"/>
<glyph glyph-name="registered" horiz-adv-x="1597" unicode="®" d="M681 740h115q56 0 94.5 10.5t62 30.5t34 49t10.5 67q0 37 -9.5 65t-31 46t-56.5 27t-87 9h-132v-304zM681 626v-354h-156v892h288q172 0 255 -62.5t83 -184.5q0 -94 -53.5 -160t-159.5 -91q17 -10 29 -25.5t25 -34.5l227 -334h-148q-33 0 -49 25l-201 302 q-9 14 -21.5 20.5t-38.5 6.5h-80zM195 716q0 -89 22 -171t63 -153.5t98 -129.5t127 -99.5t151 -64t169 -22.5t169 22.5t151.5 64t128 99.5t98.5 129.5t63.5 153.5t22.5 171q0 134 -49.5 251.5t-135 205t-201 138t-247.5 50.5t-247 -50.5t-200 -138t-134 -205t-49 -251.5z M94 716q0 101 26 194.5t74 175t114.5 148t148 114.5t174.5 74t194 26t194 -26t174.5 -74t148 -114.5t114.5 -148t74 -175t26 -194.5q0 -100 -26 -193.5t-74 -174.5t-114.5 -147.5t-148 -114.5t-174.5 -74t-194 -26t-194 26t-174.5 74t-148 114.5t-114.5 147.5t-74 174 t-26 194z"/>
<glyph glyph-name="macron" horiz-adv-x="568" unicode="¯" d="M126 1345h530l-14 -113h-530z"/>
<glyph glyph-name="degree" horiz-adv-x="773" unicode="°" d="M267 1127q0 -42 15.5 -78.5t42.5 -63.5t63.5 -42.5t78.5 -15.5t78.5 15.5t63.5 42.5t42 63.5t15 78.5t-15 79t-42 64.5t-63.5 43t-78.5 15.5t-78.5 -15.5t-63.5 -43t-42.5 -64.5t-15.5 -79zM142 1128q0 67 25.5 126t69.5 102.5t103 68.5t127 25q69 0 128.5 -25 t103.5 -68.5t69 -102.5t25 -126q0 -66 -25 -124.5t-69 -102t-103.5 -69t-128.5 -25.5q-68 0 -127 25.5t-103 69t-69.5 102t-25.5 124.5z"/>
<glyph glyph-name="plusminus" d="M66 211h957l-16 -131h-956zM735 1199l-47 -379h411l-16 -131h-411l-45 -370h-140l45 370h-406l15 131h407l47 379h140z" unicode="±"/>
<glyph glyph-name="twosuperior" horiz-adv-x="664" unicode="²" d="M482 1636q96 0 150.5 -50t54.5 -133q0 -44 -14 -80t-38 -68.5t-55.5 -62.5t-65.5 -61l-199 -181q50 14 92 14h202q18 0 27.5 -9t9.5 -24q0 -11 -1 -25.5t-3 -26.5q-2 -15 -4 -29h-509l5 42q2 12 8 26t19 25l250 220q31 27 58 55t47 56.5t31.5 57.5t11.5 59q0 45 -27 69 t-69 24t-74.5 -21.5t-55.5 -71.5q-14 -30 -47 -30q-4 0 -8 0.5t-9 1.5l-67 12q29 106 103.5 158.5t176.5 52.5z"/>
<glyph glyph-name="threesuperior" horiz-adv-x="664" unicode="³" d="M502 1636q46 0 83.5 -13t64 -35.5t40.5 -53.5t14 -67q0 -140 -139 -185q57 -17 85 -51.5t28 -89.5q0 -60 -24 -106.5t-63 -78t-89 -48t-102 -16.5q-56 0 -96.5 12.5t-68 37t-44.5 60t-26 82.5l58 24q15 6 28 6q28 0 36 -23q4 -14 11 -30.5t20 -30.5t34.5 -23.5t54.5 -9.5 q34 0 60.5 11t45 29.5t28.5 42.5t10 50q0 49 -35 73.5t-121 24.5l11 89q91 2 132.5 32.5t41.5 92.5q0 44 -26.5 66.5t-70.5 22.5q-50 0 -80.5 -23t-50.5 -66q-14 -31 -43 -31q-4 0 -8 0.5t-9 1.5l-64 12q14 52 40.5 92t62.5 66t79.5 39.5t91.5 13.5z"/>
<glyph glyph-name="acute" horiz-adv-x="568" unicode="´" d="M676 1447l-248 -257q-14 -15 -28.5 -21t-34.5 -6h-102l166 242q14 22 31 32t48 10h168z"/>
<glyph glyph-name="mu" horiz-adv-x="1026" unicode="µ" d="M348 1011l-83 -679q-2 -11 -2 -21v-19q0 -82 43 -126.5t124 -44.5q70 0 136 37t127 103l93 750h171l-124 -1011h-103q-18 0 -29.5 9t-11.5 27v108q-70 -72 -137.5 -105.5t-147.5 -33.5q-65 0 -112 23.5t-77 66.5v-16q0 -36 -2.5 -72t-6.5 -68l-35 -283h-85 q-32 0 -50.5 16t-18.5 45v7q0 3 1 6l158 1281h172z"/>
<glyph glyph-name="paragraph" horiz-adv-x="1339" unicode="¶" d="M1417 1433l-19 -153h-220l-181 -1481h-157l182 1481h-277l-182 -1481h-157l106 861q-93 0 -168 25t-127.5 70t-81 108t-28.5 140q0 90 36 168.5t101.5 136.5t157.5 91.5t205 33.5h810z"/>
<glyph glyph-name="periodcentered" horiz-adv-x="547" unicode="·" d="M148 593q0 31 11.5 59t32 48t47.5 32t57 12q31 0 58.5 -12t47.5 -32t32 -48t12 -59q0 -30 -12 -57t-32 -47.5t-47.5 -32t-58.5 -11.5q-30 0 -57 11.5t-47.5 32t-32 47.5t-11.5 57z"/>
<glyph glyph-name="cedilla" horiz-adv-x="568" unicode="¸" d="M69 -249q6 0 13 -4t17 -8.5t23 -8.5t33 -4q40 0 61.5 20t21.5 50q0 35 -35.5 49.5t-101.5 23.5l58 141h107l-32 -82q74 -17 107.5 -48.5t33.5 -77.5q0 -36 -16.5 -64.5t-46 -48t-70 -30t-88.5 -10.5q-38 0 -71 8.5t-60 23.5l23 53q8 17 23 17z"/>
<glyph glyph-name="onesuperior" horiz-adv-x="664" unicode="¹" d="M240 993h147l54 436l10 44l-121 -92q-12 -9 -26 -9q-11 0 -18.5 4.5t-11.5 10.5l-32 54l245 189h104l-78 -637h121l-11 -93h-395z"/>
<glyph glyph-name="ordmasculine" horiz-adv-x="704" unicode="º" d="M408 931q90 0 134.5 68.5t44.5 185.5q0 75 -32.5 117.5t-95.5 42.5q-50 0 -84.5 -19t-56 -52.5t-31.5 -80.5t-10 -103q0 -75 32 -117t99 -42zM470 1448q58 0 104.5 -18.5t79 -53t49.5 -83t17 -108.5q0 -82 -24 -148t-66.5 -112.5t-102.5 -71.5t-132 -25q-59 0 -106 18.5 t-79.5 53t-50 83.5t-17.5 109q0 81 24 147t67.5 112.5t104 71.5t132.5 25z"/>
<glyph glyph-name="guillemotright" horiz-adv-x="875" unicode="»" d="M750 540l-2 -22l-277 -389l-53 27q-23 11 -23 35q0 16 13 39l178 263q16 24 30 35q-13 12 -22 37l-112 263q-6 13 -6 26q0 32 33 47l59 27zM474 540l-2 -22l-277 -389l-53 27q-23 11 -23 35q0 16 13 39l178 263q16 24 30 35q-13 12 -22 37l-112 263q-6 13 -6 26 q0 32 33 47l59 27z"/>
<glyph glyph-name="onequarter" horiz-adv-x="1475" unicode="¼" d="M1202 514q2 19 6 41t10 46l-278 -325h232zM208 796h147l54 436l10 44l-121 -92q-14 -9 -26 -9q-11 0 -18.5 4.5t-11.5 10.5l-32 54l245 189h104l-78 -637h121l-11 -93h-395zM441 53q-21 -32 -44.5 -42.5t-52.5 -10.5h-70l924 1371q20 29 44.5 44.5t57.5 15.5h71z M1277 276h110l-8 -73q-2 -11 -9 -18.5t-20 -7.5h-85l-21 -177h-106l22 177h-307q-17 0 -26.5 8t-10.5 20l-4 62l402 461h119z"/>
<glyph glyph-name="onehalf" horiz-adv-x="1475" unicode="½" d="M213 796h147l54 436l10 44l-121 -92q-12 -9 -26 -9q-11 0 -18.5 4.5t-11.5 10.5l-32 54l245 189h104l-78 -637h121l-11 -93h-395zM1167 736q96 0 150.5 -50t54.5 -133q0 -45 -15.5 -83t-41 -71.5t-59 -64.5t-69.5 -64l-187 -170q50 14 92 14h202q18 0 27.5 -9t9.5 -24v-6 q0 -3 -2 -19l-6 -56h-509l5 42q2 12 8 26t19 25l250 220q31 27 58 55t47 56.5t31.5 57.5t11.5 59q0 45 -27 69t-69 24q-47 0 -77.5 -26t-52.5 -67q-9 -16 -20 -22.5t-28 -6.5q-4 0 -10.5 0.5t-29.5 4.5l-43 8q29 106 103.5 158.5t176.5 52.5zM403 53q-21 -32 -44.5 -42.5 t-52.5 -10.5h-70l924 1371q20 29 44.5 44.5t57.5 15.5h71z"/>
<glyph glyph-name="threequarters" horiz-adv-x="1475" unicode="¾" d="M1217 514q2 19 6 41t10 46l-278 -325h232zM484 1439q46 0 83.5 -13t64 -35.5t40.5 -53.5t14 -67q0 -140 -139 -185q57 -17 85 -51.5t28 -89.5q0 -60 -24 -106.5t-63 -78t-89 -48t-102 -16.5q-56 0 -96.5 12.5t-68 37t-44.5 60t-26 82.5l58 24q15 6 28 6q28 0 36 -23 q14 -44 40 -69t80 -25q34 0 60.5 11t45 29.5t28.5 42.5t10 50q0 49 -35 73.5t-121 24.5l11 89q91 2 132.5 32.5t41.5 92.5q0 44 -26.5 66.5t-70.5 22.5q-50 0 -82 -24t-47 -61q-8 -20 -20 -27t-26 -7q-4 0 -9.5 0.5t-21.5 3.5l-49 9q14 52 40.5 92t62.5 66t79.5 39.5 t91.5 13.5zM461 53q-21 -32 -44.5 -42.5t-52.5 -10.5h-70l924 1371q20 29 44.5 44.5t57.5 15.5h71zM1292 276h110l-8 -73q-2 -11 -9 -18.5t-20 -7.5h-85l-21 -177h-106l22 177h-307q-17 0 -26.5 8t-10.5 20l-4 62l402 461h119z"/>
<glyph glyph-name="questiondown" horiz-adv-x="737" unicode="¿" d="M335 903q0 26 9.5 49t26 40t39 27t49.5 10q26 0 49 -10t40 -27t26.5 -40t9.5 -49q0 -27 -9.5 -49.5t-26.5 -39.5t-40 -26.5t-49 -9.5q-27 0 -49.5 9.5t-39 26.5t-26 39.5t-9.5 49.5zM629 -213q-33 -29 -71 -55t-81.5 -45.5t-92.5 -31.5t-105 -12q-68 0 -123.5 19.5 t-96 55.5t-62.5 87.5t-22 116.5q0 81 23.5 138.5t60 99t80 71.5t82.5 56.5t68 53.5t38 63l36 155h117l-9 -168q-3 -45 -27.5 -78t-60.5 -62t-77.5 -57t-76.5 -61.5t-58.5 -76.5t-23.5 -102q0 -41 13 -72.5t35.5 -53t52 -32.5t62.5 -11q55 0 96.5 15t71.5 33t49.5 33t31.5 15 q22 0 33 -21z"/>
<glyph glyph-name="Agrave" horiz-adv-x="1237" unicode="À" d="M614 1781q31 0 45 -6.5t30 -25.5l167 -203h-144q-20 0 -31 6.5t-26 18.5l-235 210h194zM379 531h491l-132 593q-6 26 -13 59t-12 71q-14 -38 -28.5 -71.5t-27.5 -59.5zM1180 0h-144q-25 0 -39 12.5t-19 32.5l-78 350h-584l-164 -350q-9 -18 -27.5 -31.5t-41.5 -13.5h-146 l703 1433h189z"/>
<glyph glyph-name="Aacute" horiz-adv-x="1237" unicode="Á" d="M1125 1781l-288 -210q-17 -12 -29.5 -18.5t-32.5 -6.5h-145l218 203q10 9 18.5 15.5t17.5 10t20 5t27 1.5h194zM379 531h491l-132 593q-6 26 -13 59t-12 71q-14 -38 -28.5 -71.5t-27.5 -59.5zM1180 0h-144q-25 0 -39 12.5t-19 32.5l-78 350h-584l-164 -350 q-9 -18 -27.5 -31.5t-41.5 -13.5h-146l703 1433h189z"/>
<glyph glyph-name="Acircumflex" horiz-adv-x="1237" unicode="Â" d="M1046 1546h-131q-11 0 -23.5 3t-20.5 10l-114 107l-142 -107q-9 -7 -22.5 -10t-25.5 -3h-130l246 209h169zM379 531h491l-132 593q-6 26 -13 59t-12 71q-14 -38 -28.5 -71.5t-27.5 -59.5zM1180 0h-144q-25 0 -39 12.5t-19 32.5l-78 350h-584l-164 -350 q-9 -18 -27.5 -31.5t-41.5 -13.5h-146l703 1433h189z"/>
<glyph glyph-name="Atilde" horiz-adv-x="1237" unicode="Ã" d="M874 1660q30 0 50.5 21t25.5 58h94q-5 -42 -20 -77.5t-38 -62t-54 -41t-68 -14.5q-32 0 -60 13.5t-53 29.5t-48 29.5t-44 13.5q-30 0 -49.5 -22.5t-24.5 -59.5h-97q5 42 20.5 78t38.5 62.5t54 41t68 14.5q33 0 61 -13t53 -29t47.5 -29t43.5 -13zM379 531h491l-132 593 q-6 26 -13 59t-12 71q-14 -38 -28.5 -71.5t-27.5 -59.5zM1180 0h-144q-25 0 -39 12.5t-19 32.5l-78 350h-584l-164 -350q-9 -18 -27.5 -31.5t-41.5 -13.5h-146l703 1433h189z"/>
<glyph glyph-name="Adieresis" horiz-adv-x="1237" unicode="Ä" d="M1015 1665q0 -20 -8 -38t-22 -31.5t-32 -21t-39 -7.5t-39 7.5t-32 21t-22 31.5t-8 38q0 21 8 39.5t22 33t32 22.5t39 8t39 -8t32 -22.5t22 -33t8 -39.5zM671 1665q0 -20 -8.5 -38t-22.5 -31.5t-32.5 -21t-39.5 -7.5q-20 0 -37.5 7.5t-31.5 21t-22 31.5t-8 38q0 21 8 39.5 t22 33t31.5 22.5t37.5 8q21 0 39.5 -8t32.5 -22.5t22.5 -33t8.5 -39.5zM379 531h491l-132 593q-6 26 -13 59t-12 71q-14 -38 -28.5 -71.5t-27.5 -59.5zM1180 0h-144q-25 0 -39 12.5t-19 32.5l-78 350h-584l-164 -350q-9 -18 -27.5 -31.5t-41.5 -13.5h-146l703 1433h189z"/>
<glyph glyph-name="Aring" horiz-adv-x="1237" unicode="Å" d="M644 1659q0 -43 27 -71.5t74 -28.5q45 0 72.5 28.5t27.5 71.5q0 45 -27.5 73t-72.5 28q-47 0 -74 -28t-27 -73zM555 1659q0 39 15 72t41 56.5t60 36.5t72 13q39 0 73.5 -13t60.5 -36.5t41.5 -56.5t15.5 -72q0 -38 -15.5 -70t-41.5 -55t-60.5 -36t-73.5 -13q-38 0 -72 13 t-60 36t-41 55t-15 70zM379 531h491l-132 593q-6 26 -13 59t-12 71q-14 -38 -28.5 -71.5t-27.5 -59.5zM1180 0h-144q-25 0 -39 12.5t-19 32.5l-78 350h-584l-164 -350q-9 -18 -27.5 -31.5t-41.5 -13.5h-146l703 1433h189z"/>
<glyph glyph-name="AE" horiz-adv-x="1705" unicode="Æ" d="M415 531h425v749q-14 -36 -29 -68t-32 -61zM772 1433h954l-18 -153h-692v-484h512l-19 -147h-493v-497h554l-20 -152h-710v395h-505l-205 -350q-11 -18 -30 -31.5t-43 -13.5h-145z"/>
<glyph glyph-name="Ccedilla" horiz-adv-x="1234" unicode="Ç" d="M507 -249q6 0 13 -4t17 -8.5t23 -8.5t33 -4q40 0 61.5 20t21.5 50q0 35 -35.5 49.5t-101.5 23.5l48 118q-114 11 -204.5 61t-153.5 131t-96 190t-33 237q0 187 58 342t159.5 266.5t238.5 173t295 61.5q76 0 138 -13t113 -38t92.5 -60t77.5 -78l-64 -78q-8 -10 -18 -16.5 t-25 -6.5q-18 0 -38 20t-54.5 43.5t-89 43.5t-141.5 20q-116 0 -217 -46.5t-175 -133t-116.5 -209.5t-42.5 -276q0 -111 29 -199t80.5 -149.5t122.5 -94.5t156 -33q66 0 117 11t90 27t66.5 35.5t48 35.5t34.5 27t25 11q9 0 15 -3.5t10 -8.5l65 -81q-87 -94 -198.5 -149.5 t-257.5 -63.5l-22 -58q74 -17 107.5 -48.5t33.5 -77.5q0 -36 -16.5 -64.5t-46 -48t-70 -30t-88.5 -10.5q-38 0 -71 8.5t-60 23.5l23 53q8 17 23 17z"/>
<glyph glyph-name="Egrave" horiz-adv-x="1067" unicode="È" d="M571 1781q31 0 45 -6.5t30 -25.5l167 -203h-144q-20 0 -31 6.5t-26 18.5l-235 210h194zM1070 1280h-627l-60 -483h508l-19 -147h-507l-61 -498h629l-19 -152h-817l177 1433h815z"/>
<glyph glyph-name="Eacute" horiz-adv-x="1067" unicode="É" d="M1066 1781l-288 -210q-17 -12 -29.5 -18.5t-32.5 -6.5h-145l218 203q10 9 18.5 15.5t17.5 10t20 5t27 1.5h194zM1070 1280h-627l-60 -483h508l-19 -147h-507l-61 -498h629l-19 -152h-817l177 1433h815z"/>
<glyph glyph-name="Ecircumflex" horiz-adv-x="1067" unicode="Ê" d="M1003 1546h-131q-11 0 -23.5 3t-20.5 10l-114 107l-142 -107q-9 -7 -22.5 -10t-25.5 -3h-130l246 209h169zM1070 1280h-627l-60 -483h508l-19 -147h-507l-61 -498h629l-19 -152h-817l177 1433h815z"/>
<glyph glyph-name="Edieresis" horiz-adv-x="1067" unicode="Ë" d="M972 1665q0 -20 -8 -38t-22 -31.5t-32 -21t-39 -7.5t-39 7.5t-32 21t-22 31.5t-8 38q0 21 8 39.5t22 33t32 22.5t39 8t39 -8t32 -22.5t22 -33t8 -39.5zM628 1665q0 -20 -8.5 -38t-22.5 -31.5t-32.5 -21t-39.5 -7.5q-20 0 -37.5 7.5t-31.5 21t-22 31.5t-8 38q0 21 8 39.5 t22 33t31.5 22.5t37.5 8q21 0 39.5 -8t32.5 -22.5t22.5 -33t8.5 -39.5zM1070 1280h-627l-60 -483h508l-19 -147h-507l-61 -498h629l-19 -152h-817l177 1433h815z"/>
<glyph glyph-name="Igrave" horiz-adv-x="566" unicode="Ì" d="M280 1781q31 0 45 -6.5t30 -25.5l167 -203h-144q-20 0 -31 6.5t-26 18.5l-235 210h194zM317 0h-188l175 1433h188z"/>
<glyph glyph-name="Iacute" horiz-adv-x="566" unicode="Í" d="M775 1781l-288 -210q-17 -12 -29.5 -18.5t-32.5 -6.5h-145l218 203q10 9 18.5 15.5t17.5 10t20 5t27 1.5h194zM317 0h-188l175 1433h188z"/>
<glyph glyph-name="Icircumflex" horiz-adv-x="566" unicode="Î" d="M712 1546h-131q-11 0 -23.5 3t-20.5 10l-114 107l-142 -107q-9 -7 -22.5 -10t-25.5 -3h-130l246 209h169zM317 0h-188l175 1433h188z"/>
<glyph glyph-name="Idieresis" horiz-adv-x="566" unicode="Ï" d="M681 1665q0 -20 -8 -38t-22 -31.5t-32 -21t-39 -7.5t-39 7.5t-32 21t-22 31.5t-8 38q0 21 8 39.5t22 33t32 22.5t39 8t39 -8t32 -22.5t22 -33t8 -39.5zM337 1665q0 -20 -8.5 -38t-22.5 -31.5t-32.5 -21t-39.5 -7.5q-20 0 -37.5 7.5t-31.5 21t-22 31.5t-8 38q0 21 8 39.5 t22 33t31.5 22.5t37.5 8q21 0 39.5 -8t32.5 -22.5t22.5 -33t8.5 -39.5zM317 0h-188l175 1433h188z"/>
<glyph glyph-name="Eth" horiz-adv-x="1452" unicode="Ð" d="M1216 813q0 108 -27.5 195t-78.5 147.5t-125 93t-167 32.5h-307l-62 -504h348l-13 -110h-348l-63 -516h306q120 0 218.5 45.5t169.5 131t110 208t39 277.5zM83 777h179l80 656h494q132 0 238 -45t180.5 -126.5t114 -195t39.5 -249.5q0 -183 -56 -333.5t-156 -258 t-236.5 -166.5t-298.5 -59h-494l81 667h-179z"/>
<glyph glyph-name="Ntilde" horiz-adv-x="1391" unicode="Ñ" d="M949 1660q30 0 50.5 21t25.5 58h94q-5 -42 -20 -77.5t-38 -62t-54 -41t-68 -14.5q-32 0 -60 13.5t-53 29.5t-48 29.5t-44 13.5q-30 0 -49.5 -22.5t-24.5 -59.5h-97q5 42 20.5 78t38.5 62.5t54 41t68 14.5q33 0 61 -13t53 -29t47.5 -29t43.5 -13zM370 1433q25 0 36.5 -6 t23.5 -26l618 -1095q2 23 4 43.5t4 39.5l128 1044h165l-176 -1433h-94q-23 0 -38 7.5t-26 27.5l-617 1096q0 -5 -0.5 -14t-1.5 -19t-2 -20.5t-2 -17.5l-130 -1060h-165l177 1433h96z"/>
<glyph glyph-name="Ograve" horiz-adv-x="1465" unicode="Ò" d="M725 1781q31 0 45 -6.5t30 -25.5l167 -203h-144q-20 0 -31 6.5t-26 18.5l-235 210h194zM1230 814q0 109 -28 197.5t-79.5 150.5t-126 96t-167.5 34q-118 0 -217 -47.5t-170 -135.5t-111 -212.5t-40 -278.5q0 -109 28 -197t79.5 -150t125.5 -95.5t167 -33.5q120 0 219 47 t170 134.5t110.5 212t39.5 278.5zM1422 818q0 -122 -26 -231t-73.5 -201.5t-115 -166.5t-151 -126t-181 -80t-204.5 -28q-132 0 -237.5 47t-180 130.5t-114 198.5t-39.5 252q0 183 57 336.5t157.5 264.5t238 173t298.5 62q132 0 237.5 -47.5t180 -131.5t114 -199.5 t39.5 -252.5z"/>
<glyph glyph-name="Oacute" horiz-adv-x="1465" unicode="Ó" d="M1220 1781l-288 -210q-17 -12 -29.5 -18.5t-32.5 -6.5h-145l218 203q10 9 18.5 15.5t17.5 10t20 5t27 1.5h194zM1230 814q0 109 -28 197.5t-79.5 150.5t-126 96t-167.5 34q-118 0 -217 -47.5t-170 -135.5t-111 -212.5t-40 -278.5q0 -109 28 -197t79.5 -150t125.5 -95.5 t167 -33.5q120 0 219 47t170 134.5t110.5 212t39.5 278.5zM1422 818q0 -122 -26 -231t-73.5 -201.5t-115 -166.5t-151 -126t-181 -80t-204.5 -28q-132 0 -237.5 47t-180 130.5t-114 198.5t-39.5 252q0 183 57 336.5t157.5 264.5t238 173t298.5 62q132 0 237.5 -47.5 t180 -131.5t114 -199.5t39.5 -252.5z"/>
<glyph glyph-name="Ocircumflex" horiz-adv-x="1465" unicode="Ô" d="M1157 1546h-131q-11 0 -23.5 3t-20.5 10l-114 107l-142 -107q-9 -7 -22.5 -10t-25.5 -3h-130l246 209h169zM1230 814q0 109 -28 197.5t-79.5 150.5t-126 96t-167.5 34q-118 0 -217 -47.5t-170 -135.5t-111 -212.5t-40 -278.5q0 -109 28 -197t79.5 -150t125.5 -95.5 t167 -33.5q120 0 219 47t170 134.5t110.5 212t39.5 278.5zM1422 818q0 -122 -26 -231t-73.5 -201.5t-115 -166.5t-151 -126t-181 -80t-204.5 -28q-132 0 -237.5 47t-180 130.5t-114 198.5t-39.5 252q0 183 57 336.5t157.5 264.5t238 173t298.5 62q132 0 237.5 -47.5 t180 -131.5t114 -199.5t39.5 -252.5z"/>
<glyph glyph-name="Otilde" horiz-adv-x="1465" unicode="Õ" d="M985 1660q30 0 50.5 21t25.5 58h94q-5 -42 -20 -77.5t-38 -62t-54 -41t-68 -14.5q-32 0 -60 13.5t-53 29.5t-48 29.5t-44 13.5q-30 0 -49.5 -22.5t-24.5 -59.5h-97q5 42 20.5 78t38.5 62.5t54 41t68 14.5q33 0 61 -13t53 -29t47.5 -29t43.5 -13zM1230 814 q0 109 -28 197.5t-79.5 150.5t-126 96t-167.5 34q-118 0 -217 -47.5t-170 -135.5t-111 -212.5t-40 -278.5q0 -109 28 -197t79.5 -150t125.5 -95.5t167 -33.5q120 0 219 47t170 134.5t110.5 212t39.5 278.5zM1422 818q0 -122 -26 -231t-73.5 -201.5t-115 -166.5t-151 -126 t-181 -80t-204.5 -28q-132 0 -237.5 47t-180 130.5t-114 198.5t-39.5 252q0 183 57 336.5t157.5 264.5t238 173t298.5 62q132 0 237.5 -47.5t180 -131.5t114 -199.5t39.5 -252.5z"/>
<glyph glyph-name="Odieresis" horiz-adv-x="1465" unicode="Ö" d="M1126 1665q0 -20 -8 -38t-22 -31.5t-32 -21t-39 -7.5t-39 7.5t-32 21t-22 31.5t-8 38q0 21 8 39.5t22 33t32 22.5t39 8t39 -8t32 -22.5t22 -33t8 -39.5zM782 1665q0 -20 -8.5 -38t-22.5 -31.5t-32.5 -21t-39.5 -7.5q-20 0 -37.5 7.5t-31.5 21t-22 31.5t-8 38q0 21 8 39.5 t22 33t31.5 22.5t37.5 8q21 0 39.5 -8t32.5 -22.5t22.5 -33t8.5 -39.5zM1230 814q0 109 -28 197.5t-79.5 150.5t-126 96t-167.5 34q-118 0 -217 -47.5t-170 -135.5t-111 -212.5t-40 -278.5q0 -109 28 -197t79.5 -150t125.5 -95.5t167 -33.5q120 0 219 47t170 134.5 t110.5 212t39.5 278.5zM1422 818q0 -122 -26 -231t-73.5 -201.5t-115 -166.5t-151 -126t-181 -80t-204.5 -28q-132 0 -237.5 47t-180 130.5t-114 198.5t-39.5 252q0 183 57 336.5t157.5 264.5t238 173t298.5 62q132 0 237.5 -47.5t180 -131.5t114 -199.5t39.5 -252.5z"/>
<glyph glyph-name="multiply" d="M1081 1016l-388 -345l312 -355l-102 -93l-313 356l-402 -358l-80 93l401 357l-304 347l103 93l304 -348l388 346z" unicode="×"/>
<glyph glyph-name="Oslash" horiz-adv-x="1464" unicode="Ø" d="M1230 814q0 88 -18 161.5t-52 132.5l-708 -889q48 -38 107.5 -57.5t131.5 -19.5q120 0 219 47t170 134.5t110.5 212t39.5 278.5zM291 618q0 -97 21.5 -176.5t62.5 -139.5l713 895q-50 46 -115 70.5t-144 24.5q-118 0 -217 -47.5t-170 -135.5t-111 -212.5t-40 -278.5z M1422 818q0 -122 -26 -231t-73.5 -201.5t-115 -166.5t-151 -126t-181 -80t-204.5 -28q-97 0 -179 25t-149 72l-109 -137q-24 -30 -54.5 -42t-57.5 -12h-74l211 265q-77 84 -118 200.5t-41 256.5q0 183 57 336.5t157.5 264.5t238 173t298.5 62q104 0 191.5 -29.5t156.5 -83.5 l89 112q11 14 20 23.5t18.5 15t21 8t27.5 2.5h96l-192 -240q69 -84 106 -195.5t37 -243.5z"/>
<glyph glyph-name="Ugrave" horiz-adv-x="1343" unicode="Ù" d="M669 1781q31 0 45 -6.5t30 -25.5l167 -203h-144q-20 0 -31 6.5t-26 18.5l-235 210h194zM630 147q80 0 147.5 31t118 85.5t83 130.5t43.5 166l107 873h187l-106 -873q-15 -123 -64.5 -228.5t-127.5 -183t-181.5 -121.5t-226.5 -44q-111 0 -197 36t-145.5 100.5 t-90.5 153.5t-31 195q0 45 6 92l106 873h187l-107 -872q-2 -20 -3.5 -39t-1.5 -37q0 -75 19.5 -137t57 -107t93 -69.5t127.5 -24.5z"/>
<glyph glyph-name="Uacute" horiz-adv-x="1343" unicode="Ú" d="M1164 1781l-288 -210q-17 -12 -29.5 -18.5t-32.5 -6.5h-145l218 203q10 9 18.5 15.5t17.5 10t20 5t27 1.5h194zM630 147q80 0 147.5 31t118 85.5t83 130.5t43.5 166l107 873h187l-106 -873q-15 -123 -64.5 -228.5t-127.5 -183t-181.5 -121.5t-226.5 -44q-111 0 -197 36 t-145.5 100.5t-90.5 153.5t-31 195q0 45 6 92l106 873h187l-107 -872q-2 -20 -3.5 -39t-1.5 -37q0 -75 19.5 -137t57 -107t93 -69.5t127.5 -24.5z"/>
<glyph glyph-name="Ucircumflex" horiz-adv-x="1343" unicode="Û" d="M1101 1546h-131q-11 0 -23.5 3t-20.5 10l-114 107l-142 -107q-9 -7 -22.5 -10t-25.5 -3h-130l246 209h169zM630 147q80 0 147.5 31t118 85.5t83 130.5t43.5 166l107 873h187l-106 -873q-15 -123 -64.5 -228.5t-127.5 -183t-181.5 -121.5t-226.5 -44q-111 0 -197 36 t-145.5 100.5t-90.5 153.5t-31 195q0 45 6 92l106 873h187l-107 -872q-2 -20 -3.5 -39t-1.5 -37q0 -75 19.5 -137t57 -107t93 -69.5t127.5 -24.5z"/>
<glyph glyph-name="Udieresis" horiz-adv-x="1343" unicode="Ü" d="M1070 1665q0 -20 -8 -38t-22 -31.5t-32 -21t-39 -7.5t-39 7.5t-32 21t-22 31.5t-8 38q0 21 8 39.5t22 33t32 22.5t39 8t39 -8t32 -22.5t22 -33t8 -39.5zM726 1665q0 -20 -8.5 -38t-22.5 -31.5t-32.5 -21t-39.5 -7.5q-20 0 -37.5 7.5t-31.5 21t-22 31.5t-8 38q0 21 8 39.5 t22 33t31.5 22.5t37.5 8q21 0 39.5 -8t32.5 -22.5t22.5 -33t8.5 -39.5zM630 147q80 0 147.5 31t118 85.5t83 130.5t43.5 166l107 873h187l-106 -873q-15 -123 -64.5 -228.5t-127.5 -183t-181.5 -121.5t-226.5 -44q-111 0 -197 36t-145.5 100.5t-90.5 153.5t-31 195 q0 45 6 92l106 873h187l-107 -872q-2 -20 -3.5 -39t-1.5 -37q0 -75 19.5 -137t57 -107t93 -69.5t127.5 -24.5z"/>
<glyph glyph-name="Yacute" horiz-adv-x="1165" unicode="Ý" d="M1090 1780l-288 -210q-17 -12 -29.5 -18.5t-32.5 -6.5h-145l218 203q10 9 18.5 15.5t17.5 10t20 5t27 1.5h194zM686 573l-71 -573h-187l71 571l-378 862h166q25 0 38 -12.5t21 -31.5l238 -574q10 -29 17 -55t12 -52q12 26 26.5 52t31.5 55l381 574q11 16 27.5 30t40.5 14 h155z"/>
<glyph glyph-name="Thorn" horiz-adv-x="1128" unicode="Þ" d="M485 1018l-74 -597h209q85 0 150 26t109 72.5t67 111t23 140.5q0 116 -68 181.5t-208 65.5h-208zM503 1165h209q114 0 197.5 -27t138.5 -76.5t82 -119t27 -154.5q0 -113 -37 -207.5t-108 -163t-174 -106.5t-236 -38h-209l-33 -273h-186l175 1433h187z"/>
<glyph glyph-name="germandbls" horiz-adv-x="1097" unicode="ß" d="M728 1453q89 0 152 -27t103.5 -68.5t59.5 -92t19 -97.5q0 -68 -23.5 -116t-58.5 -84t-75.5 -63t-75.5 -52.5t-58.5 -53.5t-23.5 -66q0 -35 21.5 -58.5t53.5 -44t69.5 -42t69.5 -52t53.5 -74.5t21.5 -109q0 -86 -31 -154.5t-83.5 -116t-122.5 -73t-149 -25.5 q-89 0 -158 34.5t-118 88.5l48 66q9 12 20.5 19t28.5 7t34 -14.5t39.5 -31.5t54.5 -31.5t80 -14.5q42 0 77.5 15.5t61 42.5t40 63.5t14.5 78.5q0 48 -23 79.5t-57 54.5t-74.5 43t-74.5 46t-57 62t-23 92q0 62 24.5 106t61.5 78.5t80.5 63.5t80.5 61t61.5 72t24.5 96 q0 28 -10.5 57.5t-33 53.5t-59 39t-88.5 15q-62 0 -116.5 -33.5t-97 -91.5t-71.5 -134.5t-39 -161.5l-108 -872l-46 -207q-17 -75 -92 -75h-70l136 1111l-110 14q-40 5 -40 38l8 77h163q23 92 70 175.5t113 147.5t148 101.5t175 37.5z"/>
<glyph glyph-name="agrave" horiz-adv-x="1010" unicode="à" d="M601 1447q31 0 45 -10t24 -32l107 -242h-99q-20 0 -32 6t-23 21l-185 257h163zM380 134q49 0 96 30.5t89 84.5t78.5 128.5t64.5 163.5l43 348q-22 5 -43.5 6.5t-42.5 1.5q-60 0 -116 -19.5t-105 -54.5t-89 -83.5t-68.5 -106.5t-44.5 -123.5t-16 -134.5q0 -241 154 -241z M816 0h-92q-35 0 -47.5 18t-12.5 44l18 205q-36 -64 -77.5 -116t-88 -88.5t-97.5 -56.5t-106 -20q-60 0 -109 23.5t-83.5 69t-53.5 112t-19 152.5q0 90 22.5 175.5t64 161.5t99.5 139.5t129.5 110t153.5 72t172 25.5q65 0 126.5 -10.5t121.5 -36.5z"/>
<glyph glyph-name="aacute" horiz-adv-x="1010" unicode="á" d="M975 1447l-248 -257q-14 -15 -28.5 -21t-34.5 -6h-102l166 242q14 22 31 32t48 10h168zM380 134q49 0 96 30.5t89 84.5t78.5 128.5t64.5 163.5l43 348q-22 5 -43.5 6.5t-42.5 1.5q-60 0 -116 -19.5t-105 -54.5t-89 -83.5t-68.5 -106.5t-44.5 -123.5t-16 -134.5 q0 -241 154 -241zM816 0h-92q-35 0 -47.5 18t-12.5 44l18 205q-36 -64 -77.5 -116t-88 -88.5t-97.5 -56.5t-106 -20q-60 0 -109 23.5t-83.5 69t-53.5 112t-19 152.5q0 90 22.5 175.5t64 161.5t99.5 139.5t129.5 110t153.5 72t172 25.5q65 0 126.5 -10.5t121.5 -36.5z"/>
<glyph glyph-name="acircumflex" horiz-adv-x="1010" unicode="â" d="M943 1169h-114q-11 0 -21 4t-15 10l-100 128l-7 6q-3 4 -6 9q-5 -5 -9 -8.5t-8 -6.5l-133 -128q-6 -5 -17 -9.5t-23 -4.5h-119l239 262h160zM380 134q49 0 96 30.5t89 84.5t78.5 128.5t64.5 163.5l43 348q-22 5 -43.5 6.5t-42.5 1.5q-60 0 -116 -19.5t-105 -54.5 t-89 -83.5t-68.5 -106.5t-44.5 -123.5t-16 -134.5q0 -241 154 -241zM816 0h-92q-35 0 -47.5 18t-12.5 44l18 205q-36 -64 -77.5 -116t-88 -88.5t-97.5 -56.5t-106 -20q-60 0 -109 23.5t-83.5 69t-53.5 112t-19 152.5q0 90 22.5 175.5t64 161.5t99.5 139.5t129.5 110 t153.5 72t172 25.5q65 0 126.5 -10.5t121.5 -36.5z"/>
<glyph glyph-name="atilde" horiz-adv-x="1010" unicode="ã" d="M778 1321q65 0 79 88h105q-6 -47 -22.5 -85.5t-41.5 -66t-58 -43t-70 -15.5q-32 0 -58.5 14.5t-49 32t-43 32t-41.5 14.5q-32 0 -52 -22.5t-26 -66.5h-106q6 46 23 85t42.5 67t58 43.5t69.5 15.5q33 0 59 -14.5t48.5 -32t42.5 -32t41 -14.5zM380 134q49 0 96 30.5 t89 84.5t78.5 128.5t64.5 163.5l43 348q-22 5 -43.5 6.5t-42.5 1.5q-60 0 -116 -19.5t-105 -54.5t-89 -83.5t-68.5 -106.5t-44.5 -123.5t-16 -134.5q0 -241 154 -241zM816 0h-92q-35 0 -47.5 18t-12.5 44l18 205q-36 -64 -77.5 -116t-88 -88.5t-97.5 -56.5t-106 -20 q-60 0 -109 23.5t-83.5 69t-53.5 112t-19 152.5q0 90 22.5 175.5t64 161.5t99.5 139.5t129.5 110t153.5 72t172 25.5q65 0 126.5 -10.5t121.5 -36.5z"/>
<glyph glyph-name="adieresis" horiz-adv-x="1010" unicode="ä" d="M968 1311q0 -23 -9 -43t-24.5 -35t-36 -24t-43.5 -9t-43.5 9t-35.5 24t-24 35t-9 43t9 44t24 36.5t35.5 24.5t43.5 9t43.5 -9t36 -24.5t24.5 -36.5t9 -44zM609 1311q0 -23 -9 -43t-25 -35t-36.5 -24t-43.5 -9t-43 9t-35 24t-24 35t-9 43t9 44t24 36.5t35 24.5t43 9 t43.5 -9t36.5 -24.5t25 -36.5t9 -44zM380 134q49 0 96 30.5t89 84.5t78.5 128.5t64.5 163.5l43 348q-22 5 -43.5 6.5t-42.5 1.5q-60 0 -116 -19.5t-105 -54.5t-89 -83.5t-68.5 -106.5t-44.5 -123.5t-16 -134.5q0 -241 154 -241zM816 0h-92q-35 0 -47.5 18t-12.5 44l18 205 q-36 -64 -77.5 -116t-88 -88.5t-97.5 -56.5t-106 -20q-60 0 -109 23.5t-83.5 69t-53.5 112t-19 152.5q0 90 22.5 175.5t64 161.5t99.5 139.5t129.5 110t153.5 72t172 25.5q65 0 126.5 -10.5t121.5 -36.5z"/>
<glyph glyph-name="aring" horiz-adv-x="1010" unicode="å" d="M595 1315q0 -44 27 -72t74 -28q45 0 72.5 28t27.5 72q0 45 -27.5 73t-72.5 28q-47 0 -74 -28t-27 -73zM495 1315q0 42 16 76t43.5 59t63.5 38.5t76 13.5q41 0 77.5 -13.5t64.5 -38.5t44 -59t16 -76q0 -41 -16 -75t-44 -58t-64.5 -37.5t-77.5 -13.5q-40 0 -76 13.5 t-63.5 37.5t-43.5 58t-16 75zM380 134q49 0 96 30.5t89 84.5t78.5 128.5t64.5 163.5l43 348q-22 5 -43.5 6.5t-42.5 1.5q-60 0 -116 -19.5t-105 -54.5t-89 -83.5t-68.5 -106.5t-44.5 -123.5t-16 -134.5q0 -241 154 -241zM816 0h-92q-35 0 -47.5 18t-12.5 44l18 205 q-36 -64 -77.5 -116t-88 -88.5t-97.5 -56.5t-106 -20q-60 0 -109 23.5t-83.5 69t-53.5 112t-19 152.5q0 90 22.5 175.5t64 161.5t99.5 139.5t129.5 110t153.5 72t172 25.5q65 0 126.5 -10.5t121.5 -36.5z"/>
<glyph glyph-name="ae" horiz-adv-x="1446" unicode="æ" d="M1095 900q-60 0 -109 -22.5t-85.5 -64.5t-61.5 -101t-37 -131q130 7 214.5 25t134 43.5t69.5 57.5t20 68q0 57 -37.5 91t-107.5 34zM631 479q-120 -5 -203 -23.5t-134.5 -48.5t-74 -70.5t-22.5 -90.5q0 -72 39 -106.5t104 -34.5q52 0 98.5 18.5t84 55.5t63.5 92.5 t35 129.5zM1117 1027q60 0 111 -18.5t88.5 -51.5t58.5 -77.5t21 -95.5q0 -57 -27.5 -111t-96 -96.5t-185.5 -70t-295 -30.5q-1 -10 -1 -20v-20q0 -155 61 -232.5t169 -77.5q49 0 86.5 10t67 24.5t52 32t41.5 32t34.5 24.5t31.5 10q20 0 34 -17l44 -55q-51 -52 -99.5 -90 t-99.5 -62.5t-106.5 -36.5t-119.5 -12q-105 0 -184.5 57t-118.5 171q-32 -62 -76.5 -105.5t-94.5 -71.5t-103 -40.5t-102 -12.5q-133 0 -205 59.5t-72 179.5q0 71 32 135t104 113.5t189 80.5t288 36q4 31 6.5 51t3.5 33.5t1.5 22t0.5 15.5q0 179 -154 179 q-60 0 -102.5 -16.5t-74 -37t-55.5 -37t-46 -16.5q-18 0 -30 9t-18 23l-23 55q87 81 175.5 121t192.5 40q108 0 169 -48t83 -133q60 84 146.5 131t197.5 47z"/>
<glyph glyph-name="ccedilla" horiz-adv-x="866" unicode="ç" d="M280 -249q6 0 13 -4t17 -8.5t23 -8.5t33 -4q40 0 61.5 20t21.5 50q0 35 -35.5 49.5t-101.5 23.5l50 121q-74 10 -130.5 43.5t-94.5 87t-57.5 124.5t-19.5 155q0 123 38.5 236t107.5 200t164 139t209 52q100 0 168 -35.5t119 -103.5l-56 -67q-6 -8 -15 -13t-20 -5 q-14 0 -27.5 12.5t-35 28t-54 28t-83.5 12.5q-69 0 -130.5 -37.5t-107.5 -102.5t-72.5 -154t-26.5 -191q0 -62 14 -112.5t42 -86t68.5 -55t94.5 -19.5q45 0 80 9.5t62 23.5t47.5 30.5t37 30.5t30 23.5t27.5 9.5q20 0 34 -17l44 -54q-47 -51 -89 -87t-84 -58.5t-85.5 -34 t-92.5 -14.5l-23 -60q74 -17 107.5 -48.5t33.5 -77.5q0 -36 -16.5 -64.5t-46 -48t-70 -30t-88.5 -10.5q-38 0 -71 8.5t-60 23.5l23 53q8 17 23 17z"/>
<glyph glyph-name="egrave" horiz-adv-x="922" unicode="è" d="M492 1447q31 0 45 -10t24 -32l107 -242h-99q-20 0 -32 6t-23 21l-185 257h163zM575 899q-63 0 -116 -26t-94 -71.5t-70 -107t-45 -132.5q154 19 247 43.5t143 53t66 61.5t16 69q0 18 -8 37.5t-25.5 35.5t-45.5 26.5t-68 10.5zM881 796q0 -66 -27 -121.5t-99 -100 t-198 -77.5t-324 -53q-1 -11 -1 -22v-21q0 -134 58.5 -204.5t176.5 -70.5q48 0 85.5 10t67 24.5t52 32t41.5 32t35 24.5t32 10q18 0 33 -17l44 -55q-51 -53 -99.5 -90.5t-99.5 -62.5t-106.5 -36.5t-119.5 -11.5q-87 0 -156 29t-117 82.5t-74 129.5t-26 170q0 78 16.5 155.5 t48 147.5t77 130t104 103.5t129 68.5t151.5 25q77 0 133 -22t92 -56t53.5 -75t17.5 -78z"/>
<glyph glyph-name="eacute" horiz-adv-x="922" unicode="é" d="M897 1447l-248 -257q-14 -15 -28.5 -21t-34.5 -6h-102l166 242q14 22 31 32t48 10h168zM575 899q-63 0 -116 -26t-94 -71.5t-70 -107t-45 -132.5q154 19 247 43.5t143 53t66 61.5t16 69q0 18 -8 37.5t-25.5 35.5t-45.5 26.5t-68 10.5zM881 796q0 -66 -27 -121.5t-99 -100 t-198 -77.5t-324 -53q-1 -11 -1 -22v-21q0 -134 58.5 -204.5t176.5 -70.5q48 0 85.5 10t67 24.5t52 32t41.5 32t35 24.5t32 10q18 0 33 -17l44 -55q-51 -53 -99.5 -90.5t-99.5 -62.5t-106.5 -36.5t-119.5 -11.5q-87 0 -156 29t-117 82.5t-74 129.5t-26 170q0 78 16.5 155.5 t48 147.5t77 130t104 103.5t129 68.5t151.5 25q77 0 133 -22t92 -56t53.5 -75t17.5 -78z"/>
<glyph glyph-name="ecircumflex" horiz-adv-x="922" unicode="ê" d="M874 1169h-114q-11 0 -21 4t-15 10l-100 128l-7 6q-3 4 -6 9q-5 -5 -9 -8.5t-8 -6.5l-133 -128q-6 -5 -17 -9.5t-23 -4.5h-119l239 262h160zM575 899q-63 0 -116 -26t-94 -71.5t-70 -107t-45 -132.5q154 19 247 43.5t143 53t66 61.5t16 69q0 18 -8 37.5t-25.5 35.5 t-45.5 26.5t-68 10.5zM881 796q0 -66 -27 -121.5t-99 -100t-198 -77.5t-324 -53q-1 -11 -1 -22v-21q0 -134 58.5 -204.5t176.5 -70.5q48 0 85.5 10t67 24.5t52 32t41.5 32t35 24.5t32 10q18 0 33 -17l44 -55q-51 -53 -99.5 -90.5t-99.5 -62.5t-106.5 -36.5t-119.5 -11.5 q-87 0 -156 29t-117 82.5t-74 129.5t-26 170q0 78 16.5 155.5t48 147.5t77 130t104 103.5t129 68.5t151.5 25q77 0 133 -22t92 -56t53.5 -75t17.5 -78z"/>
<glyph glyph-name="edieresis" horiz-adv-x="922" unicode="ë" d="M540 1311q0 -23 -9 -43t-25 -35t-36.5 -24t-43.5 -9t-43 9t-35 24t-24 35t-9 43t9 44t24 36.5t35 24.5t43 9t43.5 -9t36.5 -24.5t25 -36.5t9 -44zM899 1311q0 -23 -9 -43t-24.5 -35t-36 -24t-43.5 -9t-43.5 9t-35.5 24t-24 35t-9 43t9 44t24 36.5t35.5 24.5t43.5 9 t43.5 -9t36 -24.5t24.5 -36.5t9 -44zM575 899q-63 0 -116 -26t-94 -71.5t-70 -107t-45 -132.5q154 19 247 43.5t143 53t66 61.5t16 69q0 18 -8 37.5t-25.5 35.5t-45.5 26.5t-68 10.5zM881 796q0 -66 -27 -121.5t-99 -100t-198 -77.5t-324 -53q-1 -11 -1 -22v-21 q0 -134 58.5 -204.5t176.5 -70.5q48 0 85.5 10t67 24.5t52 32t41.5 32t35 24.5t32 10q18 0 33 -17l44 -55q-51 -53 -99.5 -90.5t-99.5 -62.5t-106.5 -36.5t-119.5 -11.5q-87 0 -156 29t-117 82.5t-74 129.5t-26 170q0 78 16.5 155.5t48 147.5t77 130t104 103.5t129 68.5 t151.5 25q77 0 133 -22t92 -56t53.5 -75t17.5 -78z"/>
<glyph glyph-name="igrave" horiz-adv-x="487" unicode="ì" d="M224 1447q31 0 45 -10t24 -32l107 -242h-99q-20 0 -32 6t-23 21l-185 257h163zM392 1013l-122 -1013h-175l122 1013h175z"/>
<glyph glyph-name="iacute" horiz-adv-x="487" unicode="í" d="M629 1447l-248 -257q-14 -15 -28.5 -21t-34.5 -6h-102l166 242q14 22 31 32t48 10h168zM392 1013l-122 -1013h-175l122 1013h175z"/>
<glyph glyph-name="icircumflex" horiz-adv-x="487" unicode="î" d="M606 1169h-114q-11 0 -21 4t-15 10l-100 128l-7 6q-3 4 -6 9q-5 -5 -9 -8.5t-8 -6.5l-133 -128q-6 -5 -17 -9.5t-23 -4.5h-119l239 262h160zM392 1013l-122 -1013h-175l122 1013h175z"/>
<glyph glyph-name="idieresis" horiz-adv-x="487" unicode="ï" d="M631 1311q0 -23 -9 -43t-24.5 -35t-36 -24t-43.5 -9t-43.5 9t-35.5 24t-24 35t-9 43t9 44t24 36.5t35.5 24.5t43.5 9t43.5 -9t36 -24.5t24.5 -36.5t9 -44zM272 1311q0 -23 -9 -43t-25 -35t-36.5 -24t-43.5 -9t-43 9t-35 24t-24 35t-9 43t9 44t24 36.5t35 24.5t43 9 t43.5 -9t36.5 -24.5t25 -36.5t9 -44zM392 1013l-122 -1013h-175l122 1013h175z"/>
<glyph glyph-name="eth" horiz-adv-x="1020" unicode="ð" d="M457 121q65 0 120.5 25.5t99.5 79.5t75 138.5t47 202.5q-9 44 -28 84.5t-49 72t-72.5 50.5t-99.5 19q-75 0 -134.5 -30t-100.5 -82.5t-62.5 -123t-21.5 -151.5q0 -67 17 -120t47.5 -89.5t72 -56t89.5 -19.5zM457 1065q-3 5 -4 9.5t-1 9.5q0 19 15 28l129 94 q-41 24 -89 42.5t-103 35.5q-37 11 -37 41q0 13 8 32l25 55q88 -16 169.5 -48t151.5 -83l174 124l29 -57q6 -9 6 -21q0 -16 -19 -30l-113 -83q81 -84 128 -204.5t47 -285.5t-35 -300.5t-103 -232.5t-168 -150.5t-230 -53.5q-82 0 -151 28.5t-119.5 82t-78.5 129t-28 170.5 q0 108 34.5 204.5t97 168.5t149.5 114.5t192 42.5q97 0 175 -45.5t126 -137.5q-2 136 -40 234.5t-114 167.5l-190 -138z"/>
<glyph glyph-name="ntilde" horiz-adv-x="1052" unicode="ñ" d="M745 1323q65 0 79 88h105q-6 -47 -22.5 -85.5t-41.5 -66t-58 -43t-70 -15.5q-32 0 -58.5 14.5t-49 32t-43 32t-41.5 14.5q-32 0 -52 -22.5t-26 -66.5h-106q6 46 23 85t42.5 67t58 43.5t69.5 15.5q33 0 59 -14.5t48.5 -32t42.5 -32t41 -14.5zM71 0l121 1014h89 q60 0 60 -60l-15 -196q81 134 182.5 202t210.5 68q113 0 175.5 -76t62.5 -222q0 -20 -1 -41t-4 -44l-76 -645h-178l76 645q2 20 3.5 38.5t1.5 35.5q0 82 -30.5 121.5t-95.5 39.5q-48 0 -97.5 -26t-95.5 -73.5t-85.5 -115t-67.5 -150.5l-58 -515h-178z"/>
<glyph glyph-name="ograve" horiz-adv-x="1005" unicode="ò" d="M485 1449q31 0 45 -10t24 -32l107 -242h-99q-20 0 -32 6t-23 21l-185 257h163zM432 -14q-83 0 -152 28.5t-119 82.5t-78 132t-28 178q0 128 40 241t109.5 198t164 134t204.5 49q83 0 152 -28.5t119 -82.5t78 -132.5t28 -177.5q0 -127 -40 -240t-109.5 -198t-164.5 -134.5 t-204 -49.5zM448 125q73 0 133 40t102 106.5t65 153.5t23 182q0 140 -55 211t-159 71q-74 0 -133.5 -39.5t-101.5 -106t-65 -153.5t-23 -182q0 -140 54.5 -211.5t159.5 -71.5z"/>
<glyph glyph-name="oacute" horiz-adv-x="1005" unicode="ó" d="M889 1449l-248 -257q-14 -15 -28.5 -21t-34.5 -6h-102l166 242q14 22 31 32t48 10h168zM432 -14q-83 0 -152 28.5t-119 82.5t-78 132t-28 178q0 128 40 241t109.5 198t164 134t204.5 49q83 0 152 -28.5t119 -82.5t78 -132.5t28 -177.5q0 -127 -40 -240t-109.5 -198 t-164.5 -134.5t-204 -49.5zM448 125q73 0 133 40t102 106.5t65 153.5t23 182q0 140 -55 211t-159 71q-74 0 -133.5 -39.5t-101.5 -106t-65 -153.5t-23 -182q0 -140 54.5 -211.5t159.5 -71.5z"/>
<glyph glyph-name="ocircumflex" horiz-adv-x="1005" unicode="ô" d="M866 1171h-114q-11 0 -21 4t-15 10l-100 128l-7 6q-3 4 -6 9q-5 -5 -9 -8.5t-8 -6.5l-133 -128q-6 -5 -17 -9.5t-23 -4.5h-119l239 262h160zM448 125q73 0 133 40t102 106.5t65 153.5t23 182q0 140 -55 211t-159 71q-74 0 -133.5 -39.5t-101.5 -106t-65 -153.5t-23 -182 q0 -140 54.5 -211.5t159.5 -71.5zM432 -14q-83 0 -152 28.5t-119 82.5t-78 132t-28 178q0 128 40 241t109.5 198t164 134t204.5 49q83 0 152 -28.5t119 -82.5t78 -132.5t28 -177.5q0 -127 -40 -240t-109.5 -198t-164.5 -134.5t-204 -49.5z"/>
<glyph glyph-name="otilde" horiz-adv-x="1005" unicode="õ" d="M701 1323q65 0 79 88h105q-6 -47 -22.5 -85.5t-41.5 -66t-58 -43t-70 -15.5q-32 0 -58.5 14.5t-49 32t-43 32t-41.5 14.5q-32 0 -52 -22.5t-26 -66.5h-106q6 46 23 85t42.5 67t58 43.5t69.5 15.5q33 0 59 -14.5t48.5 -32t42.5 -32t41 -14.5zM432 -14q-83 0 -152 28.5 t-119 82.5t-78 132t-28 178q0 128 40 241t109.5 198t164 134t204.5 49q83 0 152 -28.5t119 -82.5t78 -132.5t28 -177.5q0 -127 -40 -240t-109.5 -198t-164.5 -134.5t-204 -49.5zM448 125q73 0 133 40t102 106.5t65 153.5t23 182q0 140 -55 211t-159 71q-74 0 -133.5 -39.5 t-101.5 -106t-65 -153.5t-23 -182q0 -140 54.5 -211.5t159.5 -71.5z"/>
<glyph glyph-name="odieresis" horiz-adv-x="1005" unicode="ö" d="M891 1313q0 -23 -9 -43t-24.5 -35t-36 -24t-43.5 -9t-43.5 9t-35.5 24t-24 35t-9 43t9 44t24 36.5t35.5 24.5t43.5 9t43.5 -9t36 -24.5t24.5 -36.5t9 -44zM532 1313q0 -23 -9 -43t-25 -35t-36.5 -24t-43.5 -9t-43 9t-35 24t-24 35t-9 43t9 44t24 36.5t35 24.5t43 9 t43.5 -9t36.5 -24.5t25 -36.5t9 -44zM432 -14q-83 0 -152 28.5t-119 82.5t-78 132t-28 178q0 128 40 241t109.5 198t164 134t204.5 49q83 0 152 -28.5t119 -82.5t78 -132.5t28 -177.5q0 -127 -40 -240t-109.5 -198t-164.5 -134.5t-204 -49.5zM448 125q73 0 133 40t102 106.5 t65 153.5t23 182q0 140 -55 211t-159 71q-74 0 -133.5 -39.5t-101.5 -106t-65 -153.5t-23 -182q0 -140 54.5 -211.5t159.5 -71.5z"/>
<glyph glyph-name="divide" d="M434 300q0 28 11 53t30 44t44 30t53 11q24 0 43.5 -9t34 -24t22.5 -35t8 -43q0 -29 -11.5 -53.5t-30.5 -42.5t-44 -28.5t-52 -10.5q-48 0 -78 31t-30 77zM522 1012q0 28 11 53t30 44t44 30t53 11q24 0 43.5 -9t34 -24t22.5 -35t8 -43q0 -29 -11.5 -53.5t-30.5 -42.5 t-44 -28.5t-52 -10.5q-49 0 -78.5 31t-29.5 77zM131 736h958l-16 -130h-958z" unicode="÷"/>
<glyph glyph-name="oslash" horiz-adv-x="1005" unicode="ø" d="M448 114q73 0 134.5 38.5t106 105t69 156.5t24.5 193q0 44 -6.5 81.5t-18.5 69.5l-442 -600q55 -44 133 -44zM223 408q0 -89 26 -155l442 602q-56 45 -134 45q-74 0 -135 -38t-105.5 -104.5t-69 -156.5t-24.5 -193zM432 -14q-124 0 -214 61l-36 -49q-22 -30 -51 -42.5 t-58 -12.5h-67l132 181q-40 53 -61.5 124t-21.5 159q0 128 40 241t109.5 198t164 134t204.5 49q125 0 216 -64l34 46q19 28 35 39t48 11h90l-128 -173q39 -53 60.5 -123t21.5 -157q0 -127 -40 -240t-109.5 -198t-164.5 -134.5t-204 -49.5z"/>
<glyph glyph-name="ugrave" horiz-adv-x="1050" unicode="ù" d="M492 1449q31 0 45 -10t24 -32l107 -242h-99q-20 0 -32 6t-23 21l-185 257h163zM354 1013l-76 -644q-2 -20 -3.5 -38t-1.5 -35q0 -82 30.5 -122t96.5 -40q46 0 94.5 25t94 71t84.5 111t68 145l63 527h177l-122 -1013h-88q-31 0 -48 14t-17 43q0 1 1 18t2.5 37t3 37t1.5 18 l7 81q-81 -129 -181 -195.5t-206 -66.5q-113 0 -175.5 77t-62.5 221q0 20 1 41t4 44l76 644h177z"/>
<glyph glyph-name="uacute" horiz-adv-x="1050" unicode="ú" d="M897 1449l-248 -257q-14 -15 -28.5 -21t-34.5 -6h-102l166 242q14 22 31 32t48 10h168zM354 1013l-76 -644q-2 -20 -3.5 -38t-1.5 -35q0 -82 30.5 -122t96.5 -40q46 0 94.5 25t94 71t84.5 111t68 145l63 527h177l-122 -1013h-88q-31 0 -48 14t-17 43q0 1 1 18t2.5 37 t3 37t1.5 18l7 81q-81 -129 -181 -195.5t-206 -66.5q-113 0 -175.5 77t-62.5 221q0 20 1 41t4 44l76 644h177z"/>
<glyph glyph-name="ucircumflex" horiz-adv-x="1050" unicode="û" d="M874 1171h-114q-11 0 -21 4t-15 10l-100 128l-7 6q-3 4 -6 9q-5 -5 -9 -8.5t-8 -6.5l-133 -128q-6 -5 -17 -9.5t-23 -4.5h-119l239 262h160zM354 1013l-76 -644q-2 -20 -3.5 -38t-1.5 -35q0 -82 30.5 -122t96.5 -40q46 0 94.5 25t94 71t84.5 111t68 145l63 527h177 l-122 -1013h-88q-31 0 -48 14t-17 43q0 1 1 18t2.5 37t3 37t1.5 18l7 81q-81 -129 -181 -195.5t-206 -66.5q-113 0 -175.5 77t-62.5 221q0 20 1 41t4 44l76 644h177z"/>
<glyph glyph-name="udieresis" horiz-adv-x="1050" unicode="ü" d="M899 1313q0 -23 -9 -43t-24.5 -35t-36 -24t-43.5 -9t-43.5 9t-35.5 24t-24 35t-9 43t9 44t24 36.5t35.5 24.5t43.5 9t43.5 -9t36 -24.5t24.5 -36.5t9 -44zM540 1313q0 -23 -9 -43t-25 -35t-36.5 -24t-43.5 -9t-43 9t-35 24t-24 35t-9 43t9 44t24 36.5t35 24.5t43 9 t43.5 -9t36.5 -24.5t25 -36.5t9 -44zM354 1013l-76 -644q-2 -20 -3.5 -38t-1.5 -35q0 -82 30.5 -122t96.5 -40q46 0 94.5 25t94 71t84.5 111t68 145l63 527h177l-122 -1013h-88q-31 0 -48 14t-17 43q0 1 1 18t2.5 37t3 37t1.5 18l7 81q-81 -129 -181 -195.5t-206 -66.5 q-113 0 -175.5 77t-62.5 221q0 20 1 41t4 44l76 644h177z"/>
<glyph glyph-name="yacute" horiz-adv-x="952" unicode="ý" d="M863 1449l-248 -257q-14 -15 -28.5 -21t-34.5 -6h-102l166 242q14 22 31 32t48 10h168zM316 -302q-21 -41 -62 -41h-130l219 403l-262 953h147q21 0 31.5 -10.5t14.5 -26.5l163 -638q5 -21 8 -42t5 -42q9 21 17.5 42.5t19.5 42.5l320 639q8 16 22.5 25.5t29.5 9.5h141z "/>
<glyph glyph-name="thorn" horiz-adv-x="1045" unicode="þ" d="M658 885q-48 0 -97 -30t-95 -83t-85.5 -126t-68.5 -160l-33 -264q38 -54 91.5 -76t108.5 -22q52 0 98 22t84 59.5t68 88t50.5 108t31.5 119t11 121.5q0 119 -43 181t-121 62zM37 -343l221 1816h176l-89 -716q38 61 82 111.5t92 85.5t100 54.5t106 19.5q129 0 201 -94 t72 -275q0 -82 -17 -164t-48.5 -156.5t-76 -139t-99 -112t-118.5 -74.5t-134 -27q-75 0 -136.5 29.5t-104.5 83.5l-46 -378q-3 -26 -22.5 -45t-49.5 -19h-109z"/>
<glyph glyph-name="ydieresis" horiz-adv-x="952" unicode="ÿ" d="M865 1313q0 -23 -9 -43t-24.5 -35t-36 -24t-43.5 -9t-43.5 9t-35.5 24t-24 35t-9 43t9 44t24 36.5t35.5 24.5t43.5 9t43.5 -9t36 -24.5t24.5 -36.5t9 -44zM506 1313q0 -23 -9 -43t-25 -35t-36.5 -24t-43.5 -9t-43 9t-35 24t-24 35t-9 43t9 44t24 36.5t35 24.5t43 9 t43.5 -9t36.5 -24.5t25 -36.5t9 -44zM316 -302q-21 -41 -62 -41h-130l219 403l-262 953h147q21 0 31.5 -10.5t14.5 -26.5l163 -638q5 -21 8 -42t5 -42q9 21 17.5 42.5t19.5 42.5l320 639q8 16 22.5 25.5t29.5 9.5h141z"/>
<glyph glyph-name="Aogonek" horiz-adv-x="1237" unicode="Ą" d="M379 531h491l-132 593q-6 26 -13 59t-12 71q-14 -38 -28.5 -71.5t-27.5 -59.5zM1188 -214q13 0 16 -12l18 -64q-30 -23 -74.5 -37.5t-92.5 -14.5q-76 0 -117 35t-41 93q0 63 43 118t109 96h-13q-25 0 -39 12.5t-19 32.5l-78 350h-584l-164 -350q-9 -18 -27.5 -31.5 t-41.5 -13.5h-146l703 1433h189l351 -1433h-22q-21 -12 -43.5 -28.5t-41.5 -37.5t-31 -46.5t-12 -54.5q0 -32 20 -51.5t52 -19.5q21 0 35.5 3.5t24.5 8t15.5 8.5t10.5 4z"/>
<glyph glyph-name="aogonek" horiz-adv-x="1012" unicode="ą" d="M380 134q49 0 96 30.5t89 84.5t78.5 128.5t64.5 163.5l43 348q-22 5 -43.5 6.5t-42.5 1.5q-60 0 -116 -19.5t-105 -54.5t-89 -83.5t-68.5 -106.5t-44.5 -123.5t-16 -134.5q0 -241 154 -241zM830 -214q13 0 16 -12l18 -64q-30 -23 -74.5 -37.5t-92.5 -14.5q-76 0 -117 35 t-41 93q0 32 12 62.5t33 58.5t50 52.5t63 44.5q-19 7 -26 22.5t-7 35.5l18 205q-36 -64 -77.5 -116t-88 -88.5t-97.5 -56.5t-106 -20q-60 0 -109 23.5t-83.5 69t-53.5 112t-19 152.5q0 90 22.5 175.5t64 161.5t99.5 139.5t129.5 110t153.5 72t172 25.5q65 0 126.5 -10.5 t121.5 -36.5l-121 -980h-16q-21 -12 -43.5 -28.5t-41.5 -37.5t-31 -46.5t-12 -54.5q0 -32 20 -51.5t52 -19.5q21 0 35.5 3.5t24.5 8t15.5 8.5t10.5 4z"/>
<glyph glyph-name="Cacute" horiz-adv-x="1258" unicode="Ć" d="M1218 1781l-288 -210q-17 -12 -29.5 -18.5t-32.5 -6.5h-145l218 203q10 9 18.5 15.5t17.5 10t20 5t27 1.5h194zM679 145q66 0 117 11t90 27t66.5 35.5t48 35.5t34.5 27t25 11q9 0 15 -3.5t10 -8.5l65 -81q-94 -102 -216.5 -158.5t-285.5 -56.5q-128 0 -230 46 t-172.5 128.5t-108 196.5t-37.5 251q0 187 58 342t159.5 266.5t238.5 173t295 61.5q76 0 138 -13t113 -38t92.5 -60t77.5 -78l-64 -78q-8 -10 -18 -16.5t-25 -6.5q-18 0 -38 20t-54.5 43.5t-89 43.5t-141.5 20q-116 0 -217 -46.5t-175 -133t-116.5 -209.5t-42.5 -276 q0 -111 29 -199t80.5 -149.5t122.5 -94.5t156 -33z"/>
<glyph glyph-name="cacute" horiz-adv-x="866" unicode="ć" d="M879 1449l-248 -257q-14 -15 -28.5 -21t-34.5 -6h-102l166 242q14 22 31 32t48 10h168zM819 182q-52 -57 -98.5 -95t-93.5 -60.5t-97.5 -31.5t-108.5 -9q-88 0 -155.5 30t-113 84.5t-69 131t-23.5 168.5q0 123 38.5 236t107.5 200t164 139t209 52q100 0 168 -35.5 t119 -103.5l-56 -67q-6 -8 -15 -13t-20 -5q-14 0 -27.5 12.5t-35 28t-54 28t-83.5 12.5q-69 0 -130.5 -37.5t-107.5 -102.5t-72.5 -154t-26.5 -191q0 -62 14 -112.5t42 -86t68.5 -55t94.5 -19.5q45 0 80 9.5t62 23.5t47.5 30.5t37 30.5t30 23.5t27.5 9.5q20 0 34 -17z"/>
<glyph glyph-name="Eogonek" horiz-adv-x="1067" unicode="Ę" d="M839 -214q13 0 16 -12l18 -64q-30 -23 -74.5 -37.5t-92.5 -14.5q-76 0 -117 35t-41 93q0 63 43 118t109 96h-603l177 1433h815l-19 -153h-627l-60 -483h508l-19 -147h-507l-61 -498h629l-19 -152h-105q-21 -12 -43.5 -28.5t-41.5 -37.5t-31 -46.5t-12 -54.5 q0 -32 20 -51.5t52 -19.5q21 0 35.5 3.5t24.5 8t15.5 8.5t10.5 4z"/>
<glyph glyph-name="eogonek" horiz-adv-x="922" unicode="ę" d="M575 899q-63 0 -116 -26t-94 -71.5t-70 -107t-45 -132.5q154 19 247 43.5t143 53t66 61.5t16 69q0 18 -8 37.5t-25.5 35.5t-45.5 26.5t-68 10.5zM585 -214q13 0 16 -12l18 -64q-30 -23 -74.5 -37.5t-92.5 -14.5q-76 0 -117 35t-41 93t36.5 109t93.5 91q-85 1 -152.5 31 t-115 83t-72.5 128.5t-25 168.5q0 78 16.5 155.5t48 147.5t77 130t104 103.5t129 68.5t151.5 25q77 0 133 -22t92 -56t53.5 -75t17.5 -78q0 -66 -27 -121.5t-99 -100t-198 -77.5t-324 -53q-1 -11 -1 -22v-21q0 -134 58.5 -204.5t176.5 -70.5q48 0 85.5 10t67 24.5t52 32 t41.5 32t35 24.5t32 10q18 0 33 -17l44 -55q-77 -80 -150 -126.5t-157 -63.5q-21 -12 -42.5 -28.5t-39.5 -37t-29.5 -45.5t-11.5 -53q0 -32 20 -51.5t52 -19.5q21 0 35.5 3.5t24.5 8t15.5 8.5t10.5 4z"/>
<glyph glyph-name="Gbreve" horiz-adv-x="1349" unicode="Ğ" d="M792 1528q-115 0 -175.5 47t-60.5 141q0 19 3 40h111q-1 -6 -1.5 -12t-0.5 -11q0 -99 137 -99q78 0 117.5 31t45.5 91h112q-7 -52 -29 -94t-58.5 -72t-87 -46t-113.5 -16zM704 135q52 0 97 5.5t84.5 16.5t76 26.5t72.5 35.5l39 324h-199q-17 0 -26.5 9t-9.5 23v5 q1 5 1.5 11t0.5 11l1 5l9 79h410l-67 -547q-54 -39 -111.5 -68t-121.5 -48.5t-135 -29t-153 -9.5q-130 0 -235.5 46.5t-180.5 130t-115.5 199.5t-40.5 254q0 185 57.5 338.5t159 264t241 171.5t304.5 61q83 0 151 -14t123 -39t99.5 -59t81.5 -74l-60 -78q-10 -13 -20.5 -20 t-24.5 -7q-17 0 -33 10q-22 13 -48.5 33.5t-64 39t-90.5 32t-128 13.5q-123 0 -225.5 -47t-176 -134t-114.5 -210t-41 -274q0 -113 29.5 -203t83.5 -153t130 -96.5t170 -33.5z"/>
<glyph glyph-name="gbreve" horiz-adv-x="929" unicode="ğ" d="M540 1164q-62 0 -105 16.5t-70 45.5t-39 67.5t-12 83.5q0 13 1 26.5t3 27.5h121q-3 -21 -3 -40q0 -51 26 -82.5t92 -31.5q39 0 66 11.5t44.5 32t27.5 49t14 61.5h122q-7 -54 -26 -102.5t-53.5 -85t-86 -58t-122.5 -21.5zM630 -25q0 26 -5 48.5t-13 42.5q-54 9 -101.5 13 t-89.5 4q-82 0 -142 -14.5t-99 -38.5t-58 -55.5t-19 -65.5q0 -72 60.5 -110t171.5 -38q66 0 120.5 17.5t93 46.5t60 68t21.5 82zM430 457q54 0 95 23.5t69.5 62t43.5 86.5t15 97q0 88 -44.5 133t-122.5 45q-54 0 -95 -22t-69 -59t-42.5 -84t-14.5 -98q0 -90 43.5 -137 t121.5 -47zM816 732q-1 -50 -12.5 -90t-28.5 -74t-37 -64t-37 -60t-28.5 -61.5t-11.5 -68.5q0 -42 20.5 -76t45 -70t45 -78.5t20.5 -100.5q0 -71 -33 -134.5t-94 -112.5t-148.5 -77.5t-196.5 -28.5q-87 0 -158.5 18t-122 51t-78 79.5t-27.5 102.5q0 79 41 136t108 94 t152.5 54t174.5 17q36 0 71.5 -3t70.5 -8q-9 19 -14.5 39.5t-5.5 44.5q0 31 9.5 64t31.5 74q-38 -26 -85 -40t-107 -14q-58 0 -108.5 19t-88.5 56t-60 92.5t-22 129.5q0 72 26.5 141.5t77.5 124t126 87.5t173 33q110 0 191 -52h275l-8 -59q-2 -17 -11.5 -31t-28.5 -17 l-126 -22q9 -26 14 -54.5t5 -60.5z"/>
<glyph glyph-name="Idotaccent" horiz-adv-x="566" unicode="İ" d="M551 1688q0 -24 -10 -46t-27 -38.5t-39.5 -26.5t-47.5 -10q-24 0 -46 10t-38.5 26.5t-26 38.5t-9.5 46q0 25 9.5 47t26 39t38.5 27t46 10q25 0 47.5 -10t39.5 -27t27 -39t10 -47zM317 0h-188l175 1433h188z"/>
<glyph glyph-name="dotlessi" horiz-adv-x="487" unicode="ı" d="M392 1013l-122 -1013h-175l122 1013h175z"/>
<glyph glyph-name="Lslash" horiz-adv-x="1001" unicode="Ł" d="M437 806l365 191l-15 -125q-4 -28 -30 -42l-339 -181l-61 -491h567l-19 -158h-754l69 557l-192 -96l16 128q3 26 28 39l167 87l89 718h187z"/>
<glyph glyph-name="lslash" horiz-adv-x="601" unicode="ł" d="M76 726q0 29 25 40l153 68l78 639h175l-70 -571l173 74v-102q0 -33 -27 -44l-163 -73l-92 -757h-175l84 690l-161 -69v105z"/>
<glyph glyph-name="Nacute" horiz-adv-x="1391" unicode="Ń" d="M1184 1781l-288 -210q-17 -12 -29.5 -18.5t-32.5 -6.5h-145l218 203q10 9 18.5 15.5t17.5 10t20 5t27 1.5h194zM370 1433q25 0 36.5 -6t23.5 -26l618 -1095q2 23 4 43.5t4 39.5l128 1044h165l-176 -1433h-94q-23 0 -38 7.5t-26 27.5l-617 1096q0 -5 -0.5 -14t-1.5 -19 t-2 -20.5t-2 -17.5l-130 -1060h-165l177 1433h96z"/>
<glyph glyph-name="nacute" horiz-adv-x="1052" unicode="ń" d="M933 1449l-248 -257q-14 -15 -28.5 -21t-34.5 -6h-102l166 242q14 22 31 32t48 10h168zM71 0l121 1014h89q60 0 60 -60l-15 -196q81 134 182.5 202t210.5 68q113 0 175.5 -76t62.5 -222q0 -20 -1 -41t-4 -44l-76 -645h-178l76 645q2 20 3.5 38.5t1.5 35.5 q0 82 -30.5 121.5t-95.5 39.5q-48 0 -97.5 -26t-95.5 -73.5t-85.5 -115t-67.5 -150.5l-58 -515h-178z"/>
<glyph glyph-name="OE" horiz-adv-x="2011" unicode="Œ" d="M1137 824q0 106 -23.5 193.5t-68.5 149.5t-110 96t-148 34q-109 0 -200 -49.5t-157 -140t-102.5 -217.5t-36.5 -282q0 -107 24 -193.5t69.5 -148.5t111 -95.5t148.5 -33.5q109 0 199.5 49t156 139t101.5 216.5t36 282.5zM2033 1433l-18 -153h-626l-59 -484h503l-17 -147 h-504l-61 -497h625l-19 -152h-792l28 226q-90 -114 -213.5 -177t-273.5 -63q-117 0 -211 46t-159.5 127.5t-100.5 195t-35 248.5q0 185 52 340t144 267.5t217.5 175.5t271.5 63q75 0 139.5 -19t118 -54.5t95 -86t71.5 -113.5l32 257h792z"/>
<glyph glyph-name="oe" horiz-adv-x="1544" unicode="œ" d="M1200 901q-59 0 -110 -23t-91 -67.5t-68 -108t-40 -144.5q145 18 236.5 43.5t143.5 54.5t71 61.5t19 65.5q0 24 -9.5 45t-29 37.5t-50 26t-72.5 9.5zM413 121q81 0 143.5 39t105 109t64 165t21.5 208q0 115 -46.5 182.5t-143.5 67.5q-78 0 -140 -38t-106 -107.5 t-67.5 -167.5t-23.5 -219q0 -47 10 -90t33 -76t60 -53t90 -20zM1228 1027q65 0 117 -17t89 -48.5t56.5 -75.5t19.5 -97q0 -41 -11.5 -79t-39.5 -71.5t-74 -63t-116 -53.5t-165 -43t-221 -32v-11q0 -155 60.5 -232.5t169.5 -77.5q48 0 85.5 10t67 24.5t52 32t41.5 32 t34.5 24.5t31.5 10q19 0 34 -17l44 -55q-50 -52 -98.5 -90t-99.5 -62.5t-107 -36.5t-120 -12q-105 0 -184.5 58t-118.5 173q-69 -110 -172 -170.5t-232 -60.5q-81 0 -142 29.5t-101.5 80t-61 116.5t-20.5 138q0 164 42.5 290.5t115 212.5t168 130t202.5 44t178.5 -50.5 t106.5 -141.5q63 90 156 141t213 51z"/>
<glyph glyph-name="Sacute" horiz-adv-x="977" unicode="Ś" d="M1028 1781l-288 -210q-17 -12 -29.5 -18.5t-32.5 -6.5h-145l218 203q10 9 18.5 15.5t17.5 10t20 5t27 1.5h194zM926 1211q-11 -14 -21 -21.5t-24 -7.5q-17 0 -36 17.5t-48.5 38t-71.5 38t-105 17.5q-64 0 -114 -20t-84.5 -54.5t-52.5 -80.5t-18 -99q0 -52 24 -87.5 t63 -61t89.5 -45t102.5 -40t102.5 -45.5t89.5 -62t63 -89t24 -126q0 -102 -35 -192.5t-100.5 -158.5t-158.5 -108t-209 -40q-128 0 -228.5 50.5t-165.5 136.5l66 89q8 11 20 18t26 7q19 0 41 -22.5t56 -50t84 -50t125 -22.5q69 0 124.5 22t94 61t59.5 93.5t21 120.5 q0 55 -24 91.5t-63 61.5t-88.5 43.5t-102 37.5t-102 43t-88.5 61t-63 91t-24 133q0 88 32 169t92 143t146 99t194 37q110 0 198 -42t145 -115z"/>
<glyph glyph-name="sacute" horiz-adv-x="778" unicode="ś" d="M803 1449l-248 -257q-14 -15 -28.5 -21t-34.5 -6h-102l166 242q14 22 31 32t48 10h168zM723 851q-8 -12 -16 -17.5t-20 -5.5q-14 0 -30.5 11t-40 24.5t-57.5 25t-82 11.5q-45 0 -82 -12.5t-64 -34.5t-41.5 -51.5t-14.5 -62.5q0 -47 31 -75t78 -48.5t101.5 -39.5 t101.5 -48t78 -74t31 -117q0 -70 -27.5 -134t-79 -112.5t-124 -77.5t-162.5 -29q-97 0 -171.5 34.5t-121.5 88.5l44 68q8 13 19 20t28 7q16 0 32 -14t40 -31.5t60.5 -31.5t92.5 -14q49 0 88.5 15t67 40t42 58.5t14.5 71.5q0 51 -31 81t-78 50t-101 37.5t-101 45t-78 71.5 t-31 117q0 64 25.5 123.5t73.5 105.5t116.5 73.5t154.5 27.5q91 0 160.5 -30.5t119.5 -82.5z"/>
<glyph glyph-name="Scedilla" horiz-adv-x="977" unicode="Ş" d="M259 -249q6 0 13 -4t17 -8.5t23 -8.5t33 -4q40 0 61.5 20t21.5 50q0 35 -35.5 49.5t-101.5 23.5l48 119q-88 10 -162 46q-100 51 -165 137l66 89q8 11 20 18t26 7q19 0 41 -22.5t56 -50t84 -50t125 -22.5q69 0 124.5 22t94 61t59.5 93.5t21 120.5q0 55 -24 91.5t-63 61.5 t-88.5 43.5t-102 37.5t-102 43t-88.5 61t-63 91t-24 133q0 88 32 169t92 143t146 99t194 37q110 0 198 -42t145 -115l-55 -79q-11 -14 -21 -21.5t-24 -7.5q-17 0 -36 17.5t-48.5 38t-71.5 38t-105 17.5q-64 0 -114 -20t-84.5 -54.5t-52.5 -80.5t-18 -99q0 -52 24 -87.5 t63 -61t89.5 -45t102.5 -40t102.5 -45.5t89.5 -62t63 -89t24 -126q0 -102 -35 -192.5t-100.5 -158.5t-158.5 -108q-77 -33 -169 -39l-22 -57q74 -17 107.5 -48.5t33.5 -77.5q0 -36 -16.5 -64.5t-46 -48t-70 -30t-88.5 -10.5q-38 0 -71 8.5t-60 23.5l23 53q8 17 23 17z"/>
<glyph glyph-name="scedilla" horiz-adv-x="778" unicode="ş" d="M179 -249q6 0 13 -4t17 -8.5t23 -8.5t33 -4q40 0 61.5 20t21.5 50q0 35 -35.5 49.5t-101.5 23.5l48 117q-71 6 -128 32q-74 35 -121 89l44 68q8 13 19 20t28 7q16 0 32 -14t40 -31.5t60.5 -31.5t92.5 -14q49 0 88.5 15t67 40t42 58.5t14.5 71.5q0 51 -31 81t-78 50 t-101 37.5t-101 45t-78 71.5t-31 117q0 64 25.5 123.5t73.5 105.5t116.5 73.5t154.5 27.5q91 0 160.5 -30.5t119.5 -82.5l-45 -64q-8 -12 -16 -17.5t-20 -5.5q-14 0 -30.5 11t-40 24.5t-57.5 25t-82 11.5q-45 0 -82 -12.5t-64 -34.5t-41.5 -51.5t-14.5 -62.5q0 -47 31 -75 t78 -48.5t101.5 -39.5t101.5 -48t78 -74t31 -117q0 -70 -27.5 -134t-79 -112.5t-124.5 -77.5q-45 -18 -98 -25l-23 -60q74 -17 107.5 -48.5t33.5 -77.5q0 -36 -16.5 -64.5t-46 -48t-70 -30t-88.5 -10.5q-38 0 -71 8.5t-60 23.5l23 53q8 17 23 17z"/>
<glyph glyph-name="Scaron" horiz-adv-x="977" unicode="Š" d="M990 1755l-246 -209h-169l-194 209h131q11 0 23.5 -3t20.5 -10l114 -107l142 107q9 7 22.5 10t25.5 3h130zM926 1211q-11 -14 -21 -21.5t-24 -7.5q-17 0 -36 17.5t-48.5 38t-71.5 38t-105 17.5q-64 0 -114 -20t-84.5 -54.5t-52.5 -80.5t-18 -99q0 -52 24 -87.5t63 -61 t89.5 -45t102.5 -40t102.5 -45.5t89.5 -62t63 -89t24 -126q0 -102 -35 -192.5t-100.5 -158.5t-158.5 -108t-209 -40q-128 0 -228.5 50.5t-165.5 136.5l66 89q8 11 20 18t26 7q19 0 41 -22.5t56 -50t84 -50t125 -22.5q69 0 124.5 22t94 61t59.5 93.5t21 120.5q0 55 -24 91.5 t-63 61.5t-88.5 43.5t-102 37.5t-102 43t-88.5 61t-63 91t-24 133q0 88 32 169t92 143t146 99t194 37q110 0 198 -42t145 -115z"/>
<glyph glyph-name="scaron" horiz-adv-x="778" unicode="š" d="M239 1433h120q11 0 20.5 -4t14.5 -10l100 -129l13 -19l19 19l131 129q7 6 18 10t22 4h115l-239 -262h-159zM723 851q-8 -12 -16 -17.5t-20 -5.5q-14 0 -30.5 11t-40 24.5t-57.5 25t-82 11.5q-45 0 -82 -12.5t-64 -34.5t-41.5 -51.5t-14.5 -62.5q0 -47 31 -75t78 -48.5 t101.5 -39.5t101.5 -48t78 -74t31 -117q0 -70 -27.5 -134t-79 -112.5t-124 -77.5t-162.5 -29q-97 0 -171.5 34.5t-121.5 88.5l44 68q8 13 19 20t28 7q16 0 32 -14t40 -31.5t60.5 -31.5t92.5 -14q49 0 88.5 15t67 40t42 58.5t14.5 71.5q0 51 -31 81t-78 50t-101 37.5t-101 45 t-78 71.5t-31 117q0 64 25.5 123.5t73.5 105.5t116.5 73.5t154.5 27.5q91 0 160.5 -30.5t119.5 -82.5z"/>
<glyph glyph-name="Ydieresis" horiz-adv-x="1165" unicode="Ÿ" d="M996 1664q0 -20 -8 -38t-22 -31.5t-32 -21t-39 -7.5t-39 7.5t-32 21t-22 31.5t-8 38q0 21 8 39.5t22 33t32 22.5t39 8t39 -8t32 -22.5t22 -33t8 -39.5zM652 1664q0 -20 -8.5 -38t-22.5 -31.5t-32.5 -21t-39.5 -7.5q-20 0 -37.5 7.5t-31.5 21t-22 31.5t-8 38q0 21 8 39.5 t22 33t31.5 22.5t37.5 8q21 0 39.5 -8t32.5 -22.5t22.5 -33t8.5 -39.5zM686 573l-71 -573h-187l71 571l-378 862h166q25 0 38 -12.5t21 -31.5l238 -574q10 -29 17 -55t12 -52q12 26 26.5 52t31.5 55l381 574q11 16 27.5 30t40.5 14h155z"/>
<glyph glyph-name="Zacute" horiz-adv-x="1148" unicode="Ź" d="M1086 1781l-288 -210q-17 -12 -29.5 -18.5t-32.5 -6.5h-145l218 203q10 9 18.5 15.5t17.5 10t20 5t27 1.5h194zM1195 1433l-8 -60q-2 -14 -8 -25.5t-15 -23.5l-876 -1172h738l-20 -152h-990l8 59q2 14 7.5 25t14.5 23l876 1173h-713l19 153h967z"/>
<glyph glyph-name="zacute" horiz-adv-x="858" unicode="ź" d="M826 1449l-248 -257q-14 -15 -28.5 -21t-34.5 -6h-102l166 242q14 22 31 32t48 10h168zM848 937q-2 -19 -11 -36.5t-20 -31.5l-584 -730h500l-16 -139h-714l9 74q2 13 10.5 30.5t20.5 33.5l587 735h-492l17 140h702z"/>
<glyph glyph-name="Zdotaccent" horiz-adv-x="1148" unicode="Ż" d="M854 1688q0 -24 -10 -46t-27 -38.5t-39.5 -26.5t-47.5 -10q-24 0 -46 10t-38.5 26.5t-26 38.5t-9.5 46q0 25 9.5 47t26 39t38.5 27t46 10q25 0 47.5 -10t39.5 -27t27 -39t10 -47zM1195 1433l-8 -60q-2 -14 -8 -25.5t-15 -23.5l-876 -1172h738l-20 -152h-990l8 59 q2 14 7.5 25t14.5 23l876 1173h-713l19 153h967z"/>
<glyph glyph-name="zdotaccent" horiz-adv-x="858" unicode="ż" d="M678 1340q0 -26 -10.5 -48.5t-28 -39.5t-40.5 -27t-49 -10t-48.5 10t-39.5 27t-27 39.5t-10 48.5t10 49.5t27 41t39.5 27.5t48.5 10t49 -10t40.5 -27.5t28 -41t10.5 -49.5zM848 937q-2 -19 -11 -36.5t-20 -31.5l-584 -730h500l-16 -139h-714l9 74q2 13 10.5 30.5 t20.5 33.5l587 735h-492l17 140h702z"/>
<glyph glyph-name="Zcaron" horiz-adv-x="1148" unicode="Ž" d="M1053 1755l-246 -209h-169l-194 209h131q11 0 23.5 -3t20.5 -10l114 -107l142 107q9 7 22.5 10t25.5 3h130zM1195 1433l-8 -60q-2 -14 -8 -25.5t-15 -23.5l-876 -1172h738l-20 -152h-990l8 59q2 14 7.5 25t14.5 23l876 1173h-713l19 153h967z"/>
<glyph glyph-name="zcaron" horiz-adv-x="858" unicode="ž" d="M262 1433h120q11 0 20.5 -4t14.5 -10l100 -129l13 -19l19 19l131 129q7 6 18 10t22 4h115l-239 -262h-159zM848 937q-2 -19 -11 -36.5t-20 -31.5l-584 -730h500l-16 -139h-714l9 74q2 13 10.5 30.5t20.5 33.5l587 735h-492l17 140h702z"/>
<glyph glyph-name="florin" d="M705 770l-179 -735q-50 -203 -180.5 -295.5t-340.5 -92.5l11 91q7 55 65 55q46 1 88.5 14t78.5 42t64 76t45 116l177 724l-155 15q-18 2 -27 12t-9 25q0 9 1.5 22t3.5 26q2 14 4 30h214l42 170q48 197 176 292.5t345 95.5l-12 -95q-3 -28 -18.5 -39.5t-45.5 -11.5 q-47 0 -89.5 -13t-79 -42.5t-65 -76.5t-46.5 -116l-43 -164h327l-16 -125h-336z" unicode="ƒ"/>
<glyph glyph-name="circumflex" horiz-adv-x="568" unicode="ˆ" d="M653 1169h-114q-11 0 -21 4t-15 10l-100 128l-7 6q-3 4 -6 9q-5 -5 -9 -8.5t-8 -6.5l-133 -128q-6 -5 -17 -9.5t-23 -4.5h-119l239 262h160z"/>
<glyph glyph-name="caron" horiz-adv-x="568" unicode="ˇ" d="M113 1431h120q11 0 20.5 -4t14.5 -10l100 -129l13 -19l19 19l131 129q7 6 18 10t22 4h115l-239 -262h-159z"/>
<glyph glyph-name="uni02C9" horiz-adv-x="568" unicode="ˉ" d="M126 1345h530l-14 -113h-530z"/>
<glyph glyph-name="breve" horiz-adv-x="568" unicode="˘" d="M370 1164q-62 0 -105 16.5t-70 45.5t-39 67.5t-12 83.5q0 13 1 26.5t3 27.5h121q-3 -21 -3 -40q0 -51 26 -82.5t92 -31.5q39 0 66 11.5t44.5 32t27.5 49t14 61.5h122q-7 -54 -26 -102.5t-53.5 -85t-86 -58t-122.5 -21.5z"/>
<glyph glyph-name="dotaccent" horiz-adv-x="568" unicode="˙" d="M528 1338q0 -26 -10.5 -48.5t-28 -39.5t-40.5 -27t-49 -10t-48.5 10t-39.5 27t-27 39.5t-10 48.5t10 49.5t27 41t39.5 27.5t48.5 10t49 -10t40.5 -27.5t28 -41t10.5 -49.5z"/>
<glyph glyph-name="ring" horiz-adv-x="568" unicode="˚" d="M285 1315q0 -44 27 -72t74 -28q45 0 72.5 28t27.5 72q0 45 -27.5 73t-72.5 28q-47 0 -74 -28t-27 -73zM185 1315q0 42 16 76t43.5 59t63.5 38.5t76 13.5q41 0 77.5 -13.5t64.5 -38.5t44 -59t16 -76q0 -41 -16 -75t-44 -58t-64.5 -37.5t-77.5 -13.5q-40 0 -76 13.5 t-63.5 37.5t-43.5 58t-16 75z"/>
<glyph glyph-name="ogonek" horiz-adv-x="568" unicode="˛" d="M338 -214q13 0 16 -12l18 -64q-30 -23 -74.5 -37.5t-92.5 -14.5q-76 0 -117 35t-41 93q0 34 13.5 66t36.5 61t55 54t69 46l87 -13q-21 -12 -43.5 -28.5t-41.5 -37.5t-31 -46.5t-12 -54.5q0 -32 20 -51.5t52 -19.5q21 0 35.5 3.5t24.5 8t15.5 8.5t10.5 4z"/>
<glyph glyph-name="tilde" horiz-adv-x="568" unicode="˜" d="M488 1321q65 0 79 88h105q-6 -47 -22.5 -85.5t-41.5 -66t-58 -43t-70 -15.5q-32 0 -58.5 14.5t-49 32t-43 32t-41.5 14.5q-32 0 -52 -22.5t-26 -66.5h-106q6 46 23 85t42.5 67t58 43.5t69.5 15.5q33 0 59 -14.5t48.5 -32t42.5 -32t41 -14.5z"/>
<glyph glyph-name="hungarumlaut" horiz-adv-x="568" unicode="˝" d="M809 1447l-256 -257q-14 -15 -28 -21t-34 -6h-83l195 242q17 20 33 31t47 11h126zM516 1447l-214 -257q-14 -16 -28.5 -21.5t-34.5 -5.5h-72l156 242q14 22 31 32t48 10h114z"/>
<glyph glyph-name="pi" horiz-adv-x="1144" unicode="π" d="M1174 1011l-8 -68q-2 -23 -19 -40.5t-43 -17.5h-124l-108 -885h-172l107 885h-357l-79 -643q-15 -119 -79 -186.5t-186 -67.5q-31 0 -61.5 6t-57.5 23l15 72q2 9 5.5 14.5t11.5 7.5t20.5 2.5t32.5 0.5q60 0 89.5 31.5t37.5 98.5l78 641h-172l8 63q1 10 6.5 21t15 20.5 t23 15.5t29.5 6h987z"/>
<glyph glyph-name="endash" horiz-adv-x="1026" unicode="–" d="M165 652h737l-15 -125h-737z"/>
<glyph glyph-name="emdash" horiz-adv-x="1516" unicode="—" d="M165 652h1226l-16 -125h-1225z"/>
<glyph glyph-name="quoteleft" horiz-adv-x="394" unicode="‘" d="M219 1016q-17 37 -24.5 74t-7.5 74q0 100 53 193t147 169l47 -31q12 -9 12 -22q0 -8 -4.5 -15t-15.5 -19q-16 -19 -32.5 -43t-29.5 -52.5t-21.5 -60.5t-8.5 -66q0 -26 5 -53t18 -55q3 -8 3 -14q0 -24 -30 -37z"/>
<glyph glyph-name="quoteright" horiz-adv-x="394" unicode="’" d="M368 1503q17 -37 24.5 -74t7.5 -74q0 -100 -53 -193t-147 -169l-48 31q-11 9 -11 22q0 8 4.5 15t15.5 19q16 19 32.5 43t29.5 52t21.5 60t8.5 67q0 26 -5 53t-18 55q-3 7 -3 14q0 24 30 37z"/>
<glyph glyph-name="quotesinglbase" horiz-adv-x="427" unicode="‚" d="M228 236q17 -37 24.5 -74t7.5 -74q0 -100 -53 -193t-147 -169l-48 31q-11 9 -11 22q0 8 4.5 15t15.5 19q16 19 32.5 43t29.5 52t21.5 60t8.5 67q0 26 -5 53t-18 55q-3 7 -3 14q0 24 30 37z"/>
<glyph glyph-name="quotedblleft" horiz-adv-x="676" unicode="“" d="M503 1016q-17 37 -24.5 74t-7.5 74q0 100 53 193t147 169l47 -31q12 -9 12 -22q0 -8 -4.5 -15t-15.5 -19q-16 -19 -32.5 -43t-29.5 -52.5t-21.5 -60.5t-8.5 -66q0 -26 5 -53t18 -55q3 -8 3 -14q0 -24 -30 -37zM219 1016q-17 37 -24.5 74t-7.5 74q0 100 53 193t147 169 l47 -31q12 -9 12 -22q0 -8 -4.5 -15t-15.5 -19q-16 -19 -32.5 -43t-29.5 -52.5t-21.5 -60.5t-8.5 -66q0 -26 5 -53t18 -55q3 -8 3 -14q0 -24 -30 -37z"/>
<glyph glyph-name="quotedblright" horiz-adv-x="676" unicode="”" d="M660 1503q17 -37 24.5 -74t7.5 -74q0 -100 -53 -193t-147 -169l-48 31q-11 9 -11 22q0 8 4.5 15t15.5 19q16 19 32.5 43t29.5 52t21.5 60t8.5 67q0 26 -5 53t-18 55q-3 7 -3 14q0 24 30 37zM377 1503q17 -37 24.5 -74t7.5 -74q0 -100 -53 -193t-147 -169l-48 31 q-11 9 -11 22q0 8 4.5 15t15.5 19q16 19 32.5 43t29.5 52t21.5 60t8.5 67q0 26 -5 53t-18 55q-3 7 -3 14q0 24 30 37z"/>
<glyph glyph-name="quotedblbase" horiz-adv-x="676" unicode="„" d="M475 236q17 -37 24.5 -74t7.5 -74q0 -100 -53 -193t-147 -169l-48 31q-11 9 -11 22q0 8 4.5 15t15.5 19q16 19 32.5 43t29.5 52t21.5 60t8.5 67q0 26 -5 53t-18 55q-3 7 -3 14q0 24 30 37zM191 236q17 -37 24.5 -74t7.5 -74q0 -100 -53 -193t-147 -169l-48 31 q-11 9 -11 22q0 8 4.5 15t15.5 19q16 19 32.5 43t29.5 52t21.5 60t8.5 67q0 26 -5 53t-18 55q-3 7 -3 14q0 24 30 37z"/>
<glyph glyph-name="dagger" horiz-adv-x="1068" unicode="†" d="M161 940q4 29 26 52.5t64 23.5q63 -1 134.5 -14t142.5 -20l35 468q41 22 92 22t86 -22l-80 -468q36 3 73.5 9t74 11t71.5 9.5t67 4.5q38 0 54.5 -20.5t16.5 -46.5v-3q0 -2 -0.5 -8.5t-2 -19.5t-3.5 -36h-363l-54 -444l-72 -774q-20 -11 -44 -16.5t-49 -5.5 q-26 0 -47.5 5.5t-38.5 16.5l117 774l54 444h-362z"/>
<glyph glyph-name="daggerdbl" horiz-adv-x="1068" unicode="‡" d="M161 940q4 29 26 52.5t64 23.5q63 -1 134.5 -14t142.5 -20l35 468q41 22 92 22t86 -22l-80 -468q36 3 73.5 9t74 11t71.5 9.5t67 4.5q38 0 55 -19.5t17 -45.5q0 -15 -2.5 -35t-4.5 -34h-363l-80 -650h362l-6 -58q-3 -30 -26 -53.5t-65 -23.5q-63 1 -135 13.5t-143 18.5 l-33 -465q-20 -11 -44 -16.5t-49 -5.5q-26 0 -47.5 5.5t-38.5 16.5l79 465q-36 -3 -73.5 -8t-74 -10.5t-72 -9.5t-66.5 -4q-38 0 -54.5 20t-16.5 47v3q0 2 1 9t2 20t4 36h363l80 650h-363z"/>
<glyph glyph-name="bullet" d="M231 595q0 77 29 145t79.5 118.5t117.5 80t143 29.5q77 0 145 -29.5t118.5 -80t80 -118.5t29.5 -145t-29.5 -144.5t-80 -117.5t-118.5 -79.5t-145 -29.5q-76 0 -143 29.5t-117.5 79.5t-79.5 117.5t-29 144.5z" unicode="•"/>
<glyph glyph-name="ellipsis" horiz-adv-x="1454" unicode="…" d="M1074 110q0 26 9.5 49t26 40t39.5 27t49 10t49 -10t40 -27t27 -40t10 -49q0 -27 -10 -49.5t-27 -39.5t-40 -26.5t-49 -9.5t-49 9.5t-39.5 26.5t-26 39.5t-9.5 49.5zM559 110q0 26 9.5 49t26.5 40t39.5 27t49.5 10q26 0 48.5 -10t39.5 -27t27 -40t10 -49q0 -27 -10 -49.5 t-27 -39.5t-39.5 -26.5t-48.5 -9.5q-27 0 -49.5 9.5t-39.5 26.5t-26.5 39.5t-9.5 49.5zM45 110q0 26 9.5 49t26.5 40t39.5 27t49.5 10q26 0 48.5 -10t39.5 -27t27 -40t10 -49q0 -27 -10 -49.5t-27 -39.5t-39.5 -26.5t-48.5 -9.5q-27 0 -49.5 9.5t-39.5 26.5t-26.5 39.5 t-9.5 49.5z"/>
<glyph glyph-name="perthousand" horiz-adv-x="2127" unicode="‰" d="M1913 396q0 50 -10.5 85.5t-28.5 58.5t-42.5 33.5t-52.5 10.5q-40 0 -75 -17t-61.5 -54t-41.5 -94t-15 -138q0 -49 10 -84t27.5 -57.5t42 -33t53.5 -10.5q39 0 74 16.5t62 52.5t42.5 93t15.5 138zM2047 397q0 -99 -29 -176.5t-77 -130t-109.5 -80t-126.5 -27.5 q-56 0 -103 20.5t-80.5 59t-52 93.5t-18.5 125q0 99 27 176.5t73.5 131.5t109 82t132.5 28q56 0 102.5 -20.5t80.5 -59.5t52.5 -95t18.5 -127zM1238 396q0 50 -10.5 85.5t-28.5 58.5t-42.5 33.5t-52.5 10.5q-40 0 -75.5 -17t-62 -54t-42 -94t-15.5 -138q0 -49 10 -84 t28 -57.5t42.5 -33t53.5 -10.5q39 0 74.5 16.5t62.5 52.5t42.5 93t15.5 138zM1372 397q0 -99 -29 -176.5t-77 -130t-110 -80t-127 -27.5q-56 0 -102.5 20.5t-80 59t-52 93.5t-18.5 125q0 99 27 176.5t73.5 131.5t109 82t132.5 28q56 0 102.5 -20.5t80.5 -59.5t52.5 -95 t18.5 -127zM1228 1403q11 11 25.5 19.5t37.5 8.5h124l-1140 -1403q-10 -13 -24.5 -20.5t-34.5 -7.5h-126zM597 1143q0 50 -10.5 86t-28.5 59t-42.5 34t-52.5 11q-40 0 -75.5 -17t-61.5 -54t-41.5 -94.5t-15.5 -138.5q0 -49 10 -83.5t28 -57t42.5 -33t53.5 -10.5 q39 0 74.5 16.5t62 52t42 92t15.5 137.5zM732 1144q0 -99 -29.5 -176t-77.5 -130t-109.5 -80.5t-126.5 -27.5q-56 0 -103 20.5t-80.5 59t-52 94t-18.5 125.5q0 99 27 176.5t73.5 131t109 81.5t132.5 28q56 0 103 -20.5t80.5 -59.5t52.5 -95t19 -127z"/>
<glyph glyph-name="guilsinglleft" horiz-adv-x="598" unicode="‹" d="M133 518l3 22l278 388l52 -27q23 -12 23 -34q0 -20 -15 -39l-175 -263q-16 -25 -32 -36q10 -10 23 -36l111 -263q6 -14 6 -27q0 -32 -32 -47l-59 -27z"/>
<glyph glyph-name="guilsinglright" horiz-adv-x="598" unicode="›" d="M474 540l-2 -22l-277 -389l-53 27q-23 11 -23 35q0 16 13 39l178 263q16 24 30 35q-13 12 -22 37l-112 263q-6 13 -6 26q0 32 33 47l59 27z"/>
<glyph glyph-name="fraction" horiz-adv-x="577" unicode="⁄" d="M-63 53q-21 -32 -44.5 -42.5t-52.5 -10.5h-70l924 1371q20 29 44.5 44.5t57.5 15.5h71z"/>
<glyph glyph-name="Euro" d="M84 897h141q33 127 92.5 229t140 173t179 109t210.5 38q133 0 222 -49.5t148 -136.5l-67 -66q-12 -12 -19 -16t-21 -4q-11 0 -21 9t-23.5 22.5t-32.5 29.5t-46 29.5t-64 22.5t-88 9q-77 0 -145 -26t-123.5 -77t-97.5 -125.5t-68 -170.5h560l-6 -55q-3 -17 -17.5 -30.5 t-39.5 -13.5h-518q-6 -35 -9.5 -71t-5.5 -74h474l-7 -54q-2 -17 -17.5 -31t-38.5 -14h-412q7 -204 90.5 -311.5t228.5 -107.5q82 0 137.5 22.5t92 49.5t59.5 49.5t41 22.5q8 0 13.5 -2t11.5 -10l65 -68q-83 -101 -194 -157.5t-253 -56.5q-113 0 -199.5 41t-145.5 115.5 t-90 179.5t-34 233h-145l12 99h135q3 74 15 145h-132z" unicode="€"/>
<glyph glyph-name="trademark" horiz-adv-x="1327" unicode="™" d="M622 1431l-13 -101h-164l-60 -489h-120l59 489h-164l14 101h448zM962 1104q8 -27 12 -50q6 13 12.5 25t14.5 25l189 307q9 14 17.5 17t24.5 3h102l-71 -590h-107l46 370l16 71l-206 -337q-16 -27 -45 -27h-17q-28 0 -38 27l-125 338v-72l-46 -370h-105l71 590h103 q16 0 24.5 -3t13.5 -17z"/>
<glyph glyph-name="Omega" horiz-adv-x="1373" unicode="Ω" d="M707 0l53 433q84 18 155.5 55t124 97t82.5 144t30 196q0 90 -26.5 159t-75 116.5t-116 71.5t-149.5 24q-101 0 -188 -33t-151 -97t-100 -158t-36 -216q0 -77 21 -137.5t59 -105t91 -73.5t117 -43l-52 -433h-465q-26 0 -40.5 14.5t-14.5 37.5q0 15 2 33.5t4 34.5 q3 18 5 38h383l22 179q-76 22 -136 64t-101 101t-63 132.5t-22 157.5q0 97 24 183t68 159t106 131t138 98.5t163.5 62t183.5 21.5q122 0 222 -38t171 -106t110 -162.5t39 -206.5q0 -114 -32.5 -212t-92 -175.5t-142.5 -131.5t-185 -79l-22 -178h382l-10 -97q-3 -27 -23 -43 t-49 -18h-464z"/>
<glyph glyph-name="partialdiff" horiz-adv-x="1067" unicode="∂" d="M424 127q58 0 114.5 27.5t106.5 83t92.5 140.5t74.5 199q-4 45 -16 86.5t-35 73.5t-59.5 51.5t-89.5 19.5q-75 0 -136.5 -31t-107.5 -85.5t-75 -129t-40 -161.5q-2 -16 -3 -30.5t-1 -28.5q0 -103 46.5 -159t128.5 -56zM417 1337q39 27 76 48t75.5 35t80.5 21t90 7 q73 0 131 -28t98.5 -82t62.5 -132t22 -177q0 -29 -2 -60.5t-6 -64.5q-25 -202 -80 -370.5t-138 -290t-193.5 -189t-247.5 -67.5q-72 0 -131.5 23.5t-101.5 67.5t-65 107t-23 143q0 17 1 34.5t3 35.5q14 115 61.5 216t120 175t164.5 117t195 43q94 0 158.5 -41t98.5 -122 q5 34 9.5 64.5t7.5 53.5q4 31 5.5 59.5t1.5 54.5q0 143 -50.5 215t-142.5 72q-39 0 -72.5 -10t-61 -22.5t-48 -22.5t-33.5 -10q-11 0 -19.5 6t-16.5 24z"/>
<glyph glyph-name="Delta" horiz-adv-x="1291" unicode="∆" d="M218 150h771l-229 974q-5 23 -11.5 51.5t-11.5 60.5q-13 -33 -25 -61.5t-23 -51.5zM1217 0h-1264l724 1431h169z"/>
<glyph glyph-name="product" horiz-adv-x="1369" unicode="∏" d="M1420 1431l-17 -146h-189l-200 -1629h-178l199 1629h-507l-201 -1629h-177l200 1629h-188l17 146h1241z"/>
<glyph glyph-name="summation" horiz-adv-x="1261" unicode="∑" d="M202 1433h1106l-18 -153h-835l433 -709l-7 -52l-606 -709h833l-18 -153h-1106l8 65q2 14 8.5 28.5t17.5 25.5l668 771l-479 765q-13 21 -13 43v6q0 4 1 7z"/>
<glyph glyph-name="minus" d="M180 736h859l-16 -130h-858z" unicode="−"/>
<glyph glyph-name="radical" horiz-adv-x="1144" unicode="√" d="M624 0h-144l-169 665h-176q-25 0 -42 13t-17 45v4q0 3 1 9.5t2 19.5t4 36h334q21 0 33.5 -11t16.5 -25l101 -421q8 -32 10 -64.5t2 -64.5q8 26 17 53.5t21 55.5l603 1361q8 16 23 26.5t34 10.5h110z"/>
<glyph glyph-name="infinity" horiz-adv-x="1260" unicode="∞" d="M903 400q37 0 70 16.5t57.5 46.5t38.5 72t14 94q0 39 -10.5 67.5t-28.5 47.5t-42.5 28.5t-52.5 9.5q-33 0 -62.5 -15.5t-57.5 -41.5t-55 -60.5t-54 -73.5q18 -39 36.5 -73.5t40 -61t47.5 -41.5t59 -15zM336 400q33 0 63 15t58 41.5t55 61t54 73.5q-18 39 -36 73.5 t-40 60.5t-48 41.5t-59 15.5q-38 0 -70.5 -16.5t-57 -46.5t-38.5 -72t-14 -94q0 -38 10 -67t28 -48t42.5 -28.5t52.5 -9.5zM891 254q-51 0 -91 16.5t-71.5 44.5t-56 65.5t-45.5 78.5q-31 -41 -65 -78.5t-73 -65.5t-83 -44.5t-95 -16.5q-53 0 -98.5 20t-79 57.5t-53 89.5 t-19.5 117q0 82 27.5 153t73.5 123.5t106 83t126 30.5q51 0 90.5 -16.5t71.5 -45t57 -66t46 -78.5q31 41 65 78.5t72.5 66t82.5 45t95 16.5q53 0 99 -20t80 -57.5t53.5 -90t19.5 -117.5q0 -82 -27.5 -153t-74 -123.5t-107 -82.5t-126.5 -30z"/>
<glyph glyph-name="integral" horiz-adv-x="742" unicode="∫" d="M474 1091q41 174 135 266t231 92q35 0 67.5 -7t60.5 -23l-19 -87q-5 -18 -20 -27.5t-57 -9.5q-92 0 -147 -55t-83 -172l-247 -1030q-24 -102 -63.5 -175t-91 -120.5t-114 -70t-132.5 -22.5q-32 0 -66 6.5t-61 22.5l20 76q3 12 8 18.5t14 9.5t23.5 3.5t37.5 0.5 q54 0 94.5 13.5t71 42.5t52.5 76t38 113z"/>
<glyph glyph-name="approxequal" d="M790 518q28 0 56 6.5t52.5 17t43 22.5t29.5 23l10 -109q-39 -47 -98 -69.5t-120 -22.5q-52 0 -101.5 16.5t-97 36.5t-93.5 36.5t-91 16.5q-30 0 -58 -6.5t-52.5 -17t-43 -23t-28.5 -24.5l-16 104q41 51 100.5 75.5t125.5 24.5q53 0 102.5 -16.5t97 -37t93 -37t89.5 -16.5 zM832 855q28 0 56 6.5t52 16.5t42.5 22.5t29.5 23.5l11 -108q-40 -48 -98.5 -71t-119.5 -23q-52 0 -101.5 17t-97 37t-93.5 37t-91 17q-30 0 -58.5 -7t-52.5 -17.5t-42.5 -23.5t-28.5 -25l-17 105q41 51 100.5 75.5t125.5 24.5q52 0 102 -16.5t97 -37t93 -37t91 -16.5z" unicode="≈"/>
<glyph glyph-name="notequal" d="M199 906h491l144 243h125l-144 -243h240l-15 -131h-303l-119 -202h397l-16 -131h-459l-149 -252h-125l149 252h-274l16 131h336l119 202h-429z" unicode="≠"/>
<glyph glyph-name="lessequal" horiz-adv-x="1067" unicode="≤" d="M107 215h773l-17 -135h-773zM178 791l819 377l-15 -122q-2 -16 -13 -29.5t-37 -25.5l-467 -207q-23 -10 -48 -17t-52 -13q26 -5 49.5 -12t43.5 -18l415 -209q21 -11 29.5 -22t8.5 -25q0 -2 -0.5 -4t-0.5 -4l-15 -122l-726 379z"/>
<glyph glyph-name="greaterequal" horiz-adv-x="1067" unicode="≥" d="M957 717l-819 -377l15 122q2 16 13 29.5t37 25.5l467 207q23 10 48 17t52 13q-26 5 -49.5 12t-43.5 18l-415 209q-21 11 -29.5 22t-8.5 25q0 2 0.5 4t0.5 4l15 122l726 -379zM878 80h-773l17 135h773z"/>
<glyph glyph-name="lozenge" d="M291 701l276 -581q8 -23 15.5 -42t12.5 -37q5 18 12 37t16 42l280 581l-280 582q-18 44 -28 79q-5 -19 -12.5 -38t-15.5 -41zM143 701l390 821h124l391 -821l-391 -820h-124z" unicode="◊"/>
<glyph glyph-name="uni2669" horiz-adv-x="0" unicode="♩" d="M-118 -500l242 2000h2l-242 -2000h-2z"/>
<glyph glyph-name="fl" horiz-adv-x="1095" unicode="ﬂ" d="M375 865l-103 -833l-46 -207q-17 -75 -92 -75h-70l136 1112l-98 12q-40 5 -40 38l8 81h146l7 55q10 84 43 159t88 131t131 88.5t173 32.5q71 0 141 -6.5t123 -6.5h119l-177 -1446h-173l160 1316q-45 4 -92.5 9t-90.5 5q-117 0 -189.5 -73.5t-87.5 -208.5l-6 -55h238 l-15 -128h-233z"/>
<glyph glyph-name="undercommaaccent" d="M306 -82l-126 -282h-109l81 282h154z" horiz-adv-x="568"/>
<glyph glyph-name="grave.case" d="M279 1781q31 0 45 -6.5t30 -25.5l167 -203h-144q-20 0 -31 6.5t-26 18.5l-235 210h194z" horiz-adv-x="568"/>
<glyph glyph-name="dieresis.case" d="M680 1665q0 -20 -8 -38t-22 -31.5t-32 -21t-39 -7.5t-39 7.5t-32 21t-22 31.5t-8 38q0 21 8 39.5t22 33t32 22.5t39 8t39 -8t32 -22.5t22 -33t8 -39.5zM336 1665q0 -20 -8.5 -38t-22.5 -31.5t-32.5 -21t-39.5 -7.5q-20 0 -37.5 7.5t-31.5 21t-22 31.5t-8 38q0 21 8 39.5 t22 33t31.5 22.5t37.5 8q21 0 39.5 -8t32.5 -22.5t22.5 -33t8.5 -39.5z" horiz-adv-x="568"/>
<glyph glyph-name="macron.case" d="M147 1678h564l-14 -102h-563z" horiz-adv-x="568"/>
<glyph glyph-name="acute.case" d="M774 1781l-288 -210q-17 -12 -29.5 -18.5t-32.5 -6.5h-145l218 203q10 9 18.5 15.5t17.5 10t20 5t27 1.5h194z" horiz-adv-x="568"/>
<glyph glyph-name="circumflex.case" d="M711 1546h-131q-11 0 -23.5 3t-20.5 10l-114 107l-142 -107q-9 -7 -22.5 -10t-25.5 -3h-130l246 209h169z" horiz-adv-x="568"/>
<glyph glyph-name="caron.case" d="M741 1755l-246 -209h-169l-194 209h131q11 0 23.5 -3t20.5 -10l114 -107l142 107q9 7 22.5 10t25.5 3h130z" horiz-adv-x="568"/>
<glyph glyph-name="breve.case" d="M411 1528q-115 0 -175.5 47t-60.5 141q0 19 3 40h111q-1 -6 -1.5 -12t-0.5 -11q0 -99 137 -99q78 0 117.5 31t45.5 91h112q-7 -52 -29 -94t-58.5 -72t-87 -46t-113.5 -16z" horiz-adv-x="568"/>
<glyph glyph-name="dotaccent.case" d="M542 1688q0 -24 -10 -46t-27 -38.5t-39.5 -26.5t-47.5 -10q-24 0 -46 10t-38.5 26.5t-26 38.5t-9.5 46q0 25 9.5 47t26 39t38.5 27t46 10q25 0 47.5 -10t39.5 -27t27 -39t10 -47z" horiz-adv-x="568"/>
<glyph glyph-name="ring.case" d="M308 1659q0 -43 27 -71.5t74 -28.5q45 0 72.5 28.5t27.5 71.5q0 45 -27.5 73t-72.5 28q-47 0 -74 -28t-27 -73zM219 1659q0 39 15 72t41 56.5t60 36.5t72 13q39 0 73.5 -13t60.5 -36.5t41.5 -56.5t15.5 -72q0 -38 -15.5 -70t-41.5 -55t-60.5 -36t-73.5 -13q-38 0 -72 13 t-60 36t-41 55t-15 70z" horiz-adv-x="568"/>
<glyph glyph-name="tilde.case" d="M539 1660q30 0 50.5 21t25.5 58h94q-5 -42 -20 -77.5t-38 -62t-54 -41t-68 -14.5q-32 0 -60 13.5t-53 29.5t-48 29.5t-44 13.5q-30 0 -49.5 -22.5t-24.5 -59.5h-97q5 42 20.5 78t38.5 62.5t54 41t68 14.5q33 0 61 -13t53 -29t47.5 -29t43.5 -13z" horiz-adv-x="568"/>
<glyph glyph-name="hungarumlaut.case" d="M866 1771l-249 -199q-17 -13 -32 -19.5t-35 -6.5h-93l187 181q20 20 40.5 32t50.5 12h131zM552 1771l-208 -199q-14 -14 -27.5 -20t-33.5 -6h-83l152 181q17 20 36.5 32t50.5 12h113z" horiz-adv-x="568"/>
<glyph glyph-name="caron.salt" d="M470 1473q17 0 22.5 -7.5t5.5 -17.5t-3.5 -25t-15 -43.5t-33 -75.5t-57.5 -120q-12 -22 -27 -28.5t-39 -6.5h-60l93 324h114z" horiz-adv-x="568"/>
</font>
</defs>
</svg>
