<?xml version="1.0" encoding="UTF-8" standalone="no"?>
<!DOCTYPE svg  PUBLIC '-//W3C//DTD SVG 1.1//EN'  'http://www.w3.org/Graphics/SVG/1.1/DTD/svg11.dtd'>
<svg xmlns="http://www.w3.org/2000/svg">
<defs>
<font id="LatoTR-LightItalic" horiz-adv-x="1160">
<font-face slope="-12" underline-position="-136" font-weight="300" descent="-400" panose-1="2 0 5 3 0 0 0 9 0 4" units-per-em="2000" unicode-range="U+000D-FB02" bbox="-244 -500 2048 1789" x-height="995" underline-thickness="65" font-family="LatoTR" ascent="1600" font-style="italic" cap-height="1415"/>
<missing-glyph d="M410 265q0 32 22 55t55 23q32 0 54 -23t22 -55t-22 -55t-54 -23q-33 0 -55 23t-22 55zM262 1134q21 20 46.5 38t55.5 32t65.5 22.5t77.5 8.5q54 0 100.5 -15.5t81 -45t54 -71t19.5 -93.5q0 -55 -16.5 -94.5t-41 -69t-54 -52t-55 -42.5t-43.5 -39.5t-20 -44.5l-10 -114 h-65l-4 84q-1 15 -1.5 23.5t-0.5 12.5v7q0 30 16.5 53t41 43.5t53.5 41.5t53.5 47t41 59.5t16.5 79.5q0 36 -14 64t-37.5 47.5t-55 30t-66.5 10.5q-46 0 -79 -11.5t-56 -26t-36.5 -26t-20.5 -11.5q-14 0 -21 11zM82 36h859v1343h-859v-1343zM47 1415h931v-1415h-931v1415z " horiz-adv-x="1025"/>
<glyph glyph-name=".notdef" d="M410 265q0 32 22 55t55 23q32 0 54 -23t22 -55t-22 -55t-54 -23q-33 0 -55 23t-22 55zM262 1134q21 20 46.5 38t55.5 32t65.5 22.5t77.5 8.5q54 0 100.5 -15.5t81 -45t54 -71t19.5 -93.5q0 -55 -16.5 -94.5t-41 -69t-54 -52t-55 -42.5t-43.5 -39.5t-20 -44.5l-10 -114 h-65l-4 84q-1 15 -1.5 23.5t-0.5 12.5v7q0 30 16.5 53t41 43.5t53.5 41.5t53.5 47t41 59.5t16.5 79.5q0 36 -14 64t-37.5 47.5t-55 30t-66.5 10.5q-46 0 -79 -11.5t-56 -26t-36.5 -26t-20.5 -11.5q-14 0 -21 11zM82 36h859v1343h-859v-1343zM47 1415h931v-1415h-931v1415z " horiz-adv-x="1025"/>
<glyph glyph-name=".null" horiz-adv-x="0"/>
<glyph glyph-name="nonmarkingreturn" horiz-adv-x="0" unicode=""/>
<glyph glyph-name="NULL" horiz-adv-x="0"/>
<glyph glyph-name="NULL" horiz-adv-x="0"/>
<glyph glyph-name="space" horiz-adv-x="386" unicode=" "/>
<glyph glyph-name="exclam" horiz-adv-x="596" unicode="!" d="M163 77q0 19 7 36t19.5 29.5t29 20t36.5 7.5q19 0 36 -7.5t29.5 -20t20 -29.5t7.5 -36q0 -20 -7.5 -36.5t-20 -29t-29.5 -19.5t-36 -7q-39 0 -65.5 26.5t-26.5 65.5zM460 1415l-70 -572q-6 -45 -12 -85t-13 -81.5t-15.5 -87.5t-18.5 -102h-62q4 56 7 102t6.5 87.5 t7.5 81.5t9 85l70 572h91z"/>
<glyph glyph-name="quotedbl" horiz-adv-x="678" unicode='&quot;' d="M628 1415l-36 -292l-26 -154q-4 -16 -11.5 -25t-24.5 -9q-14 0 -20 9t-8 25l10 154l38 292h78zM357 1415l-36 -292l-26 -154q-4 -16 -11.5 -25t-24.5 -9q-14 0 -20 9t-8 25l10 154l38 292h78z"/>
<glyph glyph-name="numbersign" d="M385 512h300l131 391h-300zM744 443l-148 -443h-39q-12 0 -20 7t-8 20q0 7 3 16l134 400h-300l-134 -404q-7 -21 -20.5 -30t-29.5 -9h-41l148 443h-183q-26 0 -26 24q0 4 0.5 7.5t1.5 8.5l7 29h219l130 391h-253l10 37q7 31 48 31h214l137 406q6 19 19.5 28.5t30.5 9.5 h40l-149 -444h299l150 444h41q12 0 19.5 -6.5t7.5 -18.5q0 -7 -3 -16l-137 -403h226l-12 -36q-5 -16 -15.5 -24t-30.5 -8h-187l-130 -391h226q28 0 28 -26v-7q0 -3 -2 -7l-9 -29h-262z" unicode="#"/>
<glyph glyph-name="dollar" d="M376 1043q0 -54 19.5 -92.5t53.5 -67t78 -49.5t94 -39l96 556q-84 -4 -147.5 -31t-106.5 -69t-65 -96t-22 -112zM937 430q0 58 -22.5 98t-60.5 68.5t-87 49t-103 38.5l-107 -621q89 5 159.5 36t119.5 80.5t75 114t26 136.5zM481 -15q-128 6 -216.5 55t-150.5 129l31 38 q11 14 30 14q9 0 20.5 -11t28.5 -27.5t40.5 -36.5t56 -37.5t75 -30t98.5 -15.5l111 641q-60 20 -117 43.5t-101.5 59.5t-71.5 88t-27 128q0 78 30.5 150t87.5 128t139 90.5t185 37.5l29 167q2 14 11 22.5t22 8.5h35l-34 -199q100 -7 171 -44t126 -101l-25 -33 q-12 -16 -27 -16q-12 0 -29.5 16.5t-47 37t-73.5 39t-109 23.5l-99 -576q64 -21 126 -45t111.5 -59.5t80 -87.5t30.5 -130q0 -92 -34 -174.5t-97 -146t-152.5 -102.5t-201.5 -44l-36 -213q-2 -12 -11 -21t-22 -9h-35z" unicode="$"/>
<glyph glyph-name="percent" horiz-adv-x="1414" unicode="%" d="M1246 398q0 60 -13 103.5t-36 72t-53.5 42t-66.5 13.5q-48 0 -92 -20.5t-77.5 -64t-53.5 -110.5t-20 -160q0 -59 13 -102t36 -71t54.5 -41.5t67.5 -13.5q48 0 91.5 20t76.5 63t53 109.5t20 159.5zM1320 398q0 -103 -27.5 -180.5t-72.5 -129.5t-103 -78.5t-120 -26.5 q-51 0 -94.5 19t-74.5 56t-48.5 91t-17.5 125q0 103 26 181.5t70 131t102.5 79t123.5 26.5q51 0 94 -19t74.5 -56.5t49.5 -92t18 -126.5zM1232 1397q8 8 16.5 13t22.5 5h65l-1109 -1398q-15 -17 -36 -17h-66zM632 1136q0 60 -13 103.5t-36 72t-54 42.5t-67 14 q-48 0 -92 -20.5t-77.5 -64t-53 -110.5t-19.5 -160q0 -60 13 -103t35.5 -71t54 -41.5t67.5 -13.5q48 0 91.5 20t77 63t53.5 109.5t20 159.5zM706 1137q0 -103 -27.5 -181t-72.5 -130t-103 -78t-120 -26q-51 0 -94.5 19t-75 55.5t-49 91t-17.5 125.5q0 103 26 181t70 130.5 t103 79t124 26.5q51 0 94 -19t74.5 -56t49.5 -91.5t18 -126.5z"/>
<glyph glyph-name="ampersand" horiz-adv-x="1274" unicode="&amp;" d="M172 328q0 -66 23 -116.5t60 -84.5t84.5 -51t97.5 -17q62 0 119.5 16.5t110 45.5t99.5 69t87 87l-372 460q-71 -30 -128 -73t-97 -95.5t-62 -113.5t-22 -127zM718 1431q62 0 114 -20.5t89 -58t57.5 -89.5t20.5 -115l-52 -9q-2 0 -4 -0.5t-4 -0.5q-19 0 -22 24 q-4 32 -16.5 66.5t-36.5 63.5t-61.5 47.5t-91.5 18.5q-61 0 -111.5 -22t-87 -60.5t-56.5 -91t-20 -114.5q0 -69 31 -140t90 -144l353 -434q50 72 82.5 149t46.5 148q2 11 8 18t19 7h60q-14 -94 -56 -193.5t-110 -190.5l237 -290h-77q-25 0 -38.5 5.5t-27.5 23.5l-154 189 q-47 -51 -101 -94t-115 -74t-128 -48.5t-138 -17.5t-133 22.5t-108 65t-73 104.5t-27 140q0 82 29 154.5t78.5 133t116.5 106.5t144 76q-49 70 -73 136.5t-24 136.5q0 80 27 148t76 118t117 78t150 28z"/>
<glyph glyph-name="quotesingle" horiz-adv-x="409" unicode="&apos;" d="M357 1415l-36 -292l-26 -154q-4 -16 -11.5 -25t-24.5 -9q-14 0 -20 9t-8 25l10 154l38 292h78z"/>
<glyph glyph-name="parenleft" horiz-adv-x="552" unicode="(" d="M239 450q0 -79 8 -163t24.5 -167.5t41.5 -164t58 -152.5q4 -9 4 -17q0 -9 -4.5 -15t-11.5 -10l-43 -25q-43 88 -73 179t-49.5 180.5t-28.5 176t-9 166.5q0 86 5 168.5t20 165.5t41 168.5t68.5 177.5t102.5 192.5t142 214.5l38 -25q11 -7 11 -18q0 -9 -9 -24 q-83 -119 -146 -233t-105 -234t-63.5 -252.5t-21.5 -288.5z"/>
<glyph glyph-name="parenright" horiz-adv-x="552" unicode=")" d="M348 811q0 79 -8.5 163t-25 167.5t-41 164t-57.5 152.5q-4 9 -4 17q0 9 4.5 15t11.5 10l43 25q43 -89 73 -179.5t49.5 -180t28.5 -176t9 -166.5q0 -86 -5 -168.5t-20 -165.5t-41 -168.5t-68.5 -177.5t-102.5 -192.5t-142 -214.5l-38 25q-11 7 -11 18q0 9 9 24 q83 119 146 233t105 234t63.5 252.5t21.5 288.5z"/>
<glyph glyph-name="asterisk" horiz-adv-x="736" unicode="*" d="M376 898l27 214q2 17 6 30t13 29q-11 -14 -23.5 -22.5t-25.5 -16.5l-185 -110l-20 43l186 110q14 9 27 13t31 7q-18 3 -29 7t-24 13l-160 110l30 44l160 -110q14 -9 22 -19q7 -10 18 -27q-3 13 -5 24t-2 23v9q0 4 1 9l26 215h50l-26 -214q-2 -18 -6.5 -32t-14.5 -32 q13 17 24.5 26t27.5 18l185 110l18 -44l-185 -110q-15 -9 -28.5 -14t-30.5 -7q17 -2 28.5 -6t25.5 -13l160 -110l-29 -43l-160 110q-13 9 -22 16q-8 6 -18 21q3 -12 4 -21q2 -9 2 -20v-8q0 -3 -1 -8l-27 -214h-50z"/>
<glyph glyph-name="plus" d="M698 1157l-55 -451h432l-8 -71h-433l-55 -453h-76l56 453h-431l9 71h430l56 451h75z" unicode="+"/>
<glyph glyph-name="comma" horiz-adv-x="395" unicode="," d="M63 85q0 35 24 60t63 25q43 0 66.5 -29.5t23.5 -77.5q0 -41 -10.5 -83.5t-30.5 -83.5t-48 -79t-62 -70l-16 15q-5 4 -6 8.5t-1 9.5q0 8 15.5 26.5t35 47t37.5 65.5t23 81q-6 -2 -13.5 -3t-16.5 -1q-37 0 -60.5 25t-23.5 64z"/>
<glyph glyph-name="hyphen" horiz-adv-x="612" unicode="-" d="M110 632h428l-9 -78h-430z"/>
<glyph glyph-name="period" horiz-adv-x="395" unicode="." d="M58 77q0 19 7 36t19.5 29.5t29 20t36.5 7.5q19 0 36.5 -7.5t30 -20t20 -29.5t7.5 -36q0 -39 -27.5 -65.5t-66.5 -26.5t-65.5 26.5t-26.5 65.5z"/>
<glyph glyph-name="slash" horiz-adv-x="660" unicode="/" d="M22 -47q-9 -19 -25.5 -28t-32.5 -9h-38l751 1493q17 36 56 36h39z"/>
<glyph glyph-name="zero" d="M528 63q99 0 188.5 47.5t158 145t109 246t40.5 350.5q0 130 -26.5 225t-72.5 156t-108.5 90.5t-133.5 29.5q-99 0 -189 -47.5t-158.5 -145t-109 -246t-40.5 -349.5q0 -131 26.5 -225.5t73 -156t109 -91t133.5 -29.5zM694 1431q92 0 170 -36t135 -108t89 -180.5t32 -253.5 q0 -221 -49 -384t-132 -270.5t-192.5 -160.5t-230.5 -53q-92 0 -170 36t-135 108t-89 180.5t-32 253.5q0 220 49 383.5t132.5 271t193 160.5t229.5 53z" unicode="0"/>
<glyph glyph-name="one" d="M258 72h326l143 1161l15 69l-353 -284q-12 -9 -24 -9q-18 0 -25 12l-22 39l451 361h73l-165 -1349h309l-8 -72h-728z" unicode="1"/>
<glyph glyph-name="two" d="M715 1431q75 0 140.5 -21t115 -62.5t78 -104t28.5 -144.5q0 -91 -29.5 -166.5t-80 -143t-118 -131.5t-142.5 -132l-503 -456q32 8 67.5 12t70.5 4h616q30 0 30 -33l-7 -53h-911l4 33q1 11 7.5 22t15.5 19l545 490q75 67 137.5 128.5t107.5 123.5t70 128.5t25 144.5 q0 67 -22.5 116.5t-61 82t-89.5 48.5t-108 16q-68 0 -126.5 -19.5t-106 -56t-82.5 -88t-55 -114.5q-6 -18 -17 -25.5t-25 -7.5q-7 0 -11 1l-46 7q23 90 69 161t109 120t140.5 75t164.5 26z" unicode="2"/>
<glyph glyph-name="three" d="M729 1431q75 0 139.5 -20.5t112.5 -60t75.5 -98.5t27.5 -135q0 -80 -25.5 -143t-69.5 -110t-103.5 -78.5t-126.5 -47.5q69 -13 120.5 -40.5t86.5 -67t52.5 -90t17.5 -108.5q0 -96 -40.5 -178t-109.5 -142t-161 -94t-196 -34q-97 0 -169.5 23t-123.5 69t-81 113.5 t-42 156.5l41 14q9 3 19 3q11 0 20.5 -5t11.5 -16q14 -71 39 -123t64.5 -87t95.5 -52t134 -17q97 0 172.5 33.5t127 86t78.5 117.5t27 129q0 55 -18 103.5t-61 84t-115 56t-181 20.5l9 66q97 3 174 28t130.5 69t81.5 106t28 138q0 64 -22 111.5t-59.5 79t-87.5 46.5t-107 15 q-68 0 -127 -19.5t-107 -55.5t-83 -87.5t-55 -115.5q-5 -18 -15.5 -25.5t-24.5 -7.5q-7 0 -11 1l-46 7q23 90 68.5 161t108.5 120t141 75t165 26z" unicode="3"/>
<glyph glyph-name="four" d="M866 1227q3 32 14 71l-715 -817h610zM858 481h260l-7 -50q-1 -11 -8 -17.5t-21 -6.5h-233l-49 -407h-84l50 407h-665q-15 0 -24.5 6.5t-11.5 17.5l-3 45l827 941h84z" unicode="4"/>
<glyph glyph-name="five" d="M1074 1375q-3 -20 -16.5 -32.5t-42.5 -12.5h-514l-145 -476q130 31 237 31q103 0 180.5 -27t129 -75.5t77 -115.5t25.5 -147q0 -125 -45.5 -224.5t-122 -168.5t-176 -106t-208.5 -37q-58 0 -110 10t-96 27.5t-80.5 40t-63.5 47.5l32 39q12 14 29 14q13 0 35.5 -15 t58.5 -33.5t87.5 -33.5t121.5 -15q91 0 171.5 30.5t141 87.5t95.5 139.5t35 187.5q0 66 -20 120.5t-62 93.5t-106.5 61t-152.5 22q-110 0 -255 -37l-56 19l187 626h635z" unicode="5"/>
<glyph glyph-name="six" d="M215 378q0 -68 21 -126t61 -100.5t97.5 -66.5t131.5 -24q94 0 172 30.5t134 84.5t86.5 128.5t30.5 161.5q0 70 -22 127t-62.5 97t-98.5 61.5t-129 21.5q-95 0 -172.5 -34t-133 -89.5t-86 -126.5t-30.5 -145zM670 845q84 0 152.5 -26.5t117.5 -74.5t76 -115.5t27 -149.5 q0 -108 -40.5 -199t-111 -156.5t-166.5 -102.5t-207 -37q-89 0 -161.5 27.5t-123.5 79.5t-78.5 125.5t-27.5 165.5q0 58 13.5 114.5t42.5 116t74 123t107 135.5l452 521q9 10 22 16.5t29 6.5h81l-489 -552q-38 -42 -69 -79.5t-57 -72.5q66 63 153 98.5t184 35.5z" unicode="6"/>
<glyph glyph-name="seven" d="M1185 1415l-4 -35q-1 -14 -5.5 -27.5t-9.5 -22.5l-817 -1301q-8 -13 -19.5 -21t-28.5 -8h-72l814 1284q8 13 16.5 24t18.5 22h-818q-11 0 -17.5 6.5t-6.5 16.5l8 62h941z" unicode="7"/>
<glyph glyph-name="eight" d="M614 773q91 0 158 28.5t111.5 75t66 105.5t21.5 121q0 54 -18.5 100.5t-54.5 81t-89 54t-122 19.5q-83 0 -149 -25t-112 -69t-71 -103.5t-25 -128.5q0 -50 16.5 -97t51.5 -83t88.5 -57.5t127.5 -21.5zM526 58q89 0 164 25.5t129 73t84.5 114t30.5 149.5q0 79 -30.5 132.5 t-78.5 86t-106.5 46t-113.5 13.5q-44 0 -90.5 -7.5t-91.5 -24.5t-85.5 -45t-71 -68t-48.5 -93.5t-18 -122.5q0 -63 23 -114t65 -88t102.5 -57t135.5 -20zM518 -16q-94 0 -170.5 24.5t-131 69.5t-84.5 108.5t-30 141.5q0 89 27 158.5t75 120.5t114 83.5t143 48.5 q-109 33 -165 109.5t-56 180.5q0 84 33 157.5t93 127.5t143.5 85.5t185.5 31.5q87 0 155 -25.5t115.5 -69t72 -102t24.5 -125.5q0 -68 -20.5 -127.5t-59 -107.5t-94.5 -83t-128 -54q60 -14 109.5 -40.5t85 -65.5t55 -91.5t19.5 -118.5q0 -102 -39 -183t-107.5 -137.5 t-162 -86.5t-202.5 -30z" unicode="8"/>
<glyph glyph-name="nine" d="M1025 1048q0 67 -21.5 123.5t-60.5 97t-94 63t-121 22.5q-86 0 -159.5 -28.5t-127.5 -80t-84.5 -123t-30.5 -157.5q0 -67 20.5 -121t59 -91.5t93.5 -57.5t123 -20q93 0 167.5 32.5t127 85t80.5 119.5t28 136zM589 602q-80 0 -146 25.5t-113 71.5t-72.5 111t-25.5 144 q0 102 39.5 189.5t108.5 151t161 100t197 36.5q85 0 154.5 -28t119 -79t76 -122t26.5 -157q0 -68 -15 -125t-44 -112.5t-72 -113t-98 -126.5l-440 -546q-17 -22 -49 -22h-84l490 585q32 38 63 76t60 79q-66 -66 -154 -102t-182 -36z" unicode="9"/>
<glyph glyph-name="colon" horiz-adv-x="395" unicode=":" d="M160 874q0 19 7 36t19.5 29.5t29 20t36.5 7.5q19 0 36.5 -7.5t30 -20t20 -29.5t7.5 -36q0 -39 -27.5 -65.5t-66.5 -26.5t-65.5 26.5t-26.5 65.5zM58 77q0 19 7 36t19.5 29.5t29 20t36.5 7.5q19 0 36.5 -7.5t30 -20t20 -29.5t7.5 -36q0 -39 -27.5 -65.5t-66.5 -26.5 t-65.5 26.5t-26.5 65.5z"/>
<glyph glyph-name="semicolon" horiz-adv-x="395" unicode=";" d="M171 874q0 19 7 36t19.5 29.5t29 20t36.5 7.5q19 0 36.5 -7.5t30 -20t20 -29.5t7.5 -36q0 -39 -27.5 -65.5t-66.5 -26.5t-65.5 26.5t-26.5 65.5zM60 85q0 35 24 60t63 25q43 0 66.5 -29.5t23.5 -77.5q0 -41 -10.5 -83.5t-30.5 -83.5t-48 -79t-62 -70l-16 15q-5 4 -6 8.5 t-1 9.5q0 8 15.5 26.5t35 47t37.5 65.5t23 81q-6 -2 -13.5 -3t-16.5 -1q-37 0 -60.5 25t-23.5 64z"/>
<glyph glyph-name="less" horiz-adv-x="1067" unicode="&lt;" d="M178 692l797 385l-8 -65q-3 -21 -31 -35l-588 -280q-17 -8 -35.5 -14.5t-38.5 -11.5q40 -10 68 -25l519 -281q22 -11 22 -30v-3q0 -1 -1 -7.5t-2.5 -20.5t-4.5 -39l-702 386z"/>
<glyph glyph-name="equal" d="M207 867h826l-8 -71h-827zM168 555h827l-9 -71h-826z" unicode="="/>
<glyph glyph-name="greater" horiz-adv-x="1067" unicode="&gt;" d="M937 650l-797 -385l8 65q3 21 31 35l588 280q17 8 35.5 14.5t38.5 11.5q-40 10 -68 25l-519 281q-22 11 -22 30v2q0 2 1 8.5t2.5 20.5t4.5 39l702 -386z"/>
<glyph glyph-name="question" horiz-adv-x="685" unicode="?" d="M181 77q0 19 7 36t19.5 29.5t29 20t36.5 7.5q19 0 36 -7.5t29.5 -20t20 -29.5t7.5 -36q0 -20 -7.5 -36.5t-20 -29t-29.5 -19.5t-36 -7q-39 0 -65.5 26.5t-26.5 65.5zM127 1290q29 27 63.5 52.5t75 45t86.5 31.5t98 12q61 0 112.5 -19t89 -54t58.5 -83.5t21 -107.5 q0 -83 -24.5 -142t-62.5 -103t-82.5 -76.5t-85 -62.5t-70.5 -61t-38 -71l-32 -164h-64l17 170q4 44 32.5 78.5t67.5 65.5t84 62.5t83 71.5t63 92t25 124q0 47 -16 84.5t-44.5 64t-67 40.5t-82.5 14q-62 0 -108 -17.5t-78 -38.5t-52 -38.5t-30 -17.5q-12 0 -19 12z"/>
<glyph glyph-name="at" horiz-adv-x="1504" unicode="@" d="M637 256q33 0 69 12t72 43.5t71 85.5t65 138l112 311q-22 7 -45 10.5t-53 3.5q-59 0 -113 -18.5t-100 -51t-83.5 -76.5t-64 -93.5t-41 -103t-14.5 -105.5q0 -33 7.5 -61.5t23 -49.5t39 -33t55.5 -12zM1032 188q-73 0 -108.5 39t-35.5 111v14q0 7 1 15 q-63 -92 -133 -133.5t-146 -41.5q-45 0 -78 16t-54 44.5t-31.5 66.5t-10.5 82q0 59 16.5 121t47.5 120t76 109t101.5 89t124.5 60t146 22q49 0 91 -8.5t75 -25.5l-127 -347q-23 -61 -32.5 -106t-9.5 -77q0 -33 9 -54t23.5 -33t34 -16.5t40.5 -4.5q59 0 116.5 36.5t102.5 104 t72.5 163t27.5 213.5q0 124 -38 218t-104 156t-156 93.5t-193 31.5q-92 0 -180.5 -27.5t-168 -78.5t-146 -124t-115 -165t-76 -200.5t-27.5 -230.5q0 -148 43 -262t119.5 -192t180 -118t225.5 -40q137 0 253.5 34t211.5 96q11 7 20 7q18 0 21 -18l7 -31 q-111 -74 -239.5 -114t-280.5 -40q-138 0 -254 45.5t-199.5 132t-130.5 211t-47 283.5q0 129 30 245.5t83 216t126.5 180t161.5 137t186.5 87t202.5 30.5q112 0 212.5 -36.5t176.5 -108t120 -176.5t44 -242q0 -129 -34 -235.5t-90.5 -183t-130 -118.5t-153.5 -42z"/>
<glyph glyph-name="A" horiz-adv-x="1180" unicode="A" d="M303 513h581l-175 720q-5 17 -9.5 38t-7.5 44q-2 -6 -7.5 -18.5t-11.5 -25.5t-11 -24t-7 -15zM1112 0h-76q-14 0 -22.5 7.5t-11.5 18.5l-101 414h-634l-202 -414q-5 -11 -16 -18.5t-25 -7.5h-76l707 1415h98z"/>
<glyph glyph-name="B" horiz-adv-x="1179" unicode="B" d="M323 751h279q97 0 168 29t117 76.5t68 108.5t22 126q0 119 -74.5 182t-229.5 63h-278zM314 679l-74 -600h324q186 0 285 90.5t99 256.5q0 58 -20.5 104.5t-60 79.5t-97 51t-131.5 18h-325zM131 0l174 1415h377q102 0 176 -21t123 -60.5t72.5 -96.5t23.5 -129 q0 -68 -22 -130t-62.5 -112.5t-98.5 -87t-131 -54.5q138 -23 211 -98.5t73 -196.5q0 -98 -33.5 -177.5t-97 -135.5t-154.5 -86t-206 -30h-425z"/>
<glyph glyph-name="C" horiz-adv-x="1267" unicode="C" d="M679 69q73 0 131 12.5t103 31t77.5 40t55.5 40t37.5 31t22.5 12.5q9 0 13 -6l35 -42q-46 -47 -98.5 -84.5t-112.5 -64t-129.5 -41t-149.5 -14.5q-122 0 -220.5 44t-168 125t-107 194t-37.5 251q0 185 56 338.5t154.5 263.5t232 170.5t288.5 60.5q73 0 131 -11.5 t106.5 -33.5t89 -55t78.5 -75l-31 -40q-11 -12 -27 -12q-12 0 -32.5 22t-59.5 48.5t-101.5 48.5t-158.5 22q-132 0 -246 -52t-198 -148t-132.5 -233t-48.5 -307q0 -124 33 -223.5t92 -169t141.5 -106.5t180.5 -37z"/>
<glyph glyph-name="D" horiz-adv-x="1398" unicode="D" d="M1222 813q0 121 -31.5 218t-90 164t-142 103t-187.5 36h-376l-155 -1253h376q132 0 243 49.5t192 143.5t126 230t45 309zM1325 815q0 -125 -24.5 -234t-70 -199.5t-110 -161.5t-144.5 -120t-173 -74.5t-196 -25.5h-476l174 1415h476q125 0 226 -42.5t171.5 -120.5 t108.5 -189t38 -248z"/>
<glyph glyph-name="E" horiz-adv-x="1087" unicode="E" d="M1076 1333h-681l-71 -576h567l-11 -80h-566l-73 -595h684l-11 -82h-783l174 1415h782z"/>
<glyph glyph-name="F" horiz-adv-x="1052" unicode="F" d="M1076 1333h-681l-74 -599h591l-12 -83h-589l-80 -651h-100l174 1415h782z"/>
<glyph glyph-name="G" horiz-adv-x="1376" unicode="G" d="M699 65q67 0 122.5 7.5t104.5 22.5t94 36t90 48l48 385h-247q-22 0 -22 19v1q0 2 0.5 7.5t2 17t3.5 32.5h363l-63 -502q-53 -37 -108.5 -66t-118 -48.5t-132.5 -30t-152 -10.5q-127 0 -229.5 44.5t-174.5 125.5t-110.5 194.5t-38.5 251.5q0 187 55 340.5t154 262.5 t236 168.5t301 59.5q77 0 140 -11.5t115 -33.5t95 -54t81 -73l-31 -39q-12 -15 -26 -15q-8 0 -16 4q-9 4 -22.5 16t-33 27t-47 31.5t-65 30t-86.5 22.5t-112 9q-141 0 -258 -52t-201.5 -148t-131 -233.5t-46.5 -308.5q0 -124 33 -223.5t94 -169.5t147 -107.5t193 -37.5z"/>
<glyph glyph-name="H" horiz-adv-x="1392" unicode="H" d="M1139 0h-100l83 679h-808l-83 -679h-100l174 1415h100l-82 -661h808l82 661h100z"/>
<glyph glyph-name="I" horiz-adv-x="550" unicode="I" d="M265 0h-100l173 1415h100z"/>
<glyph glyph-name="J" horiz-adv-x="834" unicode="J" d="M637 441q-15 -117 -51 -203t-91 -142.5t-127.5 -84t-159.5 -27.5q-54 0 -98.5 7t-87.5 22l8 54q2 8 7 15t19 7q10 0 22 -3.5t29.5 -7.5t42 -7.5t59.5 -3.5q59 0 113 18.5t97.5 62t74 115t43.5 176.5l120 976h100z"/>
<glyph glyph-name="K" horiz-adv-x="1216" unicode="K" d="M350 760h77q34 0 54 7.5t43 30.5l592 588q17 17 31 23t33 6h81l-642 -637q-19 -18 -33.5 -30t-31.5 -18q18 -6 31 -18.5t27 -31.5l511 -680h-80q-26 0 -35.5 7t-18.5 19l-470 614q-9 11 -16.5 19t-17.5 13.5t-24 8t-36 2.5h-84l-84 -683h-99l173 1417h100z"/>
<glyph glyph-name="L" horiz-adv-x="941" unicode="L" d="M240 85h616l-11 -85h-714l174 1415h99z"/>
<glyph glyph-name="M" horiz-adv-x="1673" unicode="M" d="M813 400q4 -11 7.5 -22.5t5.5 -23.5q10 22 24 46l638 996q8 13 16.5 16t22.5 3h69l-174 -1415h-87l149 1209q2 11 4 24.5t5 27.5l-630 -989q-16 -25 -41 -25h-16q-26 0 -35 25l-402 992q0 -30 -3 -54l-148 -1210h-87l174 1415h68q14 0 22.5 -2.5t13.5 -16.5z"/>
<glyph glyph-name="N" horiz-adv-x="1390" unicode="N" d="M354 1415q14 0 20.5 -3.5t13.5 -15.5l686 -1232q1 14 1.5 26.5t2.5 23.5l148 1201h87l-174 -1415h-46q-25 0 -37 22l-687 1232l-3 -45l-148 -1209h-87l174 1415h49z"/>
<glyph glyph-name="O" horiz-adv-x="1465" unicode="O" d="M1290 814q0 123 -31.5 221.5t-90.5 168t-142.5 107t-186.5 37.5q-130 0 -241 -52t-192.5 -149t-127.5 -235t-46 -310q0 -123 32 -221.5t91 -167.5t142 -106.5t186 -37.5q132 0 243 51.5t192 148.5t126.5 234.5t45.5 310.5zM1393 816q0 -187 -54.5 -340t-151.5 -262 t-229 -169t-286 -60q-124 0 -224 44.5t-170.5 125.5t-108.5 194t-38 250q0 186 55 339.5t151.5 263t228 169.5t284.5 60q125 0 225.5 -44.5t171 -125.5t108.5 -194.5t38 -250.5z"/>
<glyph glyph-name="P" horiz-adv-x="1094" unicode="P" d="M421 1336l-84 -685h240q94 0 169.5 30t129 83t82.5 126t29 159q0 136 -81.5 211.5t-244.5 75.5h-240zM327 571l-70 -571h-99l173 1415h340q208 0 312 -93.5t104 -262.5q0 -108 -37 -197.5t-105 -154t-164 -100.5t-214 -36h-240z"/>
<glyph glyph-name="Q" horiz-adv-x="1464" unicode="Q" d="M1290 814q0 123 -31.5 221.5t-90.5 168t-142.5 107t-186.5 37.5q-130 0 -241 -52t-192.5 -149t-127.5 -235t-46 -310q0 -123 32 -221.5t91 -167.5t142 -106.5t186 -37.5q132 0 243 51.5t192 148.5t126.5 234.5t45.5 310.5zM1393 816q0 -129 -26.5 -242t-75 -207 t-117 -167.5t-153.5 -122.5l291 -389h-78q-20 0 -34.5 5t-24.5 19l-238 323q-124 -50 -265 -50q-124 0 -224 44.5t-170.5 125.5t-108.5 194t-38 250q0 186 55 339.5t151.5 263t228 169.5t284.5 60q125 0 225.5 -44.5t171 -125.5t108.5 -194.5t38 -250.5z"/>
<glyph glyph-name="R" horiz-adv-x="1162" unicode="R" d="M422 1336l-77 -621h223q95 0 170.5 26t128.5 74t81 116t28 151q0 128 -81 191t-237 63h-236zM336 641l-79 -641h-99l173 1415h336q205 0 306.5 -81.5t101.5 -236.5q0 -92 -30 -168.5t-85 -134t-132.5 -93.5t-171.5 -48q21 -15 35 -39l369 -614h-85q-30 0 -45 25l-341 576 q-14 22 -30.5 31t-53.5 9h-169z"/>
<glyph glyph-name="S" horiz-adv-x="962" unicode="S" d="M916 1244q-11 -17 -26 -17q-12 0 -29 19t-46.5 41.5t-76 41.5t-116.5 19q-76 0 -135.5 -24.5t-101 -67t-63.5 -99t-22 -120.5q0 -61 25 -102.5t65.5 -71t92 -51t106 -42t106 -45t92 -59.5t65.5 -85t25 -123q0 -96 -33 -182.5t-94.5 -151t-149.5 -102.5t-197 -38 q-128 0 -216 49.5t-148 135.5l33 43q14 14 28 14q9 0 20.5 -12t28 -29.5t39 -38t54.5 -38t74.5 -29.5t98.5 -12q84 0 152 28.5t116 78.5t73.5 117.5t25.5 145.5q0 62 -25 103.5t-65.5 70.5t-92 49t-105.5 40t-106 44t-92.5 59.5t-65 87t-24.5 126.5q0 81 29 156t83.5 132.5 t133.5 91.5t180 34q102 0 179 -37.5t133 -109.5z"/>
<glyph glyph-name="T" horiz-adv-x="1077" unicode="T" d="M1158 1415l-10 -84h-456l-163 -1331h-99l163 1331h-458l10 84h1013z"/>
<glyph glyph-name="U" horiz-adv-x="1349" unicode="U" d="M623 70q93 0 171 36t136.5 99t96.5 149t50 185l107 876h100l-108 -876q-15 -117 -61.5 -218.5t-120 -176.5t-170.5 -118t-212 -43q-103 0 -183.5 35.5t-136 97.5t-84.5 147.5t-29 186.5q0 44 6 89l107 876h100l-108 -875q-2 -20 -3.5 -40t-1.5 -40q0 -84 22.5 -155.5 t66 -123.5t107.5 -81.5t148 -29.5z"/>
<glyph glyph-name="V" horiz-adv-x="1191" unicode="V" d="M127 1415h79q14 0 21.5 -7.5t10.5 -18.5l294 -1181q5 -21 10 -45t8 -50q9 26 18.5 50t20.5 45l583 1181q5 11 15.5 18.5t24.5 7.5h78l-710 -1415h-89z"/>
<glyph glyph-name="W" horiz-adv-x="1819" unicode="W" d="M129 1415h78q29 0 32 -26l187 -1176q3 -19 4 -39.5t3 -42.5q7 22 14.5 42.5t15.5 39.5l511 1176q5 11 15 18.5t24 7.5h22q27 0 32 -26l222 -1176q3 -18 5 -38.5t4 -41.5q7 21 13.5 41.5t13.5 38.5l475 1176q4 11 15.5 18.5t25.5 7.5h77l-584 -1415h-89l-231 1233 q-2 11 -3.5 24t-3.5 27q-5 -14 -9.5 -27t-9.5 -24l-534 -1233h-89z"/>
<glyph glyph-name="X" horiz-adv-x="1108" unicode="X" d="M518 756l-350 659h89q14 0 20.5 -5t11.5 -16l301 -587q7 14 15 26l432 564q14 18 32 18h99l-512 -654l396 -761h-89q-14 0 -20.5 8t-10.5 16l-346 679l-6 -12q-3 -6 -8 -11l-500 -656q-9 -11 -18.5 -17.5t-21.5 -6.5h-98z"/>
<glyph glyph-name="Y" horiz-adv-x="1107" unicode="Y" d="M615 583l-73 -583h-99l73 584l-381 831h88q14 0 21.5 -7t12.5 -18l299 -668q8 -17 12 -33.5t7 -32.5q8 17 17 33t20 33l464 668q7 11 16 18t23 7h83z"/>
<glyph glyph-name="Z" horiz-adv-x="1165" unicode="Z" d="M1185 1415l-5 -33q-2 -9 -5.5 -16t-10.5 -15l-974 -1269h824l-11 -82h-959l4 33q1 8 5.5 14.5t9.5 14.5l976 1271h-807l11 82h942z"/>
<glyph glyph-name="bracketleft" horiz-adv-x="552" unicode="[" d="M68 -263l218 1779h294l-4 -35q-2 -12 -10.5 -19.5t-21.5 -7.5h-187l-204 -1654h188q12 0 19 -6.5t7 -17.5q0 -1 -0.5 -6.5t-4.5 -32.5h-294z"/>
<glyph glyph-name="backslash" horiz-adv-x="659" unicode="\" d="M113 1445h39q39 0 48 -36l384 -1493h-37q-17 0 -31.5 9t-19.5 28z"/>
<glyph glyph-name="bracketright" horiz-adv-x="552" unicode="]" d="M223 1516h296l-219 -1779h-295l4 35q2 12 10.5 20t22.5 8h187l203 1654h-187q-26 0 -26 23z"/>
<glyph glyph-name="asciicircum" d="M604 1415h59l341 -615h-67q-11 0 -20 6.5t-14 16.5l-241 436q-18 31 -28 62q-5 -16 -11.5 -31t-14.5 -31l-240 -436q-5 -8 -13 -15.5t-22 -7.5h-70z" unicode="^"/>
<glyph glyph-name="underscore" horiz-adv-x="726" unicode="_" d="M640 -207l-9 -65h-725l8 65h726z"/>
<glyph glyph-name="grave" horiz-adv-x="540" unicode="`" d="M216 1431q23 0 33 -7.5t18 -24.5l115 -238h-53q-21 0 -33 16l-169 254h89z"/>
<glyph glyph-name="a" horiz-adv-x="980" unicode="a" d="M343 66q57 0 112.5 32t105.5 90.5t94.5 141t79.5 182.5l50 405q-59 20 -128 20q-67 0 -130 -22.5t-118.5 -62.5t-102 -95t-80.5 -120.5t-52.5 -138.5t-18.5 -149q0 -134 45.5 -208.5t142.5 -74.5zM766 0h-46q-19 0 -26.5 9t-7.5 22l33 313q-38 -80 -83.5 -145.5 t-97 -112.5t-108.5 -73t-118 -26q-63 0 -110 24.5t-78.5 69.5t-47.5 109t-16 144q0 87 22 170.5t62.5 158.5t96.5 138t123.5 109t144.5 72t159 26q60 0 112 -10.5t103 -36.5z"/>
<glyph glyph-name="b" horiz-adv-x="1019" unicode="b" d="M661 933q-57 0 -114.5 -32t-111 -90t-100 -140t-82.5 -182l-35 -284q21 -39 48.5 -66.5t59 -44.5t65 -24.5t68.5 -7.5q63 0 117.5 25.5t99 69.5t79 102.5t58 123.5t36 133.5t12.5 133.5q0 134 -51 208.5t-149 74.5zM102 0l176 1455h93l-97 -796q39 79 87 143.5t101 110.5 t111.5 71.5t118.5 25.5q65 0 114 -25t82 -70.5t50 -110.5t17 -145q0 -77 -16 -156.5t-45.5 -154t-72 -140.5t-96.5 -115t-118.5 -77.5t-136.5 -28.5q-85 0 -155 38.5t-112 114.5l-19 -108q-3 -17 -10 -24.5t-25 -7.5h-47z"/>
<glyph glyph-name="c" horiz-adv-x="861" unicode="c" d="M797 182q-53 -59 -100.5 -97t-93 -60t-92.5 -30t-100 -8q-86 0 -149.5 29.5t-105.5 82.5t-63 126t-21 159q0 79 16.5 156.5t47.5 147.5t75 129t99 102t119.5 67.5t137.5 24.5q49 0 88.5 -9.5t72.5 -27t60 -42.5t50 -56l-28 -33q-9 -11 -21 -11q-10 0 -24.5 16t-39 34.5 t-63.5 34.5t-98 16q-84 0 -156.5 -45t-126 -121t-84 -175.5t-30.5 -207.5q0 -69 15.5 -128t48 -102t81.5 -67t116 -24q53 0 95 11.5t74.5 28.5t57 37.5t43.5 37.5t32.5 28.5t24.5 11.5t21 -10z"/>
<glyph glyph-name="d" horiz-adv-x="1021" unicode="d" d="M358 64q57 0 114 31.5t110.5 89.5t100 139.5t82.5 180.5l35 288q-43 78 -107 110t-133 32q-63 0 -117.5 -25.5t-99 -69.5t-79 -102t-58 -123t-36 -134t-12.5 -133q0 -134 51 -209t149 -75zM751 0q-19 0 -26.5 9t-7.5 22l33 317q-39 -81 -87.5 -147.5t-102.5 -114 t-113 -73.5t-120 -26q-65 0 -114 25t-82 71t-50 111t-17 146q0 76 16 155.5t45.5 154t72 140t96.5 114.5t118 77.5t137 28.5q81 0 149 -35.5t112 -106.5l73 587h92l-178 -1455h-46z"/>
<glyph glyph-name="e" horiz-adv-x="895" unicode="e" d="M568 939q-80 0 -144.5 -34t-114 -90.5t-83 -131t-49.5 -155.5q127 14 219 32.5t156 39t103.5 44.5t61.5 49.5t29.5 52.5t7.5 56q0 21 -9.5 45.5t-31.5 44.5t-57.5 33.5t-87.5 13.5zM838 805q0 -41 -11 -78t-39 -70t-76 -62.5t-123 -54t-179 -44t-244 -34.5 q-2 -21 -3 -41.5t-1 -40.5q0 -149 67.5 -233t203.5 -84q53 0 95.5 11.5t76 29.5t59 38t45.5 38t34.5 29.5t26.5 11.5t21 -10l22 -26q-49 -52 -95.5 -89.5t-94 -61.5t-98.5 -35.5t-109 -11.5q-83 0 -147.5 27.5t-108.5 78t-67 123t-23 162.5q0 75 15 151t44.5 146t73 131 t99.5 106t124 71t147 26q73 0 123.5 -20.5t82 -51t45.5 -66t14 -66.5z"/>
<glyph glyph-name="f" horiz-adv-x="568" unicode="f" d="M306 894l-106 -873l-42 -230q-4 -22 -17 -31.5t-32 -9.5h-35l140 1143l-126 8q-22 2 -22 22q0 1 0.5 6.5t3.5 34.5h152l16 126q10 85 39 149.5t72.5 107.5t98.5 64.5t118 21.5q28 0 56 -5.5t50 -15.5l-10 -48q-1 -11 -15 -11q-11 0 -31 4t-46 4q-45 0 -85.5 -15 t-72 -47.5t-54 -84.5t-31.5 -127l-16 -123h282l-10 -70h-277z"/>
<glyph glyph-name="g" horiz-adv-x="881" unicode="g" d="M405 425q64 0 114.5 27t85.5 70.5t53 99t18 111.5q0 104 -55 156.5t-148 52.5q-64 0 -114 -25.5t-84.5 -67.5t-52.5 -96.5t-18 -111.5q0 -106 54 -161t147 -55zM654 -52q0 49 -16 84t-39 64l1 -3q-49 8 -93 11t-85 3q-99 0 -172 -18.5t-121.5 -50t-73 -73.5t-24.5 -88 q0 -43 19.5 -76.5t55.5 -56t87 -34.5t113 -12q78 0 142 21t109.5 56t70.5 80t26 93zM762 736q-1 -55 -14.5 -100t-33.5 -82.5t-43.5 -70t-43.5 -63.5t-33 -63t-13 -68q0 -30 12 -55.5t29.5 -49.5t38.5 -48.5t38.5 -51.5t29.5 -59t12 -71q0 -63 -32 -121.5t-90 -103.5 t-139.5 -72t-181.5 -27q-79 0 -144.5 16t-113 46.5t-73.5 74.5t-26 100q0 72 37.5 127.5t102 93.5t150 58t183.5 20q34 0 68 -2.5t69 -7.5q-17 23 -28.5 49t-11.5 58q0 35 12 71t46 87q-41 -28 -86.5 -43t-99.5 -15q-57 0 -106 18t-84.5 53.5t-55.5 87t-20 119.5 q0 69 24.5 135.5t71 118.5t114.5 83.5t155 31.5q51 0 96 -12.5t80 -37.5h260l-4 -32q-1 -10 -7.5 -17.5t-20.5 -9.5l-162 -13q18 -31 28 -69t10 -83z"/>
<glyph glyph-name="h" horiz-adv-x="1030" unicode="h" d="M102 0l176 1455h94l-92 -760q40 75 88.5 133.5t102 99t109.5 61.5t113 21q112 0 167.5 -72t55.5 -207q0 -8 -0.5 -18.5t-3 -35.5t-7.5 -71.5t-14 -125t-22.5 -196t-33.5 -284.5h-94l75 636q6 46 6 87q0 102 -38.5 155t-121.5 53q-54 0 -110 -27.5t-108.5 -79 t-99.5 -124.5t-83 -163l-65 -537h-94z"/>
<glyph glyph-name="i" horiz-adv-x="455" unicode="i" d="M407 1338q0 -18 -7 -33.5t-19 -27.5t-27.5 -19t-31.5 -7q-17 0 -32 7t-26.5 19t-18.5 27.5t-7 33.5t7 34t18.5 28.5t26.5 19.5t32 7q16 0 31.5 -7t27.5 -19t19 -28.5t7 -34.5zM334 995l-121 -995h-93l121 995h93z"/>
<glyph glyph-name="j" horiz-adv-x="440" unicode="j" d="M405 1338q0 -18 -7.5 -33.5t-19.5 -27.5t-27.5 -19t-31.5 -7q-17 0 -32 7t-26 19t-18 27.5t-7 33.5t7 34t18.5 28.5t26.5 19.5t32 7q16 0 31.5 -7t27.5 -19t19 -28.5t7 -34.5zM330 995l-138 -1122q-6 -52 -26 -96t-51.5 -76.5t-75 -51t-96.5 -18.5q-29 0 -49.5 5 t-40.5 16l5 22q5 22 8.5 30t11.5 8t21 -4t35 -4q74 0 115 44t51 125l138 1122h92z"/>
<glyph glyph-name="k" horiz-adv-x="888" unicode="k" d="M370 1455l-109 -887h37q18 0 29 4.5t26 18.5l412 379q12 11 23 18t28 7h82l-455 -417q-11 -10 -20.5 -18.5t-20.5 -14.5q14 -8 23 -19t18 -24l364 -502h-80q-14 0 -23 5t-18 18l-330 448q-14 18 -27 24.5t-40 6.5h-36l-61 -502h-93l178 1455h93z"/>
<glyph glyph-name="l" horiz-adv-x="448" unicode="l" d="M117 0l176 1455h93l-177 -1455h-92z"/>
<glyph glyph-name="m" horiz-adv-x="1551" unicode="m" d="M94 0l120 998h43q35 0 35 -36l-28 -278q78 155 180 240.5t215 85.5q100 0 142.5 -63t42.5 -181q0 -34 -3 -73q39 80 85.5 139.5t98 99t105.5 59t107 19.5q107 0 154 -67.5t47 -192.5q0 -10 -0.5 -22.5t-3 -39.5t-7.5 -74.5t-14 -127.5t-23 -198.5t-34 -287.5h-93l75 636 q4 31 6 58.5t2 52.5q0 90 -31 136.5t-108 46.5q-49 0 -99.5 -22.5t-99 -67.5t-92 -113t-78.5 -160l-67 -567h-93l75 636q9 69 9 123q0 84 -29 127.5t-103 43.5q-114 0 -210.5 -104t-169.5 -294l-63 -532h-93z"/>
<glyph glyph-name="n" horiz-adv-x="1024" unicode="n" d="M94 0l120 998h43q34 0 34 -36l-29 -288q41 79 90.5 141.5t104.5 106t113 66t117 22.5q111 0 167 -73t56 -209q0 -9 -0.5 -20.5t-3 -36.5t-7.5 -70.5t-14 -123t-22.5 -194t-33.5 -283.5h-94l75 636q6 46 6 87q0 101 -38.5 154t-121.5 53q-56 0 -113 -28.5t-110.5 -81 t-100.5 -127t-83 -167.5l-61 -526h-94z"/>
<glyph glyph-name="o" horiz-adv-x="988" unicode="o" d="M426 -13q-80 0 -145.5 28t-112 81t-72 128.5t-25.5 171.5q0 121 36 232.5t101.5 196.5t155.5 135.5t198 50.5q80 0 145.5 -28.5t112 -81t72 -128.5t25.5 -170q0 -121 -36.5 -232t-101.5 -196.5t-155 -136.5t-198 -51zM434 62q87 0 158.5 45.5t122.5 121t78.5 173 t27.5 200.5q0 160 -71 247t-197 87q-58 0 -109 -20.5t-94 -57.5t-77.5 -87.5t-58 -110.5t-36 -127t-12.5 -137q0 -159 70.5 -246.5t197.5 -87.5z"/>
<glyph glyph-name="p" horiz-adv-x="1009" unicode="p" d="M653 933q-57 0 -114.5 -31.5t-110.5 -89.5t-100 -139.5t-83 -181.5l-35 -286q44 -79 108 -111t133 -32q63 0 117.5 25.5t99 69.5t79 102.5t58 123.5t36 133.5t12.5 133.5q0 134 -51 208.5t-149 74.5zM50 -352l164 1350h43q35 0 35 -36l-32 -313q39 81 87.5 147.5t103 114 t113.5 73.5t120 26q65 0 114 -25t82 -70.5t50 -110.5t17 -145q0 -77 -16 -156.5t-45.5 -154t-72 -140.5t-96.5 -115t-118.5 -77.5t-136.5 -28.5q-81 0 -149.5 36t-111.5 106l-59 -481h-92z"/>
<glyph glyph-name="q" horiz-adv-x="980" unicode="q" d="M343 66q57 0 111.5 31.5t104.5 89.5t94 139t79 180l1 3l52 408q-59 20 -128 20q-67 0 -130 -22.5t-118.5 -62.5t-102 -95t-80.5 -120.5t-52.5 -138.5t-18.5 -149q0 -134 45.5 -208.5t142.5 -74.5zM722 -352h-54q-20 0 -28.5 11t-8.5 29q0 8 1 13l79 627 q-38 -77 -82.5 -139.5t-95 -107.5t-106 -69.5t-115.5 -24.5q-63 0 -110 24.5t-78.5 69.5t-47.5 109t-16 144q0 87 22 170.5t62.5 158.5t96.5 138t123.5 109t144.5 72t159 26q60 0 112 -10.5t103 -36.5z"/>
<glyph glyph-name="r" horiz-adv-x="672" unicode="r" d="M94 0l120 998h43q35 0 35 -36l-29 -296q68 163 155.5 251.5t186.5 88.5q41 0 84 -17l-17 -89q-46 17 -86 17q-107 0 -192.5 -105.5t-146.5 -304.5l-60 -507h-93z"/>
<glyph glyph-name="s" horiz-adv-x="772" unicode="s" d="M711 873q-8 -14 -22 -14q-10 0 -24.5 12.5t-39.5 28t-62 28t-92 12.5q-51 0 -96.5 -17t-79 -45.5t-53 -66t-19.5 -79.5q0 -41 19 -69t50.5 -48.5t71 -35.5t81.5 -30t81.5 -33.5t71 -44.5t50.5 -63.5t19 -90.5q0 -64 -25.5 -124t-72.5 -106.5t-113.5 -74.5t-148.5 -28 q-97 0 -162 33.5t-112 87.5l23 34q6 8 12 12t15 4q10 0 25 -16t41.5 -35.5t67.5 -35.5t103 -16q59 0 107.5 19.5t83 53.5t53.5 78.5t19 94.5q0 44 -19 74t-50 51.5t-71 36.5t-81.5 29.5t-81.5 32t-71 42.5t-50 61t-19 88q0 58 25 111.5t70 95t107 66t136 24.5q84 0 146 -26 t110 -78z"/>
<glyph glyph-name="t" horiz-adv-x="658" unicode="t" d="M175 167q0 6 0.5 15t2 27t5 46.5t8.5 72.5l68 565h-131q-20 0 -20 19l5 41l157 12l66 356q2 9 9 16t17 7h46l-47 -380h288l-8 -71h-288l-69 -562q-5 -41 -8 -67t-5 -42.5t-2.5 -24.5t-0.5 -12q0 -65 30.5 -94t78.5 -29q33 0 58.5 10.5t44.5 23t31 23t18 10.5t9 -2.5 t6 -7.5l18 -42q-40 -42 -97 -67.5t-114 -25.5q-82 0 -128.5 45t-47.5 138z"/>
<glyph glyph-name="u" horiz-adv-x="1022" unicode="u" d="M289 995l-75 -633q-6 -47 -6 -87q0 -102 38.5 -155.5t121.5 -53.5q55 0 111 28t109 80.5t100 126t83 165.5l64 529h94l-120 -995h-44q-19 0 -27.5 10t-8.5 27l30 283q-41 -79 -90.5 -141t-104 -104.5t-112.5 -65t-116 -22.5q-111 0 -166.5 73.5t-55.5 209.5q0 9 0.5 19.5 t3 36t7.5 70.5t14 122.5t22.5 193.5t33.5 283h94z"/>
<glyph glyph-name="v" horiz-adv-x="903" unicode="v" d="M83 995h73q14 0 21.5 -7.5t9.5 -16.5l203 -785q4 -23 6.5 -45t4.5 -45q13 42 34 90l397 785q5 11 14.5 17.5t20.5 6.5h71l-510 -995h-78z"/>
<glyph glyph-name="w" horiz-adv-x="1363" unicode="w" d="M86 995h67q25 0 30 -24l134 -785q4 -22 4.5 -42.5t0.5 -40.5q8 20 16 40.5t17 42.5l342 792q8 22 30 22h36q22 0 25 -22l147 -792q5 -23 6.5 -44t3.5 -42q6 21 13 42t17 44l326 785q5 11 13.5 17.5t19.5 6.5h66l-426 -995h-68q-15 0 -19 21l-153 808q-5 25 -5 46 q-7 -22 -18 -46l-352 -808q-8 -21 -24 -21h-66z"/>
<glyph glyph-name="x" horiz-adv-x="854" unicode="x" d="M371 532l-251 463h80q13 0 19 -3.5t11 -11.5l209 -398q7 15 16 27l288 369q7 8 12.5 12.5t14.5 4.5h84l-365 -464l279 -531h-80q-13 0 -20.5 5.5t-12.5 16.5l-235 456q-6 -15 -15 -27l-334 -431q-7 -8 -14.5 -14t-19.5 -6h-80z"/>
<glyph glyph-name="y" horiz-adv-x="903" unicode="y" d="M251 -324q-14 -28 -41 -28h-67l210 389l-267 958h74q14 0 20.5 -6.5t9.5 -17.5l210 -774q4 -15 5.5 -30t3.5 -30q6 15 12.5 30.5t14.5 29.5l401 777q5 11 14 16t18 5h73z"/>
<glyph glyph-name="z" horiz-adv-x="838" unicode="z" d="M822 955q-3 -20 -18 -38l-671 -842h559l-9 -75h-674l4 38q1 8 6 18t13 19l673 845h-554l10 75h667z"/>
<glyph glyph-name="braceleft" horiz-adv-x="552" unicode="{" d="M196 467q0 57 -34 93.5t-91 36.5l7 59q74 0 120 58t46 177q0 60 -7 129.5t-7 129.5q0 85 21.5 152.5t60.5 115t94.5 73t124.5 25.5h51l-4 -40q-2 -11 -11 -16.5t-17 -5.5h-29q-58 0 -98 -25.5t-64.5 -68.5t-35 -98t-10.5 -113q0 -66 4.5 -132t4.5 -128q0 -45 -8 -87 t-27.5 -77t-51 -60.5t-77.5 -38.5q24 -6 45 -19.5t36.5 -34t25 -47t9.5 -58.5q0 -61 -17 -120t-37.5 -118.5t-37.5 -121t-17 -126.5q0 -41 11 -74t30.5 -57t47.5 -37t63 -13h31q7 0 14 -5t7 -15v-1q0 -1 -0.5 -5.5t-1.5 -13t-3 -23.5h-51q-56 0 -98.5 18.5t-71.5 51.5 t-44 77.5t-15 96.5q0 68 17.5 129.5t38.5 120t38.5 116.5t17.5 120z"/>
<glyph glyph-name="bar" horiz-adv-x="600" unicode="|" d="M202 1517h75v-1869h-75v1869z"/>
<glyph glyph-name="braceright" horiz-adv-x="552" unicode="}" d="M389 786q0 -57 34 -93.5t91 -36.5l-7 -59q-74 0 -120 -58t-46 -177q0 -60 7 -129.5t7 -129.5q0 -85 -21.5 -152.5t-60.5 -115t-94.5 -73t-124.5 -25.5h-51l4 40q2 11 11 16.5t17 5.5h29q58 0 98 25.5t64.5 68.5t35 97.5t10.5 113.5q0 66 -4.5 132t-4.5 128q0 45 8 87 t27.5 77t50.5 60.5t78 38.5q-24 6 -45 19.5t-36.5 33.5t-25 47t-9.5 59q0 61 17 120t37.5 118.5t37.5 121t17 126.5q0 40 -11 73.5t-30.5 57.5t-48 37t-62.5 13h-31q-7 0 -14 5t-7 15v1q0 1 0.5 5.5t1.5 13t3 23.5h51q55 0 98 -18.5t72 -51.5t44 -77.5t15 -96.5 q0 -68 -17.5 -129.5t-38.5 -120t-38.5 -116.5t-17.5 -120z"/>
<glyph glyph-name="asciitilde" d="M719 567q37 0 67.5 13.5t51.5 37.5t32.5 57t11.5 72h78q0 -55 -16 -102t-46 -82t-74 -55t-100 -20q-51 0 -104.5 19.5t-106 43.5t-101.5 43.5t-92 19.5q-38 0 -67.5 -13.5t-50.5 -37.5t-32.5 -57t-12.5 -72h-77q0 55 16 102t46 82t73.5 55t99.5 20q52 0 105.5 -19.5 t105.5 -43.5t101 -43.5t92 -19.5z" unicode="~"/>
<glyph glyph-name="uni00A0" horiz-adv-x="386" unicode=" "/>
<glyph glyph-name="exclamdown" horiz-adv-x="596" unicode="¡" d="M256 917q0 39 26.5 66.5t65.5 27.5q19 0 36.5 -7.5t30 -20t20 -30t7.5 -36.5q0 -39 -27.5 -65.5t-66.5 -26.5t-65.5 26.5t-26.5 65.5zM171 -352l68 550q6 45 11 85t11 81.5t12.5 87.5t14.5 102h41q-6 -56 -10.5 -102t-9 -87.5t-9 -81.5t-9.5 -85l-67 -550h-53z"/>
<glyph glyph-name="cent" d="M246 425q0 -81 20.5 -145.5t58.5 -111t92.5 -74t123.5 -33.5l150 876q-105 -3 -187.5 -40t-139.5 -103.5t-87.5 -160t-30.5 -208.5zM529 -12q-86 6 -155 38t-118 87.5t-75 133t-26 173.5q0 129 38 236.5t109 185.5t172.5 122t229.5 46l35 207q2 12 11 21.5t22 9.5h35 l-41 -240q86 -8 151 -37.5t111 -74.5l-27 -32q-5 -5 -10 -8t-13 -3q-9 0 -24 11t-41 25.5t-65 28t-95 18.5l-150 -877q75 2 129 19t90.5 36.5t57.5 35.5t32 16t17 -9l21 -30q-26 -28 -63 -52.5t-83.5 -43t-100.5 -30t-112 -13.5l-36 -211q-2 -13 -10.5 -21.5t-21.5 -8.5h-35 z" unicode="¢"/>
<glyph glyph-name="sterling" d="M865 661q-2 -12 -11 -20t-23 -8h-475l-39 -322q-5 -44 -16 -79t-28.5 -63.5t-41 -52t-54.5 -43.5q22 4 42.5 6t43.5 2h791l-4 -39q-2 -15 -15.5 -28.5t-32.5 -13.5h-971l8 64q36 13 66.5 30.5t54 43.5t39 62.5t21.5 89.5l42 343h-176l4 37q2 11 11 19t23 8h146l36 297 q11 93 49 173t99 138.5t144 92t185 33.5q80 0 138.5 -18.5t99 -50t66.5 -74.5t42 -91l-40 -22q-12 -5 -21 -5q-17 0 -28 17q-16 32 -35 62t-48.5 53t-73.5 36.5t-109 13.5q-78 0 -143 -26t-113 -73.5t-78.5 -113t-39.5 -144.5l-36 -298h505z" unicode="£"/>
<glyph glyph-name="currency" d="M349 671q0 -56 21.5 -105t58 -85.5t85.5 -58t105 -21.5q57 0 106.5 21.5t86.5 58t58.5 85.5t21.5 105t-21.5 105.5t-58.5 86.5t-86.5 58.5t-106.5 21.5q-56 0 -105 -21.5t-85.5 -58.5t-58 -86.5t-21.5 -105.5zM277 671q0 62 20 116.5t55 99.5l-154 154l50 50l153 -155 q45 37 100 58t118 21q62 0 117 -20.5t100 -56.5l154 154l49 -50l-154 -153q37 -45 57.5 -100t20.5 -118q0 -62 -20.5 -116.5t-55.5 -99.5l153 -154l-49 -50l-154 154q-45 -36 -100 -56.5t-118 -20.5q-62 0 -116.5 20t-98.5 56l-155 -154l-49 50l154 154q-36 45 -56.5 99.5 t-20.5 117.5z" unicode="¤"/>
<glyph glyph-name="yen" d="M176 616h347l-323 799h77q25 0 34 -25l266 -668q8 -20 11.5 -37.5t5.5 -34.5q7 17 14 34.5t20 37.5l430 668q7 11 17 18t24 7h78l-521 -799h347l-7 -57h-367l-15 -118h367l-6 -56h-367l-47 -385h-93l47 385h-367l7 56h366l15 118h-366z" unicode="¥"/>
<glyph glyph-name="brokenbar" horiz-adv-x="600" unicode="¦" d="M202 425h75v-777h-75v777zM202 1517h75v-778h-75v778z"/>
<glyph glyph-name="section" horiz-adv-x="922" unicode="§" d="M236 710q0 -38 16.5 -68t44.5 -55t64.5 -46.5t76.5 -41.5t81 -41.5t77 -45.5q78 38 111.5 91.5t33.5 122.5q0 40 -15 71.5t-40 57t-58.5 46.5t-70.5 40t-75 38t-73 41q-96 -43 -134.5 -94.5t-38.5 -115.5zM843 1292q-9 -13 -23 -13q-11 0 -25.5 12.5t-39 28t-61 28 t-91.5 12.5q-54 0 -99.5 -17.5t-78.5 -46.5t-51.5 -68t-18.5 -81q0 -41 20 -72t53 -56.5t75.5 -47.5t86.5 -44.5t86.5 -48t75.5 -58t53 -73.5t20 -96q0 -94 -47 -163t-140 -107q40 -34 65 -76.5t25 -101.5q0 -68 -25 -128.5t-71.5 -106.5t-114 -72.5t-151.5 -26.5 q-97 0 -163.5 33t-114.5 87l26 34q10 15 29 15q12 0 27.5 -16t41.5 -34.5t66 -34.5t102 -16t111 19.5t83 53t52 78t18 94.5q0 61 -36.5 102.5t-91 73.5t-118.5 61t-118.5 64.5t-91 84t-36.5 119.5q0 85 50 154t163 110q-42 33 -68 76t-26 105q0 59 25 113t70 95t107.5 65.5 t138.5 24.5q83 0 144.5 -26t109.5 -79z"/>
<glyph glyph-name="dieresis" horiz-adv-x="540" unicode="¨" d="M625 1306q0 -16 -7 -30.5t-18 -25.5t-26 -17.5t-31 -6.5q-17 0 -32 6.5t-26 17.5t-17.5 25.5t-6.5 30.5q0 34 24 58.5t58 24.5q16 0 31 -6.5t26 -18t18 -26.5t7 -32zM283 1306q0 -16 -7 -30.5t-18.5 -25.5t-26.5 -17.5t-31 -6.5q-17 0 -31.5 6.5t-26 17.5t-18 25.5 t-6.5 30.5q0 17 6.5 32t18 26.5t26 18t31.5 6.5q16 0 31 -6.5t26.5 -18t18.5 -26.5t7 -32z"/>
<glyph glyph-name="copyright" horiz-adv-x="1613" unicode="©" d="M167 708q0 -139 51.5 -260.5t141.5 -212t210.5 -142.5t258.5 -52q92 0 177 23.5t159 67t134.5 104t104 134.5t67 159.5t23.5 178.5q0 139 -52 260.5t-142.5 212.5t-211.5 143.5t-259 52.5t-258.5 -52.5t-210.5 -143.5t-141.5 -212.5t-51.5 -260.5zM107 708q0 99 26 191.5 t73 172.5t113 146t146 113t172 73t192 26q99 0 191.5 -26t172.5 -73t146 -113t113 -146t73 -172.5t26 -191.5q0 -100 -26 -192t-73 -172t-113 -146t-146 -113t-172.5 -73t-191.5 -26t-191.5 26t-172.5 73t-146 113t-113 146t-73 172t-26 192zM1113 421q2 2 5.5 4t6.5 2 q5 0 8 -2t4 -3l34 -35q-59 -59 -139 -94t-196 -35q-96 0 -176 32.5t-137.5 91.5t-89.5 142t-32 185q0 100 33.5 183t93 142.5t142.5 92.5t182 33q52 0 95.5 -7.5t80.5 -22t69.5 -35t62.5 -47.5l-23 -33q-7 -11 -21 -11q-9 0 -25.5 13t-46 28.5t-75 28.5t-113.5 13 q-83 0 -151 -26.5t-116.5 -75.5t-75 -119t-26.5 -157q0 -90 26.5 -160t74 -118.5t112 -74t140.5 -25.5q60 0 103 9.5t74.5 23t54 29t41.5 28.5z"/>
<glyph glyph-name="ordfeminine" horiz-adv-x="619" unicode="ª" d="M318 881q61 0 106.5 26.5t88.5 67.5l16 139q-160 -5 -233 -42.5t-73 -103.5q0 -46 28.5 -66.5t66.5 -20.5zM533 839q-11 0 -17 3.5t-6 14.5v68q-52 -46 -101.5 -70.5t-115.5 -24.5q-28 0 -53 8t-44 23.5t-30 40t-11 57.5q0 42 20.5 78t66 63.5t118 44t175.5 18.5 q3 24 5 39.5t3 25t1 14.5v10q0 119 -111 119q-39 0 -67 -11t-48.5 -24t-34 -24t-23.5 -11q-8 0 -13 4t-7 9l-9 23q49 47 101.5 69.5t115.5 22.5q42 0 73 -14t51.5 -38.5t30 -57t9.5 -68.5v-8q0 -4 -1.5 -17.5t-4.5 -39.5t-8.5 -70.5t-13.5 -112t-20 -164.5h-31z"/>
<glyph glyph-name="guillemotleft" horiz-adv-x="818" unicode="«" d="M383 513l2 12l269 378l28 -14q13 -8 13 -21q0 -12 -11 -26l-202 -295q-17 -21 -26 -28q9 -8 18 -28l131 -295q5 -12 5 -19q0 -19 -19 -28l-32 -15zM146 513l2 12l269 378l28 -14q13 -8 13 -21q0 -12 -11 -26l-202 -295q-17 -21 -26 -28q9 -8 18 -28l131 -295q5 -12 5 -19 q0 -19 -19 -28l-32 -15z"/>
<glyph glyph-name="logicalnot" d="M192 706h828l-46 -366h-79l36 295h-747z" unicode="¬"/>
<glyph glyph-name="uni00AD" horiz-adv-x="612" unicode="­" d="M110 632h428l-9 -78h-430z"/>
<glyph glyph-name="registered" horiz-adv-x="1613" unicode="®" d="M652 721h148q121 0 180.5 48.5t59.5 139.5q0 92 -53.5 134t-172.5 42h-162v-364zM652 657v-391h-85v885h247q154 0 232 -57.5t78 -175.5q0 -100 -64 -164t-182 -80q12 -7 21 -17t19 -23l285 -368h-79q-19 0 -31 16l-271 351q-8 11 -20 17.5t-40 6.5h-110zM173 708 q0 -139 51.5 -260.5t141.5 -212t210.5 -142.5t258.5 -52q92 0 177 23.5t159 67t134.5 104t104 134.5t67 159.5t23.5 178.5q0 139 -52 260.5t-142.5 212.5t-211.5 143.5t-259 52.5t-258.5 -52.5t-210.5 -143.5t-141.5 -212.5t-51.5 -260.5zM113 708q0 99 26 191.5t73 172.5 t113 146t146 113t172 73t192 26t192 -26t172 -73t146 -113t113 -146t73 -172.5t26 -191.5q0 -100 -26 -192t-73 -172t-113 -146t-146 -113t-172.5 -73t-191.5 -26t-191.5 26t-172.5 73t-146 113t-113 146t-73 172t-26 192z"/>
<glyph glyph-name="macron" horiz-adv-x="540" unicode="¯" d="M121 1316h504l-8 -64h-503z"/>
<glyph glyph-name="degree" horiz-adv-x="759" unicode="°" d="M230 1134q0 -48 18 -90t49 -73t73.5 -49t90.5 -18t90 18t72.5 49t48.5 73t18 90t-18 90t-48.5 73.5t-72.5 49.5t-90 18t-90.5 -18t-73.5 -49.5t-49 -73.5t-18 -90zM161 1134q0 62 24 116.5t64.5 95t95 63.5t116.5 23q63 0 118 -23t95.5 -63.5t64 -95t23.5 -116.5 t-23.5 -116t-64 -94.5t-95.5 -64t-118 -23.5q-62 0 -116.5 23.5t-95 64t-64.5 94.5t-24 116z"/>
<glyph glyph-name="plusminus" d="M68 151h938l-8 -71h-938zM697 1151l-50 -406h433l-9 -71h-433l-49 -404h-76l49 404h-429l8 71h430l50 406h76z" unicode="±"/>
<glyph glyph-name="twosuperior" horiz-adv-x="662" unicode="²" d="M476 1622q40 0 74.5 -11t60 -33t39.5 -53.5t14 -73.5q0 -45 -15.5 -83t-41 -72t-59 -65.5t-70.5 -64.5l-235 -212q19 5 39 7.5t39 2.5h278q22 0 22 -20q0 -2 -1 -9t-2 -15l-2 -20h-473l2 24q2 16 17 30l266 237q34 31 64.5 60.5t52.5 60.5t35 63t13 68q0 31 -10 53.5 t-27.5 37.5t-41 22.5t-49.5 7.5q-57 0 -102 -33t-68 -94q-4 -11 -11 -15t-18 -4q-6 0 -9 1l-36 6q25 96 93.5 146.5t161.5 50.5z"/>
<glyph glyph-name="threesuperior" horiz-adv-x="662" unicode="³" d="M494 1622q40 0 74 -11t59 -31.5t39 -50.5t14 -68q0 -75 -42.5 -122.5t-111.5 -66.5q64 -15 96.5 -52.5t32.5 -94.5q0 -53 -21.5 -95.5t-57.5 -73.5t-83 -47.5t-98 -16.5q-60 0 -99 15t-63.5 40.5t-37 59t-19.5 69.5l32 13q9 3 17 3q20 0 24 -22q2 -12 8.5 -32t22.5 -39.5 t44.5 -34t74.5 -14.5q44 0 78.5 15t58 39t36 53.5t12.5 59.5q0 28 -9.5 50.5t-31 39t-55.5 25.5t-82 9l6 50q97 2 147.5 43t50.5 113q0 30 -10 51.5t-27 36t-40 21.5t-50 7q-63 0 -105 -33t-65 -92q-9 -20 -26 -20q-6 0 -9 1l-36 6q12 48 36.5 84.5t57.5 61.5t73 38t85 13z "/>
<glyph glyph-name="acute" horiz-adv-x="540" unicode="´" d="M596 1431l-232 -254q-15 -16 -37 -16h-55l173 238q13 17 25 24.5t35 7.5h91z"/>
<glyph glyph-name="mu" horiz-adv-x="997" unicode="µ" d="M280 995l-82 -669q-1 -5 -1 -12v-26q0 -109 49.5 -169.5t155.5 -60.5q88 0 170 49t154 137l93 751h91l-122 -995h-51q-25 0 -25 23v4q1 5 1.5 20.5t2.5 45t5 80.5q-75 -88 -157.5 -133.5t-175.5 -45.5q-88 0 -143 37t-81 105q-2 -42 -5.5 -83t-8.5 -76l-40 -329h-46 q-16 0 -27 9.5t-11 30.5l162 1307h92z"/>
<glyph glyph-name="paragraph" horiz-adv-x="1264" unicode="¶" d="M1332 1415l-9 -82h-226l-187 -1523h-85l187 1523h-328l-187 -1523h-86l109 889q-92 0 -165.5 22.5t-125.5 64t-80 101t-28 134.5q0 86 34.5 158t98.5 124.5t154 82t200 29.5h724z"/>
<glyph glyph-name="periodcentered" horiz-adv-x="532" unicode="·" d="M192 592q0 21 8 40t21.5 33t31.5 22t38 8q21 0 40 -8t33 -22t22 -33t8 -40q0 -20 -8 -38.5t-22 -32t-33 -21.5t-40 -8q-20 0 -38 8t-31.5 21.5t-21.5 32t-8 38.5z"/>
<glyph glyph-name="cedilla" horiz-adv-x="540" unicode="¸" d="M52 -274q5 0 12.5 -5.5t19 -12t29 -12t43.5 -5.5q51 0 80 25t29 67q0 22 -11 37t-31 25t-48 15.5t-62 10.5l56 134h58l-39 -97q74 -14 113 -41.5t39 -78.5q0 -33 -14.5 -59.5t-39.5 -45t-59.5 -28.5t-74.5 -10q-38 0 -72 11.5t-57 31.5l13 27q8 11 16 11z"/>
<glyph glyph-name="onesuperior" horiz-adv-x="662" unicode="¹" d="M248 953h158l67 538l8 37l-160 -127q-8 -6 -16 -6q-13 0 -18 8l-18 31l233 183h57l-82 -664h143l-6 -53h-373z"/>
<glyph glyph-name="ordmasculine" horiz-adv-x="689" unicode="º" d="M394 883q55 0 97 21t70 59.5t42.5 92.5t14.5 120q0 89 -41 142.5t-123 53.5q-58 0 -100.5 -21.5t-70.5 -60.5t-41.5 -93t-13.5 -119q0 -89 41 -142t125 -53zM460 1429q55 0 97.5 -18t72 -51.5t45 -80t15.5 -103.5q0 -79 -21.5 -143.5t-61 -110t-95.5 -70.5t-125 -25 q-56 0 -99 18t-72.5 51t-45 79.5t-15.5 103.5q0 79 21.5 143.5t61 110.5t96 71t126.5 25z"/>
<glyph glyph-name="guillemotright" horiz-adv-x="818" unicode="»" d="M405 134l-27 15q-14 8 -14 21q0 12 9 26l205 295q12 19 23 28q-8 6 -17 28l-132 295q-4 8 -4 16q0 21 20 31l31 14l175 -378l-1 -12zM168 134l-27 15q-14 8 -14 21q0 12 9 26l205 295q12 19 23 28q-8 6 -17 28l-132 295q-4 8 -4 16q0 21 20 31l31 14l175 -378l-1 -12z "/>
<glyph glyph-name="onequarter" horiz-adv-x="1475" unicode="¼" d="M1230 585q2 12 4 25.5t6 28.5l-336 -388h285zM220 754h158l67 538l8 37l-149 -119q-12 -10 -18 -12t-10 -2q-12 0 -17 8l-18 31l233 183h57l-82 -664h143l-6 -53h-373zM419 31q-12 -19 -26 -25t-31 -6h-38l907 1380q22 35 58 35h40zM1249 251h127l-3 -39q-2 -16 -20 -16 h-110l-24 -196h-61l24 196h-326q-23 0 -23 16l-2 34l410 468h65z"/>
<glyph glyph-name="onehalf" horiz-adv-x="1475" unicode="½" d="M220 754h158l67 538l8 37l-149 -119q-12 -10 -18 -12t-10 -2q-12 0 -17 8l-18 31l233 183h57l-82 -664h143l-6 -53h-373zM1164 722q40 0 74.5 -11t60 -33t39.5 -53.5t14 -73.5q0 -45 -15.5 -83t-41 -72t-59 -65.5t-70.5 -64.5l-235 -212q19 5 39 7.5t39 2.5h278 q22 0 22 -19v-3q0 -2 -1 -10l-4 -32h-473l2 24q2 7 5.5 15t11.5 15l266 237q34 31 64.5 60.5t52.5 60.5t35 63t13 68q0 31 -10 53.5t-27.5 37.5t-41 22.5t-49.5 7.5q-62 0 -106 -35t-64 -92q-7 -18 -28 -18h-8q-6 0 -14 2l-24 4q25 96 93.5 146.5t161.5 50.5zM375 31 q-12 -19 -26 -25t-31 -6h-38l907 1380q22 35 58 35h40z"/>
<glyph glyph-name="threequarters" horiz-adv-x="1475" unicode="¾" d="M1248 585q2 12 4 25.5t6 28.5l-336 -388h285zM482 1423q40 0 74 -11t59 -31.5t39 -50.5t14 -68q0 -75 -42.5 -122.5t-111.5 -66.5q64 -15 96.5 -52.5t32.5 -94.5q0 -53 -21.5 -95.5t-57.5 -73.5t-83 -47.5t-98 -16.5q-60 0 -99 15t-63.5 40.5t-37 59t-19.5 69.5l32 13 q9 3 17 3t14 -3.5t8 -11.5q5 -22 13.5 -44.5t25.5 -41t44 -30t69 -11.5q44 0 78.5 15t58 39t36 53.5t12.5 59.5q0 28 -9.5 50.5t-31 39t-55.5 25.5t-82 9l6 50q97 2 147.5 43t50.5 113q0 30 -10 51.5t-27 36t-40 21.5t-50 7q-63 0 -106 -34.5t-64 -90.5q-9 -20 -25 -20h-6 q-3 0 -12 2l-28 5q12 48 36.5 84.5t57.5 61.5t73 38t85 13zM445 31q-12 -19 -26 -25t-31 -6h-38l907 1380q22 35 58 35h40zM1267 251h127l-3 -39q-2 -8 -6.5 -12t-13.5 -4h-110l-24 -196h-61l24 196h-326q-23 0 -23 16l-2 34l410 468h65z"/>
<glyph glyph-name="questiondown" horiz-adv-x="685" unicode="¿" d="M343 918q0 19 7 36t19.5 29.5t29 20t36.5 7.5q19 0 36 -7.5t29.5 -20t20 -29.5t7.5 -36q0 -20 -7.5 -36.5t-20 -29t-29.5 -19.5t-36 -7q-39 0 -65.5 26.5t-26.5 65.5zM571 -224q-29 -27 -63 -52.5t-74 -45t-86 -31t-98 -11.5q-59 0 -110.5 18.5t-89.5 52.5t-59.5 83 t-21.5 111q0 82 24.5 140t62 99.5t82.5 72t85 57.5t69.5 55t36.5 65l32 164h62l-15 -171q-4 -43 -31 -74.5t-65.5 -60t-82.5 -57t-81.5 -66t-62 -88t-24.5 -121.5q0 -48 16.5 -86t44.5 -64.5t65.5 -40t78.5 -13.5q61 0 107.5 18t79.5 39t52.5 39t26.5 18q8 0 12 -3.5t7 -8.5 z"/>
<glyph glyph-name="Agrave" horiz-adv-x="1180" unicode="À" d="M551 1770q23 0 33.5 -4.5t21.5 -17.5l183 -206h-73q-12 0 -19 3.5t-16 11.5l-238 213h108zM303 513h581l-175 720q-5 17 -9.5 38t-7.5 44q-2 -6 -7.5 -18.5t-11.5 -25.5t-11 -24t-7 -15zM1112 0h-76q-14 0 -22.5 7.5t-11.5 18.5l-101 414h-634l-202 -414 q-5 -11 -16 -18.5t-25 -7.5h-76l707 1415h98z"/>
<glyph glyph-name="Aacute" horiz-adv-x="1180" unicode="Á" d="M1031 1770l-291 -213q-11 -8 -19 -11.5t-20 -3.5h-73l234 206q14 13 25.5 17.5t34.5 4.5h109zM303 513h581l-175 720q-5 17 -9.5 38t-7.5 44q-2 -6 -7.5 -18.5t-11.5 -25.5t-11 -24t-7 -15zM1112 0h-76q-14 0 -22.5 7.5t-11.5 18.5l-101 414h-634l-202 -414 q-5 -11 -16 -18.5t-25 -7.5h-76l707 1415h98z"/>
<glyph glyph-name="Acircumflex" horiz-adv-x="1180" unicode="Â" d="M970 1542h-71q-7 0 -15.5 2.5t-13.5 7.5l-134 131l-4 4q-2 2 -3 4q-3 -5 -8 -8l-167 -131q-7 -5 -16 -7.5t-17 -2.5h-71l241 199h87zM303 513h581l-175 720q-5 17 -9.5 38t-7.5 44q-2 -6 -7.5 -18.5t-11.5 -25.5t-11 -24t-7 -15zM1112 0h-76q-14 0 -22.5 7.5t-11.5 18.5 l-101 414h-634l-202 -414q-5 -11 -16 -18.5t-25 -7.5h-76l707 1415h98z"/>
<glyph glyph-name="Atilde" horiz-adv-x="1180" unicode="Ã" d="M838 1615q38 0 61.5 27.5t30.5 70.5h52q-5 -34 -16.5 -64t-30.5 -52t-45 -34.5t-58 -12.5q-31 0 -56.5 16t-49 35t-46 35t-46.5 16q-38 0 -61.5 -28.5t-29.5 -70.5h-55q4 34 16.5 64t32 52t45.5 34.5t58 12.5q31 0 57 -16t49 -34.5t45.5 -34.5t46.5 -16zM303 513h581 l-175 720q-5 17 -9.5 38t-7.5 44q-2 -6 -7.5 -18.5t-11.5 -25.5t-11 -24t-7 -15zM1112 0h-76q-14 0 -22.5 7.5t-11.5 18.5l-101 414h-634l-202 -414q-5 -11 -16 -18.5t-25 -7.5h-76l707 1415h98z"/>
<glyph glyph-name="Adieresis" horiz-adv-x="1180" unicode="Ä" d="M963 1665q0 -31 -23 -53t-54 -22t-53.5 22t-22.5 53q0 32 22.5 54.5t53.5 22.5t54 -22.5t23 -54.5zM628 1665q0 -31 -23.5 -53t-54.5 -22q-30 0 -53 22t-23 53q0 32 23 54.5t53 22.5q31 0 54.5 -22.5t23.5 -54.5zM303 513h581l-175 720q-5 17 -9.5 38t-7.5 44 q-2 -6 -7.5 -18.5t-11.5 -25.5t-11 -24t-7 -15zM1112 0h-76q-14 0 -22.5 7.5t-11.5 18.5l-101 414h-634l-202 -414q-5 -11 -16 -18.5t-25 -7.5h-76l707 1415h98z"/>
<glyph glyph-name="Aring" horiz-adv-x="1180" unicode="Å" d="M600 1630q0 -50 31.5 -82t82.5 -32q50 0 82 32t32 82t-32 82t-82 32q-51 0 -82.5 -32t-31.5 -82zM547 1630q0 34 13.5 63.5t36 50.5t52.5 33t64 12t65 -12t53.5 -33t36 -50.5t13.5 -63.5q0 -35 -13.5 -64t-36 -50t-53.5 -32.5t-65 -11.5t-64 11.5t-52.5 32.5t-36 50 t-13.5 64zM303 513h581l-175 720q-5 17 -9.5 38t-7.5 44q-2 -6 -7.5 -18.5t-11.5 -25.5t-11 -24t-7 -15zM1112 0h-76q-14 0 -22.5 7.5t-11.5 18.5l-101 414h-634l-202 -414q-5 -11 -16 -18.5t-25 -7.5h-76l707 1415h98z"/>
<glyph glyph-name="AE" horiz-adv-x="1698" unicode="Æ" d="M343 513h500v821q-10 -25 -21 -46.5t-23 -42.5zM1687 1333h-751v-577h566l-11 -80h-555v-594h599l-12 -82h-680v440h-545l-258 -414q-7 -11 -18 -18.5t-25 -7.5h-77l887 1415h890z"/>
<glyph glyph-name="Ccedilla" horiz-adv-x="1267" unicode="Ç" d="M520 -274q5 0 12.5 -5.5t19 -12t29 -12t43.5 -5.5q51 0 80 25t29 67q0 22 -11 37t-31 25t-48 15.5t-62 10.5l47 114q-114 6 -206 53t-156.5 127t-99.5 190t-35 243q0 185 56 338.5t154.5 263.5t232 170.5t288.5 60.5q73 0 131 -11.5t106.5 -33.5t89 -55t78.5 -75l-31 -40 q-11 -12 -27 -12q-12 0 -32.5 22t-59.5 48.5t-101.5 48.5t-158.5 22q-132 0 -246 -52t-198 -148t-132.5 -233t-48.5 -307q0 -124 33 -223.5t92 -169t141.5 -106.5t180.5 -37q73 0 131 12.5t103 31t77.5 40t55.5 40t37.5 31t22.5 12.5q9 0 13 -6l35 -42q-45 -45 -95 -81.5 t-107.5 -63t-123.5 -42t-142 -17.5l-30 -76q74 -14 113 -41.5t39 -78.5q0 -33 -14.5 -59.5t-39.5 -45t-59.5 -28.5t-74.5 -10q-38 0 -72 11.5t-57 31.5l13 27q8 11 16 11z"/>
<glyph glyph-name="Egrave" horiz-adv-x="1087" unicode="È" d="M558 1770q23 0 33.5 -4.5t21.5 -17.5l183 -206h-73q-12 0 -19 3.5t-16 11.5l-238 213h108zM1076 1333h-681l-71 -576h567l-11 -80h-566l-73 -595h684l-11 -82h-783l174 1415h782z"/>
<glyph glyph-name="Eacute" horiz-adv-x="1087" unicode="É" d="M1030 1770l-291 -213q-11 -8 -19 -11.5t-20 -3.5h-73l234 206q14 13 25.5 17.5t34.5 4.5h109zM1076 1333h-681l-71 -576h567l-11 -80h-566l-73 -595h684l-11 -82h-783l174 1415h782z"/>
<glyph glyph-name="Ecircumflex" horiz-adv-x="1087" unicode="Ê" d="M977 1542h-71q-7 0 -15.5 2.5t-13.5 7.5l-134 131l-4 4q-2 2 -3 4q-3 -5 -8 -8l-167 -131q-7 -5 -16 -7.5t-17 -2.5h-71l241 199h87zM1076 1333h-681l-71 -576h567l-11 -80h-566l-73 -595h684l-11 -82h-783l174 1415h782z"/>
<glyph glyph-name="Edieresis" horiz-adv-x="1087" unicode="Ë" d="M970 1665q0 -31 -23 -53t-54 -22t-53.5 22t-22.5 53q0 32 22.5 54.5t53.5 22.5t54 -22.5t23 -54.5zM635 1665q0 -31 -23.5 -53t-54.5 -22q-30 0 -53 22t-23 53q0 32 23 54.5t53 22.5q31 0 54.5 -22.5t23.5 -54.5zM1076 1333h-681l-71 -576h567l-11 -80h-566l-73 -595h684 l-11 -82h-783l174 1415h782z"/>
<glyph glyph-name="Igrave" horiz-adv-x="550" unicode="Ì" d="M237 1770q23 0 33.5 -4.5t21.5 -17.5l183 -206h-73q-12 0 -19 3.5t-16 11.5l-238 213h108zM265 0h-100l173 1415h100z"/>
<glyph glyph-name="Iacute" horiz-adv-x="550" unicode="Í" d="M709 1770l-291 -213q-11 -8 -19 -11.5t-20 -3.5h-73l234 206q14 13 25.5 17.5t34.5 4.5h109zM265 0h-100l173 1415h100z"/>
<glyph glyph-name="Icircumflex" horiz-adv-x="550" unicode="Î" d="M656 1542h-71q-7 0 -15.5 2.5t-13.5 7.5l-134 131l-4 4q-2 2 -3 4q-3 -5 -8 -8l-167 -131q-7 -5 -16 -7.5t-17 -2.5h-71l241 199h87zM265 0h-100l173 1415h100z"/>
<glyph glyph-name="Idieresis" horiz-adv-x="550" unicode="Ï" d="M649 1665q0 -31 -23 -53t-54 -22t-53.5 22t-22.5 53q0 32 22.5 54.5t53.5 22.5t54 -22.5t23 -54.5zM314 1665q0 -31 -23.5 -53t-54.5 -22q-30 0 -53 22t-23 53q0 32 23 54.5t53 22.5q31 0 54.5 -22.5t23.5 -54.5zM265 0h-100l173 1415h100z"/>
<glyph glyph-name="Eth" horiz-adv-x="1449" unicode="Ð" d="M1273 813q0 121 -31.5 218t-90 164t-142 103t-186.5 36h-377l-72 -586h371l-7 -62h-371l-74 -605h376q132 0 242.5 49.5t191 143.5t125.5 230t45 309zM77 748h198l82 667h476q125 0 225.5 -42.5t171 -120.5t108.5 -189t38 -248q0 -187 -54 -338t-150 -257t-227.5 -163 t-285.5 -57h-476l84 686h-198z"/>
<glyph glyph-name="Ntilde" horiz-adv-x="1390" unicode="Ñ" d="M944 1615q38 0 61.5 27.5t30.5 70.5h52q-5 -34 -16.5 -64t-30.5 -52t-45 -34.5t-58 -12.5q-31 0 -56.5 16t-49 35t-46 35t-46.5 16q-38 0 -61.5 -28.5t-29.5 -70.5h-55q4 34 16.5 64t32 52t45.5 34.5t58 12.5q31 0 57 -16t49 -34.5t45.5 -34.5t46.5 -16zM354 1415 q14 0 20.5 -3.5t13.5 -15.5l686 -1232q1 14 1.5 26.5t2.5 23.5l148 1201h87l-174 -1415h-46q-25 0 -37 22l-687 1232l-3 -45l-148 -1209h-87l174 1415h49z"/>
<glyph glyph-name="Ograve" horiz-adv-x="1465" unicode="Ò" d="M691 1770q23 0 33.5 -4.5t21.5 -17.5l183 -206h-73q-12 0 -19 3.5t-16 11.5l-238 213h108zM1290 814q0 123 -31.5 221.5t-90.5 168t-142.5 107t-186.5 37.5q-130 0 -241 -52t-192.5 -149t-127.5 -235t-46 -310q0 -123 32 -221.5t91 -167.5t142 -106.5t186 -37.5 q132 0 243 51.5t192 148.5t126.5 234.5t45.5 310.5zM1393 816q0 -187 -54.5 -340t-151.5 -262t-229 -169t-286 -60q-124 0 -224 44.5t-170.5 125.5t-108.5 194t-38 250q0 186 55 339.5t151.5 263t228 169.5t284.5 60q125 0 225.5 -44.5t171 -125.5t108.5 -194.5t38 -250.5z "/>
<glyph glyph-name="Oacute" horiz-adv-x="1465" unicode="Ó" d="M1163 1770l-291 -213q-11 -8 -19 -11.5t-20 -3.5h-73l234 206q14 13 25.5 17.5t34.5 4.5h109zM1290 814q0 123 -31.5 221.5t-90.5 168t-142.5 107t-186.5 37.5q-130 0 -241 -52t-192.5 -149t-127.5 -235t-46 -310q0 -123 32 -221.5t91 -167.5t142 -106.5t186 -37.5 q132 0 243 51.5t192 148.5t126.5 234.5t45.5 310.5zM1393 816q0 -187 -54.5 -340t-151.5 -262t-229 -169t-286 -60q-124 0 -224 44.5t-170.5 125.5t-108.5 194t-38 250q0 186 55 339.5t151.5 263t228 169.5t284.5 60q125 0 225.5 -44.5t171 -125.5t108.5 -194.5t38 -250.5z "/>
<glyph glyph-name="Ocircumflex" horiz-adv-x="1465" unicode="Ô" d="M1110 1542h-71q-7 0 -15.5 2.5t-13.5 7.5l-134 131l-4 4q-2 2 -3 4q-3 -5 -8 -8l-167 -131q-7 -5 -16 -7.5t-17 -2.5h-71l241 199h87zM1290 814q0 123 -31.5 221.5t-90.5 168t-142.5 107t-186.5 37.5q-130 0 -241 -52t-192.5 -149t-127.5 -235t-46 -310q0 -123 32 -221.5 t91 -167.5t142 -106.5t186 -37.5q132 0 243 51.5t192 148.5t126.5 234.5t45.5 310.5zM1393 816q0 -187 -54.5 -340t-151.5 -262t-229 -169t-286 -60q-124 0 -224 44.5t-170.5 125.5t-108.5 194t-38 250q0 186 55 339.5t151.5 263t228 169.5t284.5 60q125 0 225.5 -44.5 t171 -125.5t108.5 -194.5t38 -250.5z"/>
<glyph glyph-name="Otilde" horiz-adv-x="1465" unicode="Õ" d="M978 1615q38 0 61.5 27.5t30.5 70.5h52q-5 -34 -16.5 -64t-30.5 -52t-45 -34.5t-58 -12.5q-31 0 -56.5 16t-49 35t-46 35t-46.5 16q-38 0 -61.5 -28.5t-29.5 -70.5h-55q4 34 16.5 64t32 52t45.5 34.5t58 12.5q31 0 57 -16t49 -34.5t45.5 -34.5t46.5 -16zM1290 814 q0 123 -31.5 221.5t-90.5 168t-142.5 107t-186.5 37.5q-130 0 -241 -52t-192.5 -149t-127.5 -235t-46 -310q0 -123 32 -221.5t91 -167.5t142 -106.5t186 -37.5q132 0 243 51.5t192 148.5t126.5 234.5t45.5 310.5zM1393 816q0 -187 -54.5 -340t-151.5 -262t-229 -169 t-286 -60q-124 0 -224 44.5t-170.5 125.5t-108.5 194t-38 250q0 186 55 339.5t151.5 263t228 169.5t284.5 60q125 0 225.5 -44.5t171 -125.5t108.5 -194.5t38 -250.5z"/>
<glyph glyph-name="Odieresis" horiz-adv-x="1465" unicode="Ö" d="M1103 1665q0 -31 -23 -53t-54 -22t-53.5 22t-22.5 53q0 32 22.5 54.5t53.5 22.5t54 -22.5t23 -54.5zM768 1665q0 -31 -23.5 -53t-54.5 -22q-30 0 -53 22t-23 53q0 32 23 54.5t53 22.5q31 0 54.5 -22.5t23.5 -54.5zM1290 814q0 123 -31.5 221.5t-90.5 168t-142.5 107 t-186.5 37.5q-130 0 -241 -52t-192.5 -149t-127.5 -235t-46 -310q0 -123 32 -221.5t91 -167.5t142 -106.5t186 -37.5q132 0 243 51.5t192 148.5t126.5 234.5t45.5 310.5zM1393 816q0 -187 -54.5 -340t-151.5 -262t-229 -169t-286 -60q-124 0 -224 44.5t-170.5 125.5 t-108.5 194t-38 250q0 186 55 339.5t151.5 263t228 169.5t284.5 60q125 0 225.5 -44.5t171 -125.5t108.5 -194.5t38 -250.5z"/>
<glyph glyph-name="multiply" d="M1065 1037l-413 -367l326 -372l-54 -51l-328 373l-422 -375l-44 51l421 375l-324 368l57 52l323 -370l413 368z" unicode="×"/>
<glyph glyph-name="Oslash" horiz-adv-x="1464" unicode="Ø" d="M1290 814q0 111 -26 201.5t-74 159.5l-803 -997q57 -54 131.5 -81.5t164.5 -27.5q132 0 243 51.5t192 148.5t126.5 234.5t45.5 310.5zM232 602q0 -118 29 -213t83 -164l805 999q-58 60 -136 92t-174 32q-130 0 -241 -52t-192.5 -149t-127.5 -235t-46 -310zM1393 816 q0 -187 -54.5 -340t-151.5 -262t-229 -169t-286 -60q-104 0 -190.5 31t-153.5 88l-144 -178q-14 -17 -31 -24t-33 -7h-41l204 253q-74 81 -113 195.5t-39 255.5q0 186 55 339.5t151.5 263t228 169.5t284.5 60q109 0 199.5 -34.5t159.5 -97.5l122 151q13 17 23 23t29 6h52 l-182 -226q68 -81 104 -192t36 -245z"/>
<glyph glyph-name="Ugrave" horiz-adv-x="1349" unicode="Ù" d="M637 1770q23 0 33.5 -4.5t21.5 -17.5l183 -206h-73q-12 0 -19 3.5t-16 11.5l-238 213h108zM623 70q93 0 171 36t136.5 99t96.5 149t50 185l107 876h100l-108 -876q-15 -117 -61.5 -218.5t-120 -176.5t-170.5 -118t-212 -43q-103 0 -183.5 35.5t-136 97.5t-84.5 147.5 t-29 186.5q0 44 6 89l107 876h100l-108 -875q-2 -20 -3.5 -40t-1.5 -40q0 -84 22.5 -155.5t66 -123.5t107.5 -81.5t148 -29.5z"/>
<glyph glyph-name="Uacute" horiz-adv-x="1349" unicode="Ú" d="M1109 1770l-291 -213q-11 -8 -19 -11.5t-20 -3.5h-73l234 206q14 13 25.5 17.5t34.5 4.5h109zM623 70q93 0 171 36t136.5 99t96.5 149t50 185l107 876h100l-108 -876q-15 -117 -61.5 -218.5t-120 -176.5t-170.5 -118t-212 -43q-103 0 -183.5 35.5t-136 97.5t-84.5 147.5 t-29 186.5q0 44 6 89l107 876h100l-108 -875q-2 -20 -3.5 -40t-1.5 -40q0 -84 22.5 -155.5t66 -123.5t107.5 -81.5t148 -29.5z"/>
<glyph glyph-name="Ucircumflex" horiz-adv-x="1349" unicode="Û" d="M1056 1542h-71q-7 0 -15.5 2.5t-13.5 7.5l-134 131l-4 4q-2 2 -3 4q-3 -5 -8 -8l-167 -131q-7 -5 -16 -7.5t-17 -2.5h-71l241 199h87zM623 70q93 0 171 36t136.5 99t96.5 149t50 185l107 876h100l-108 -876q-15 -117 -61.5 -218.5t-120 -176.5t-170.5 -118t-212 -43 q-103 0 -183.5 35.5t-136 97.5t-84.5 147.5t-29 186.5q0 44 6 89l107 876h100l-108 -875q-2 -20 -3.5 -40t-1.5 -40q0 -84 22.5 -155.5t66 -123.5t107.5 -81.5t148 -29.5z"/>
<glyph glyph-name="Udieresis" horiz-adv-x="1349" unicode="Ü" d="M1049 1665q0 -31 -23 -53t-54 -22t-53.5 22t-22.5 53q0 32 22.5 54.5t53.5 22.5t54 -22.5t23 -54.5zM714 1665q0 -31 -23.5 -53t-54.5 -22q-30 0 -53 22t-23 53q0 32 23 54.5t53 22.5q31 0 54.5 -22.5t23.5 -54.5zM623 70q93 0 171 36t136.5 99t96.5 149t50 185l107 876 h100l-108 -876q-15 -117 -61.5 -218.5t-120 -176.5t-170.5 -118t-212 -43q-103 0 -183.5 35.5t-136 97.5t-84.5 147.5t-29 186.5q0 44 6 89l107 876h100l-108 -875q-2 -20 -3.5 -40t-1.5 -40q0 -84 22.5 -155.5t66 -123.5t107.5 -81.5t148 -29.5z"/>
<glyph glyph-name="Yacute" horiz-adv-x="1107" unicode="Ý" d="M997 1770l-291 -213q-11 -8 -19 -11.5t-20 -3.5h-73l234 206q14 13 25.5 17.5t34.5 4.5h109zM615 583l-73 -583h-99l73 584l-381 831h88q14 0 21.5 -7t12.5 -18l299 -668q8 -17 12 -33.5t7 -32.5q8 17 17 33t20 33l464 668q7 11 16 18t23 7h83z"/>
<glyph glyph-name="Thorn" horiz-adv-x="1094" unicode="Þ" d="M446 1050l-84 -684h241q94 0 169.5 30t129 83t82.5 126t29 159q0 137 -81 211.5t-246 74.5h-240zM455 1129h242q207 0 311.5 -93t104.5 -262q0 -108 -37 -197.5t-105.5 -154t-164.5 -100.5t-213 -36h-241l-35 -286h-99l173 1415h100z"/>
<glyph glyph-name="germandbls" horiz-adv-x="1024" unicode="ß" d="M693 1432q73 0 128 -22.5t92 -59t55.5 -82.5t18.5 -92q0 -70 -26 -120t-64.5 -88t-83.5 -68t-83.5 -59t-64.5 -61.5t-26 -75.5q0 -41 23 -66.5t57.5 -45t75 -38.5t75 -46.5t57.5 -69.5t23 -108q0 -76 -27 -139.5t-74.5 -109.5t-113 -71.5t-142.5 -25.5q-93 0 -156 33.5 t-111 87.5l25 33q12 15 29 15q12 0 27.5 -16t41 -34.5t63.5 -34.5t96 -16t105 20t80 54.5t51 81t18 99.5q0 56 -23.5 91t-59.5 59t-77 41.5t-77 40t-59.5 55.5t-23.5 86q0 56 26.5 97t66 74.5t86 64t86 66t66 80.5t26.5 108q0 29 -11 63t-37 62.5t-68 47.5t-103 19 q-65 0 -126.5 -33t-111 -92t-84 -139.5t-46.5 -174.5l-112 -902l-42 -230q-4 -22 -17 -31.5t-32 -9.5h-35l140 1142l-131 9q-24 1 -24 22l4 40h161q18 95 61.5 180.5t105.5 149.5t139 101.5t163 37.5z"/>
<glyph glyph-name="agrave" horiz-adv-x="980" unicode="à" d="M556 1431q23 0 33 -7.5t18 -24.5l115 -238h-53q-21 0 -33 16l-169 254h89zM343 66q57 0 112.5 32t105.5 90.5t94.5 141t79.5 182.5l50 405q-59 20 -128 20q-67 0 -130 -22.5t-118.5 -62.5t-102 -95t-80.5 -120.5t-52.5 -138.5t-18.5 -149q0 -134 45.5 -208.5t142.5 -74.5 zM766 0h-46q-19 0 -26.5 9t-7.5 22l33 313q-38 -80 -83.5 -145.5t-97 -112.5t-108.5 -73t-118 -26q-63 0 -110 24.5t-78.5 69.5t-47.5 109t-16 144q0 87 22 170.5t62.5 158.5t96.5 138t123.5 109t144.5 72t159 26q60 0 112 -10.5t103 -36.5z"/>
<glyph glyph-name="aacute" horiz-adv-x="980" unicode="á" d="M897 1431l-232 -254q-15 -16 -37 -16h-55l173 238q13 17 25 24.5t35 7.5h91zM343 66q57 0 112.5 32t105.5 90.5t94.5 141t79.5 182.5l50 405q-59 20 -128 20q-67 0 -130 -22.5t-118.5 -62.5t-102 -95t-80.5 -120.5t-52.5 -138.5t-18.5 -149q0 -134 45.5 -208.5 t142.5 -74.5zM766 0h-46q-19 0 -26.5 9t-7.5 22l33 313q-38 -80 -83.5 -145.5t-97 -112.5t-108.5 -73t-118 -26q-63 0 -110 24.5t-78.5 69.5t-47.5 109t-16 144q0 87 22 170.5t62.5 158.5t96.5 138t123.5 109t144.5 72t159 26q60 0 112 -10.5t103 -36.5z"/>
<glyph glyph-name="acircumflex" horiz-adv-x="980" unicode="â" d="M880 1169h-61q-15 0 -24 12l-123 164l-8 12l-11 -12l-164 -164q-5 -5 -12 -8.5t-15 -3.5h-65l231 246h83zM343 66q57 0 112.5 32t105.5 90.5t94.5 141t79.5 182.5l50 405q-59 20 -128 20q-67 0 -130 -22.5t-118.5 -62.5t-102 -95t-80.5 -120.5t-52.5 -138.5t-18.5 -149 q0 -134 45.5 -208.5t142.5 -74.5zM766 0h-46q-19 0 -26.5 9t-7.5 22l33 313q-38 -80 -83.5 -145.5t-97 -112.5t-108.5 -73t-118 -26q-63 0 -110 24.5t-78.5 69.5t-47.5 109t-16 144q0 87 22 170.5t62.5 158.5t96.5 138t123.5 109t144.5 72t159 26q60 0 112 -10.5t103 -36.5z "/>
<glyph glyph-name="atilde" horiz-adv-x="980" unicode="ã" d="M758 1279q40 0 63 27.5t30 74.5h57q-4 -36 -16.5 -67t-32.5 -54t-47 -36t-59 -13q-31 0 -55.5 16.5t-47 36.5t-44 36.5t-45.5 16.5q-38 0 -62 -29t-31 -74h-58q4 36 17.5 67.5t34 54t47 35.5t58.5 13q31 0 56 -16.5t47 -36t43 -36t45 -16.5zM343 66q57 0 112.5 32 t105.5 90.5t94.5 141t79.5 182.5l50 405q-59 20 -128 20q-67 0 -130 -22.5t-118.5 -62.5t-102 -95t-80.5 -120.5t-52.5 -138.5t-18.5 -149q0 -134 45.5 -208.5t142.5 -74.5zM766 0h-46q-19 0 -26.5 9t-7.5 22l33 313q-38 -80 -83.5 -145.5t-97 -112.5t-108.5 -73t-118 -26 q-63 0 -110 24.5t-78.5 69.5t-47.5 109t-16 144q0 87 22 170.5t62.5 158.5t96.5 138t123.5 109t144.5 72t159 26q60 0 112 -10.5t103 -36.5z"/>
<glyph glyph-name="adieresis" horiz-adv-x="980" unicode="ä" d="M911 1306q0 -16 -7 -30.5t-18 -25.5t-26 -17.5t-31 -6.5q-17 0 -32 6.5t-26 17.5t-17.5 25.5t-6.5 30.5q0 34 24 58.5t58 24.5q16 0 31 -6.5t26 -18t18 -26.5t7 -32zM569 1306q0 -16 -7 -30.5t-18.5 -25.5t-26.5 -17.5t-31 -6.5q-17 0 -31.5 6.5t-26 17.5t-18 25.5 t-6.5 30.5q0 17 6.5 32t18 26.5t26 18t31.5 6.5q16 0 31 -6.5t26.5 -18t18.5 -26.5t7 -32zM343 66q57 0 112.5 32t105.5 90.5t94.5 141t79.5 182.5l50 405q-59 20 -128 20q-67 0 -130 -22.5t-118.5 -62.5t-102 -95t-80.5 -120.5t-52.5 -138.5t-18.5 -149q0 -134 45.5 -208.5 t142.5 -74.5zM766 0h-46q-19 0 -26.5 9t-7.5 22l33 313q-38 -80 -83.5 -145.5t-97 -112.5t-108.5 -73t-118 -26q-63 0 -110 24.5t-78.5 69.5t-47.5 109t-16 144q0 87 22 170.5t62.5 158.5t96.5 138t123.5 109t144.5 72t159 26q60 0 112 -10.5t103 -36.5z"/>
<glyph glyph-name="aring" horiz-adv-x="980" unicode="å" d="M562 1302q0 -50 32 -82t83 -32q50 0 82 32t32 82t-32 82t-82 32q-51 0 -83 -32t-32 -82zM504 1302q0 36 13.5 66t37 51.5t55 34t66.5 12.5t66.5 -12.5t55 -34t37.5 -51.5t14 -66t-14 -65.5t-37.5 -51.5t-55 -34t-66.5 -12t-66.5 12t-55 34t-37 51.5t-13.5 65.5zM343 66 q57 0 112.5 32t105.5 90.5t94.5 141t79.5 182.5l50 405q-59 20 -128 20q-67 0 -130 -22.5t-118.5 -62.5t-102 -95t-80.5 -120.5t-52.5 -138.5t-18.5 -149q0 -134 45.5 -208.5t142.5 -74.5zM766 0h-46q-19 0 -26.5 9t-7.5 22l33 313q-38 -80 -83.5 -145.5t-97 -112.5 t-108.5 -73t-118 -26q-63 0 -110 24.5t-78.5 69.5t-47.5 109t-16 144q0 87 22 170.5t62.5 158.5t96.5 138t123.5 109t144.5 72t159 26q60 0 112 -10.5t103 -36.5z"/>
<glyph glyph-name="ae" horiz-adv-x="1430" unicode="æ" d="M1104 940q-71 0 -129 -27t-102.5 -76.5t-74 -120t-42.5 -156.5q151 5 252 24.5t162.5 49.5t87.5 69t26 84q0 72 -49 112.5t-131 40.5zM664 501q-138 -5 -237 -24.5t-162.5 -54t-94 -83.5t-30.5 -112q0 -46 13 -79t37 -54.5t57 -32t72 -10.5q61 0 116.5 22.5t100 65 t74.5 104.5t40 142zM1114 1011q55 0 101.5 -16t80.5 -45.5t53 -70t19 -88.5q0 -58 -31 -110t-103 -91t-191 -63t-294 -25q-3 -41 -3 -82q0 -172 69.5 -264.5t190.5 -92.5q53 0 95.5 11.5t76.5 29.5t59.5 38t45.5 38t34.5 29.5t25.5 11.5q12 0 21 -10l22 -26 q-48 -51 -94 -88.5t-94 -62t-99.5 -36t-109.5 -11.5q-116 0 -194.5 70.5t-107.5 203.5q-28 -77 -73.5 -130t-98.5 -85.5t-108.5 -47t-103.5 -14.5q-56 0 -102.5 13.5t-80 41.5t-52 71.5t-18.5 103.5q0 75 35 137.5t110 108t193 72.5t284 31l11 85q2 20 3.5 37.5t1.5 34.5 q0 105 -46 160t-137 55q-66 0 -114.5 -20t-83.5 -43.5t-58 -43.5t-37 -20q-21 0 -28 18l-12 28q81 78 162.5 118t180.5 40q114 0 172 -60t69 -167q57 106 147.5 166t210.5 60z"/>
<glyph glyph-name="ccedilla" horiz-adv-x="861" unicode="ç" d="M272 -274q5 0 12.5 -5.5t19 -12t29 -12t43.5 -5.5q51 0 80 25t29 67q0 22 -11 37t-31 25t-48 15.5t-62 10.5l49 117q-79 5 -137 36.5t-96.5 84t-57.5 122.5t-19 153q0 79 16.5 156.5t47.5 147.5t75 129t99 102t119.5 67.5t137.5 24.5q49 0 88.5 -9.5t72.5 -27t60 -42.5 t50 -56l-28 -33q-9 -11 -21 -11q-10 0 -24.5 16t-39 34.5t-63.5 34.5t-98 16q-84 0 -156.5 -45t-126 -121t-84 -175.5t-30.5 -207.5q0 -69 15.5 -128t48 -102t81.5 -67t116 -24q53 0 95 11.5t74.5 28.5t57 37.5t43.5 37.5t32.5 28.5t24.5 11.5q13 0 21 -10l21 -26 q-50 -55 -94 -91.5t-87 -58.5t-86 -32t-90 -12l-32 -80q74 -14 113 -41.5t39 -78.5q0 -33 -14.5 -59.5t-39.5 -45t-59.5 -28.5t-74.5 -10q-38 0 -72 11.5t-57 31.5l13 27q8 11 16 11z"/>
<glyph glyph-name="egrave" horiz-adv-x="895" unicode="è" d="M454 1431q23 0 33 -7.5t18 -24.5l115 -238h-53q-21 0 -33 16l-169 254h89zM568 939q-80 0 -144.5 -34t-114 -90.5t-83 -131t-49.5 -155.5q127 14 219 32.5t156 39t103.5 44.5t61.5 49.5t29.5 52.5t7.5 56q0 21 -9.5 45.5t-31.5 44.5t-57.5 33.5t-87.5 13.5zM838 805 q0 -41 -11 -78t-39 -70t-76 -62.5t-123 -54t-179 -44t-244 -34.5q-2 -21 -3 -41.5t-1 -40.5q0 -149 67.5 -233t203.5 -84q53 0 95.5 11.5t76 29.5t59 38t45.5 38t34.5 29.5t26.5 11.5t21 -10l22 -26q-49 -52 -95.5 -89.5t-94 -61.5t-98.5 -35.5t-109 -11.5 q-83 0 -147.5 27.5t-108.5 78t-67 123t-23 162.5q0 75 15 151t44.5 146t73 131t99.5 106t124 71t147 26q73 0 123.5 -20.5t82 -51t45.5 -66t14 -66.5z"/>
<glyph glyph-name="eacute" horiz-adv-x="895" unicode="é" d="M820 1431l-232 -254q-15 -16 -37 -16h-55l173 238q13 17 25 24.5t35 7.5h91zM568 939q-80 0 -144.5 -34t-114 -90.5t-83 -131t-49.5 -155.5q127 14 219 32.5t156 39t103.5 44.5t61.5 49.5t29.5 52.5t7.5 56q0 21 -9.5 45.5t-31.5 44.5t-57.5 33.5t-87.5 13.5zM838 805 q0 -41 -11 -78t-39 -70t-76 -62.5t-123 -54t-179 -44t-244 -34.5q-2 -21 -3 -41.5t-1 -40.5q0 -149 67.5 -233t203.5 -84q53 0 95.5 11.5t76 29.5t59 38t45.5 38t34.5 29.5t26.5 11.5t21 -10l22 -26q-49 -52 -95.5 -89.5t-94 -61.5t-98.5 -35.5t-109 -11.5 q-83 0 -147.5 27.5t-108.5 78t-67 123t-23 162.5q0 75 15 151t44.5 146t73 131t99.5 106t124 71t147 26q73 0 123.5 -20.5t82 -51t45.5 -66t14 -66.5z"/>
<glyph glyph-name="ecircumflex" horiz-adv-x="895" unicode="ê" d="M818 1169h-61q-15 0 -24 12l-123 164l-8 12l-11 -12l-164 -164q-5 -5 -12 -8.5t-15 -3.5h-65l231 246h83zM568 939q-80 0 -144.5 -34t-114 -90.5t-83 -131t-49.5 -155.5q127 14 219 32.5t156 39t103.5 44.5t61.5 49.5t29.5 52.5t7.5 56q0 21 -9.5 45.5t-31.5 44.5 t-57.5 33.5t-87.5 13.5zM838 805q0 -41 -11 -78t-39 -70t-76 -62.5t-123 -54t-179 -44t-244 -34.5q-2 -21 -3 -41.5t-1 -40.5q0 -149 67.5 -233t203.5 -84q53 0 95.5 11.5t76 29.5t59 38t45.5 38t34.5 29.5t26.5 11.5t21 -10l22 -26q-49 -52 -95.5 -89.5t-94 -61.5 t-98.5 -35.5t-109 -11.5q-83 0 -147.5 27.5t-108.5 78t-67 123t-23 162.5q0 75 15 151t44.5 146t73 131t99.5 106t124 71t147 26q73 0 123.5 -20.5t82 -51t45.5 -66t14 -66.5z"/>
<glyph glyph-name="edieresis" horiz-adv-x="895" unicode="ë" d="M849 1306q0 -16 -7 -30.5t-18 -25.5t-26 -17.5t-31 -6.5q-17 0 -32 6.5t-26 17.5t-17.5 25.5t-6.5 30.5q0 34 24 58.5t58 24.5q16 0 31 -6.5t26 -18t18 -26.5t7 -32zM507 1306q0 -16 -7 -30.5t-18.5 -25.5t-26.5 -17.5t-31 -6.5q-17 0 -31.5 6.5t-26 17.5t-18 25.5 t-6.5 30.5q0 17 6.5 32t18 26.5t26 18t31.5 6.5q16 0 31 -6.5t26.5 -18t18.5 -26.5t7 -32zM568 939q-80 0 -144.5 -34t-114 -90.5t-83 -131t-49.5 -155.5q127 14 219 32.5t156 39t103.5 44.5t61.5 49.5t29.5 52.5t7.5 56q0 21 -9.5 45.5t-31.5 44.5t-57.5 33.5t-87.5 13.5z M838 805q0 -41 -11 -78t-39 -70t-76 -62.5t-123 -54t-179 -44t-244 -34.5q-2 -21 -3 -41.5t-1 -40.5q0 -149 67.5 -233t203.5 -84q53 0 95.5 11.5t76 29.5t59 38t45.5 38t34.5 29.5t26.5 11.5t21 -10l22 -26q-49 -52 -95.5 -89.5t-94 -61.5t-98.5 -35.5t-109 -11.5 q-83 0 -147.5 27.5t-108.5 78t-67 123t-23 162.5q0 75 15 151t44.5 146t73 131t99.5 106t124 71t147 26q73 0 123.5 -20.5t82 -51t45.5 -66t14 -66.5z"/>
<glyph glyph-name="igrave" horiz-adv-x="455" unicode="ì" d="M186 1431q23 0 33 -7.5t18 -24.5l115 -238h-53q-21 0 -33 16l-169 254h89zM334 995l-121 -995h-93l121 995h93z"/>
<glyph glyph-name="iacute" horiz-adv-x="455" unicode="í" d="M551 1431l-232 -254q-15 -16 -37 -16h-55l173 238q13 17 25 24.5t35 7.5h91zM334 995l-121 -995h-93l121 995h93z"/>
<glyph glyph-name="icircumflex" horiz-adv-x="455" unicode="î" d="M549 1169h-61q-15 0 -24 12l-123 164l-8 12l-11 -12l-164 -164q-5 -5 -12 -8.5t-15 -3.5h-65l231 246h83zM334 995l-121 -995h-93l121 995h93z"/>
<glyph glyph-name="idieresis" horiz-adv-x="455" unicode="ï" d="M580 1306q0 -16 -7 -30.5t-18 -25.5t-26 -17.5t-31 -6.5q-17 0 -32 6.5t-26 17.5t-17.5 25.5t-6.5 30.5q0 34 24 58.5t58 24.5q16 0 31 -6.5t26 -18t18 -26.5t7 -32zM238 1306q0 -16 -7 -30.5t-18.5 -25.5t-26.5 -17.5t-31 -6.5q-17 0 -31.5 6.5t-26 17.5t-18 25.5 t-6.5 30.5q0 17 6.5 32t18 26.5t26 18t31.5 6.5q16 0 31 -6.5t26.5 -18t18.5 -26.5t7 -32zM334 995l-121 -995h-93l121 995h93z"/>
<glyph glyph-name="eth" horiz-adv-x="990" unicode="ð" d="M435 61q162 0 264 126.5t135 381.5q-9 51 -30.5 101t-57 89.5t-86 64t-118.5 24.5q-90 0 -160.5 -36t-118.5 -98t-73 -144.5t-25 -176.5q0 -77 21 -138.5t57 -104.5t85.5 -66t106.5 -23zM491 1070q-4 8 -4 13q0 9 8 17l140 121q-51 35 -110 59t-127 41q-23 6 -23 23 q0 9 4 17l13 30q81 -14 158.5 -44.5t144.5 -81.5l161 136l16 -29q3 -6 3 -13q0 -10 -10 -19l-128 -111q43 -40 79 -91t62 -114t40 -138t14 -164q0 -159 -32 -293.5t-96 -232.5t-158.5 -153t-220.5 -55q-76 0 -140.5 28.5t-111.5 80.5t-73.5 126t-26.5 165q0 109 32.5 205.5 t93 169.5t146 115.5t190.5 42.5q49 0 97 -13.5t90 -42t76.5 -72.5t56.5 -105q0 8 0.5 16.5t0.5 16.5q0 161 -46 276t-131 190l-171 -146z"/>
<glyph glyph-name="ntilde" horiz-adv-x="1024" unicode="ñ" d="M730 1281q40 0 63 27.5t30 74.5h57q-4 -36 -16.5 -67t-32.5 -54t-47 -36t-59 -13q-31 0 -55.5 16.5t-47 36.5t-44 36.5t-45.5 16.5q-38 0 -62 -29t-31 -74h-58q4 36 17.5 67.5t34 54t47 35.5t58.5 13q31 0 56 -16.5t47 -36t43 -36t45 -16.5zM94 0l120 998h43q34 0 34 -36 l-29 -288q41 79 90.5 141.5t104.5 106t113 66t117 22.5q111 0 167 -73t56 -209q0 -9 -0.5 -20.5t-3 -36.5t-7.5 -70.5t-14 -123t-22.5 -194t-33.5 -283.5h-94l75 636q6 46 6 87q0 101 -38.5 154t-121.5 53q-56 0 -113 -28.5t-110.5 -81t-100.5 -127t-83 -167.5l-61 -526h-94 z"/>
<glyph glyph-name="ograve" horiz-adv-x="988" unicode="ò" d="M451 1433q23 0 33 -7.5t18 -24.5l115 -238h-53q-21 0 -33 16l-169 254h89zM426 -13q-80 0 -145.5 28t-112 81t-72 128.5t-25.5 171.5q0 121 36 232.5t101.5 196.5t155.5 135.5t198 50.5q80 0 145.5 -28.5t112 -81t72 -128.5t25.5 -170q0 -121 -36.5 -232t-101.5 -196.5 t-155 -136.5t-198 -51zM434 62q87 0 158.5 45.5t122.5 121t78.5 173t27.5 200.5q0 160 -71 247t-197 87q-58 0 -109 -20.5t-94 -57.5t-77.5 -87.5t-58 -110.5t-36 -127t-12.5 -137q0 -159 70.5 -246.5t197.5 -87.5z"/>
<glyph glyph-name="oacute" horiz-adv-x="988" unicode="ó" d="M816 1433l-232 -254q-15 -16 -37 -16h-55l173 238q13 17 25 24.5t35 7.5h91zM426 -13q-80 0 -145.5 28t-112 81t-72 128.5t-25.5 171.5q0 121 36 232.5t101.5 196.5t155.5 135.5t198 50.5q80 0 145.5 -28.5t112 -81t72 -128.5t25.5 -170q0 -121 -36.5 -232t-101.5 -196.5 t-155 -136.5t-198 -51zM434 62q87 0 158.5 45.5t122.5 121t78.5 173t27.5 200.5q0 160 -71 247t-197 87q-58 0 -109 -20.5t-94 -57.5t-77.5 -87.5t-58 -110.5t-36 -127t-12.5 -137q0 -159 70.5 -246.5t197.5 -87.5z"/>
<glyph glyph-name="ocircumflex" horiz-adv-x="988" unicode="ô" d="M814 1171h-61q-15 0 -24 12l-123 164l-8 12l-11 -12l-164 -164q-5 -5 -12 -8.5t-15 -3.5h-65l231 246h83zM426 -13q-80 0 -145.5 28t-112 81t-72 128.5t-25.5 171.5q0 121 36 232.5t101.5 196.5t155.5 135.5t198 50.5q80 0 145.5 -28.5t112 -81t72 -128.5t25.5 -170 q0 -121 -36.5 -232t-101.5 -196.5t-155 -136.5t-198 -51zM434 62q87 0 158.5 45.5t122.5 121t78.5 173t27.5 200.5q0 160 -71 247t-197 87q-58 0 -109 -20.5t-94 -57.5t-77.5 -87.5t-58 -110.5t-36 -127t-12.5 -137q0 -159 70.5 -246.5t197.5 -87.5z"/>
<glyph glyph-name="otilde" horiz-adv-x="988" unicode="õ" d="M692 1281q40 0 63 27.5t30 74.5h57q-4 -36 -16.5 -67t-32.5 -54t-47 -36t-59 -13q-31 0 -55.5 16.5t-47 36.5t-44 36.5t-45.5 16.5q-38 0 -62 -29t-31 -74h-58q4 36 17.5 67.5t34 54t47 35.5t58.5 13q31 0 56 -16.5t47 -36t43 -36t45 -16.5zM426 -13q-80 0 -145.5 28 t-112 81t-72 128.5t-25.5 171.5q0 121 36 232.5t101.5 196.5t155.5 135.5t198 50.5q80 0 145.5 -28.5t112 -81t72 -128.5t25.5 -170q0 -121 -36.5 -232t-101.5 -196.5t-155 -136.5t-198 -51zM434 62q87 0 158.5 45.5t122.5 121t78.5 173t27.5 200.5q0 160 -71 247t-197 87 q-58 0 -109 -20.5t-94 -57.5t-77.5 -87.5t-58 -110.5t-36 -127t-12.5 -137q0 -159 70.5 -246.5t197.5 -87.5z"/>
<glyph glyph-name="odieresis" horiz-adv-x="988" unicode="ö" d="M845 1308q0 -16 -7 -30.5t-18 -25.5t-26 -17.5t-31 -6.5q-17 0 -32 6.5t-26 17.5t-17.5 25.5t-6.5 30.5q0 34 24 58.5t58 24.5q16 0 31 -6.5t26 -18t18 -26.5t7 -32zM503 1308q0 -16 -7 -30.5t-18.5 -25.5t-26.5 -17.5t-31 -6.5q-17 0 -31.5 6.5t-26 17.5t-18 25.5 t-6.5 30.5q0 17 6.5 32t18 26.5t26 18t31.5 6.5q16 0 31 -6.5t26.5 -18t18.5 -26.5t7 -32zM426 -13q-80 0 -145.5 28t-112 81t-72 128.5t-25.5 171.5q0 121 36 232.5t101.5 196.5t155.5 135.5t198 50.5q80 0 145.5 -28.5t112 -81t72 -128.5t25.5 -170q0 -121 -36.5 -232 t-101.5 -196.5t-155 -136.5t-198 -51zM434 62q87 0 158.5 45.5t122.5 121t78.5 173t27.5 200.5q0 160 -71 247t-197 87q-58 0 -109 -20.5t-94 -57.5t-77.5 -87.5t-58 -110.5t-36 -127t-12.5 -137q0 -159 70.5 -246.5t197.5 -87.5z"/>
<glyph glyph-name="divide" d="M465 302q0 21 8 40t22 33.5t32.5 22.5t39.5 8q36 0 59 -24.5t23 -59.5q0 -21 -8.5 -39.5t-23 -32t-33 -21t-39.5 -7.5q-35 0 -57.5 23.5t-22.5 56.5zM553 1014q0 21 8 40t22 33.5t32.5 22.5t39.5 8q36 0 59 -24.5t23 -59.5q0 -21 -8.5 -39.5t-23 -32t-33.5 -21t-39 -7.5 q-36 0 -58 23.5t-22 56.5zM137 706h938l-8 -71h-939z" unicode="÷"/>
<glyph glyph-name="oslash" horiz-adv-x="988" unicode="ø" d="M434 57q87 0 159.5 45t124 120.5t80 174t28.5 205.5q0 66 -13.5 121t-38.5 97l-518 -697q71 -66 178 -66zM161 396q0 -137 55 -224l518 698q-71 71 -181 71q-87 0 -159 -44.5t-124 -119.5t-80.5 -174t-28.5 -207zM426 -13q-134 0 -223 75l-70 -96q-13 -17 -29.5 -24.5 t-33.5 -7.5h-38l127 172q-43 53 -65.5 126t-22.5 164q0 121 36 232.5t101.5 196.5t155.5 135.5t198 50.5q68 0 124.5 -20t101.5 -58l61 83q12 16 21 23t29 7h50l-117 -159q41 -53 63 -124.5t22 -159.5q0 -121 -36.5 -232t-101.5 -196.5t-155 -136.5t-198 -51z"/>
<glyph glyph-name="ugrave" horiz-adv-x="1022" unicode="ù" d="M447 1433q23 0 33 -7.5t18 -24.5l115 -238h-53q-21 0 -33 16l-169 254h89zM289 995l-75 -633q-6 -47 -6 -87q0 -102 38.5 -155.5t121.5 -53.5q55 0 111 28t109 80.5t100 126t83 165.5l64 529h94l-120 -995h-44q-19 0 -27.5 10t-8.5 27l30 283q-41 -79 -90.5 -141 t-104 -104.5t-112.5 -65t-116 -22.5q-111 0 -166.5 73.5t-55.5 209.5q0 9 0.5 19.5t3 36t7.5 70.5t14 122.5t22.5 193.5t33.5 283h94z"/>
<glyph glyph-name="uacute" horiz-adv-x="1022" unicode="ú" d="M812 1433l-232 -254q-15 -16 -37 -16h-55l173 238q13 17 25 24.5t35 7.5h91zM289 995l-75 -633q-6 -47 -6 -87q0 -102 38.5 -155.5t121.5 -53.5q55 0 111 28t109 80.5t100 126t83 165.5l64 529h94l-120 -995h-44q-19 0 -27.5 10t-8.5 27l30 283q-41 -79 -90.5 -141 t-104 -104.5t-112.5 -65t-116 -22.5q-111 0 -166.5 73.5t-55.5 209.5q0 9 0.5 19.5t3 36t7.5 70.5t14 122.5t22.5 193.5t33.5 283h94z"/>
<glyph glyph-name="ucircumflex" horiz-adv-x="1022" unicode="û" d="M810 1171h-61q-15 0 -24 12l-123 164l-8 12l-11 -12l-164 -164q-5 -5 -12 -8.5t-15 -3.5h-65l231 246h83zM289 995l-75 -633q-6 -47 -6 -87q0 -102 38.5 -155.5t121.5 -53.5q55 0 111 28t109 80.5t100 126t83 165.5l64 529h94l-120 -995h-44q-19 0 -27.5 10t-8.5 27 l30 283q-41 -79 -90.5 -141t-104 -104.5t-112.5 -65t-116 -22.5q-111 0 -166.5 73.5t-55.5 209.5q0 9 0.5 19.5t3 36t7.5 70.5t14 122.5t22.5 193.5t33.5 283h94z"/>
<glyph glyph-name="udieresis" horiz-adv-x="1022" unicode="ü" d="M841 1308q0 -16 -7 -30.5t-18 -25.5t-26 -17.5t-31 -6.5q-17 0 -32 6.5t-26 17.5t-17.5 25.5t-6.5 30.5q0 34 24 58.5t58 24.5q16 0 31 -6.5t26 -18t18 -26.5t7 -32zM499 1308q0 -16 -7 -30.5t-18.5 -25.5t-26.5 -17.5t-31 -6.5q-17 0 -31.5 6.5t-26 17.5t-18 25.5 t-6.5 30.5q0 17 6.5 32t18 26.5t26 18t31.5 6.5q16 0 31 -6.5t26.5 -18t18.5 -26.5t7 -32zM289 995l-75 -633q-6 -47 -6 -87q0 -102 38.5 -155.5t121.5 -53.5q55 0 111 28t109 80.5t100 126t83 165.5l64 529h94l-120 -995h-44q-19 0 -27.5 10t-8.5 27l30 283 q-41 -79 -90.5 -141t-104 -104.5t-112.5 -65t-116 -22.5q-111 0 -166.5 73.5t-55.5 209.5q0 9 0.5 19.5t3 36t7.5 70.5t14 122.5t22.5 193.5t33.5 283h94z"/>
<glyph glyph-name="yacute" horiz-adv-x="903" unicode="ý" d="M773 1433l-232 -254q-15 -16 -37 -16h-55l173 238q13 17 25 24.5t35 7.5h91zM251 -324q-14 -28 -41 -28h-67l210 389l-267 958h74q14 0 20.5 -6.5t9.5 -17.5l210 -774q4 -15 5.5 -30t3.5 -30q6 15 12.5 30.5t14.5 29.5l401 777q5 11 14 16t18 5h73z"/>
<glyph glyph-name="thorn" horiz-adv-x="1018" unicode="þ" d="M662 933q-57 0 -114.5 -32t-111 -90.5t-100 -140.5t-82.5 -182l-35 -284q22 -39 49.5 -66t58.5 -44t64.5 -24.5t68.5 -7.5q63 0 117.5 25.5t99 69.5t79.5 102.5t58.5 123.5t36 133.5t12.5 133.5q0 134 -51.5 208.5t-149.5 74.5zM59 -352l221 1807h93l-98 -795 q39 78 87 142.5t101.5 110.5t111.5 71.5t118 25.5q65 0 114 -25t82 -70.5t50 -110.5t17 -145q0 -77 -16 -156.5t-45.5 -154t-72 -140.5t-96.5 -115t-118.5 -77.5t-136.5 -28.5q-81 0 -149.5 36t-111.5 107l-54 -443q-2 -17 -13.5 -28t-28.5 -11h-55z"/>
<glyph glyph-name="ydieresis" horiz-adv-x="903" unicode="ÿ" d="M802 1308q0 -16 -7 -30.5t-18 -25.5t-26 -17.5t-31 -6.5q-17 0 -32 6.5t-26 17.5t-17.5 25.5t-6.5 30.5q0 34 24 58.5t58 24.5q16 0 31 -6.5t26 -18t18 -26.5t7 -32zM460 1308q0 -16 -7 -30.5t-18.5 -25.5t-26.5 -17.5t-31 -6.5q-17 0 -31.5 6.5t-26 17.5t-18 25.5 t-6.5 30.5q0 17 6.5 32t18 26.5t26 18t31.5 6.5q16 0 31 -6.5t26.5 -18t18.5 -26.5t7 -32zM251 -324q-14 -28 -41 -28h-67l210 389l-267 958h74q14 0 20.5 -6.5t9.5 -17.5l210 -774q4 -15 5.5 -30t3.5 -30q6 15 12.5 30.5t14.5 29.5l401 777q5 11 14 16t18 5h73z"/>
<glyph glyph-name="Aogonek" horiz-adv-x="1180" unicode="Ą" d="M303 513h581l-175 720q-5 17 -9.5 38.5t-7.5 44.5q-9 -23 -19 -45t-18 -39zM1155 -244q9 0 12 -8l10 -33q-28 -24 -68.5 -38.5t-83.5 -14.5q-66 0 -103.5 33t-37.5 91q0 34 12.5 65t33.5 58t48 50t56 41q-14 1 -21 8t-11 18l-101 414h-634l-202 -414q-6 -11 -16.5 -18.5 t-24.5 -7.5h-76l707 1415h98l359 -1415q-25 -12 -52.5 -30t-50.5 -42t-38 -54t-15 -64q0 -41 25.5 -65t67.5 -24q26 0 44 5.5t30.5 12t19.5 12t12 5.5z"/>
<glyph glyph-name="aogonek" horiz-adv-x="975" unicode="ą" d="M343 66q57 0 112.5 32t105.5 90.5t94.5 141t79.5 182.5l50 405q-59 20 -128 20q-67 0 -130 -22.5t-118.5 -62.5t-102 -95t-80.5 -120.5t-52.5 -138.5t-18.5 -149q0 -134 45.5 -208.5t142.5 -74.5zM812 -244q9 0 12 -8l10 -33q-28 -24 -68.5 -38.5t-83.5 -14.5 q-66 0 -103.5 33t-37.5 91q0 35 13.5 67t36 59.5t50.5 51t58 41.5q-8 5 -10.5 13t-2.5 18l33 308q-38 -80 -83.5 -145.5t-97 -112.5t-108.5 -73t-118 -26q-63 0 -110 24.5t-78.5 69.5t-47.5 109t-16 144q0 87 22 170.5t62.5 158.5t96.5 138t123.5 109t144.5 72t159 26 q60 0 112 -10.5t103 -36.5l-117 -961h-8q-21 -12 -46.5 -30t-47 -42t-36.5 -54t-15 -64q0 -41 25.5 -65t67.5 -24q26 0 44 5.5t30.5 12t19.5 12t12 5.5z"/>
<glyph glyph-name="Cacute" horiz-adv-x="1292" unicode="Ć" d="M1171 1770l-291 -213q-11 -8 -19 -11.5t-20 -3.5h-73l234 206q14 13 25.5 17.5t34.5 4.5h109zM679 69q73 0 131 12.5t103 31t77.5 40t55.5 40t37.5 31t22.5 12.5q9 0 13 -6l35 -42q-46 -47 -98.5 -84.5t-112.5 -64t-129.5 -41t-149.5 -14.5q-122 0 -220.5 44t-168 125 t-107 194t-37.5 251q0 185 56 338.5t154.5 263.5t232 170.5t288.5 60.5q73 0 131 -11.5t106.5 -33.5t89 -55t78.5 -75l-31 -40q-11 -12 -27 -12q-12 0 -32.5 22t-59.5 48.5t-101.5 48.5t-158.5 22q-132 0 -246 -52t-198 -148t-132.5 -233t-48.5 -307q0 -124 33 -223.5 t92 -169t141.5 -106.5t180.5 -37z"/>
<glyph glyph-name="cacute" horiz-adv-x="861" unicode="ć" d="M814 1433l-232 -254q-15 -16 -37 -16h-55l173 238q13 17 25 24.5t35 7.5h91zM797 182q-53 -59 -100.5 -97t-93 -60t-92.5 -30t-100 -8q-86 0 -149.5 29.5t-105.5 82.5t-63 126t-21 159q0 79 16.5 156.5t47.5 147.5t75 129t99 102t119.5 67.5t137.5 24.5q49 0 88.5 -9.5 t72.5 -27t60 -42.5t50 -56l-28 -33q-9 -11 -21 -11q-10 0 -24.5 16t-39 34.5t-63.5 34.5t-98 16q-84 0 -156.5 -45t-126 -121t-84 -175.5t-30.5 -207.5q0 -69 15.5 -128t48 -102t81.5 -67t116 -24q53 0 95 11.5t74.5 28.5t57 37.5t43.5 37.5t32.5 28.5t24.5 11.5t21 -10z "/>
<glyph glyph-name="Eogonek" horiz-adv-x="1087" unicode="Ę" d="M856 -244q9 0 12 -8l10 -33q-28 -24 -68.5 -38.5t-83.5 -14.5q-66 0 -103.5 33t-37.5 91q0 34 12.5 65t33.5 58t48 50t56 41h-604l174 1415h782l-11 -82h-681l-71 -576h567l-11 -80h-566l-73 -595h684l-11 -82h-112q-21 -12 -46.5 -30t-47 -42t-36.5 -54t-15 -64 q0 -41 25.5 -65t67.5 -24q26 0 44 5.5t30.5 12t19.5 12t12 5.5z"/>
<glyph glyph-name="eogonek" horiz-adv-x="895" unicode="ę" d="M568 939q-80 0 -144.5 -34t-114 -90.5t-83 -131t-49.5 -155.5q127 14 219 32.5t156 39t103.5 44.5t61.5 49.5t29.5 52.5t7.5 56q0 21 -9.5 45.5t-31.5 44.5t-57.5 33.5t-87.5 13.5zM579 -244q9 0 12 -8l10 -33q-28 -24 -68.5 -38.5t-83.5 -14.5q-66 0 -103.5 33t-37.5 91 q0 31 11 59.5t29 54t41.5 48t49.5 40.5q-5 -1 -11 -1h-12q-83 0 -147.5 27.5t-108.5 78t-67 123t-23 162.5q0 75 15 151t44.5 146t73 131t99.5 106t124 71t147 26q73 0 123.5 -20.5t82 -51t45.5 -66t14 -66.5q0 -41 -11 -78t-39 -70t-76 -62.5t-123 -54t-179 -44t-244 -34.5 q-2 -21 -3 -41.5t-1 -40.5q0 -149 67.5 -233t203.5 -84q53 0 95.5 11.5t76 29.5t59 38t45.5 38t34.5 29.5t26.5 11.5t21 -10l22 -26q-47 -49 -91 -85t-89 -60t-93 -37q-9 -3 -18 -4q-20 -12 -44 -29q-25 -18 -46.5 -42t-36.5 -54t-15 -64q0 -41 25.5 -65t67.5 -24 q26 0 44 5.5t30.5 12t19.5 12t12 5.5z"/>
<glyph glyph-name="Gbreve" horiz-adv-x="1376" unicode="Ğ" d="M810 1528q-103 0 -152.5 44t-49.5 128q0 20 3 41h62q-1 -8 -1.5 -15.5t-0.5 -15.5q0 -57 34 -89.5t112 -32.5q88 0 130.5 40.5t50.5 112.5h63q-13 -99 -74.5 -156t-176.5 -57zM699 65q67 0 122.5 7.5t104.5 22.5t94 36t90 48l48 385h-247q-22 0 -22 19v1q0 2 0.5 7.5 t2 17t3.5 32.5h363l-63 -502q-53 -37 -108.5 -66t-118 -48.5t-132.5 -30t-152 -10.5q-127 0 -229.5 44.5t-174.5 125.5t-110.5 194.5t-38.5 251.5q0 187 55 340.5t154 262.5t236 168.5t301 59.5q77 0 140 -11.5t115 -33.5t95 -54t81 -73l-31 -39q-12 -15 -26 -15q-8 0 -16 4 q-9 4 -22.5 16t-33 27t-47 31.5t-65 30t-86.5 22.5t-112 9q-141 0 -258 -52t-201.5 -148t-131 -233.5t-46.5 -308.5q0 -124 33 -223.5t94 -169.5t147 -107.5t193 -37.5z"/>
<glyph glyph-name="gbreve" horiz-adv-x="881" unicode="ğ" d="M518 1168q-53 0 -90.5 15t-60.5 41.5t-33.5 62.5t-10.5 78q0 24 3 50h67q-3 -23 -3 -43q0 -30 7 -56t23 -44.5t41.5 -29.5t63.5 -11q44 0 75.5 14.5t53 40t33 58.5t16.5 71h67q-6 -50 -23.5 -95t-48 -79t-75 -53.5t-105.5 -19.5zM405 425q64 0 114.5 27t85.5 70.5t53 99 t18 111.5q0 104 -55 156.5t-148 52.5q-64 0 -114 -25.5t-84.5 -67.5t-52.5 -96.5t-18 -111.5q0 -106 54 -161t147 -55zM654 -52q0 49 -16 84t-39 64l1 -3q-49 8 -93 11t-85 3q-99 0 -172 -18.5t-121.5 -50t-73 -73.5t-24.5 -88q0 -43 19.5 -76.5t55.5 -56t87 -34.5t113 -12 q78 0 142 21t109.5 56t70.5 80t26 93zM762 736q-1 -55 -14.5 -100t-33.5 -82.5t-43.5 -70t-43.5 -63.5t-33 -63t-13 -68q0 -30 12 -55.5t29.5 -49.5t38.5 -48.5t38.5 -51.5t29.5 -59t12 -71q0 -63 -32 -121.5t-90 -103.5t-139.5 -72t-181.5 -27q-79 0 -144.5 16t-113 46.5 t-73.5 74.5t-26 100q0 72 37.5 127.5t102 93.5t150 58t183.5 20q34 0 68 -2.5t69 -7.5q-17 23 -28.5 49t-11.5 58q0 35 12 71t46 87q-41 -28 -86.5 -43t-99.5 -15q-57 0 -106 18t-84.5 53.5t-55.5 87t-20 119.5q0 69 24.5 135.5t71 118.5t114.5 83.5t155 31.5q51 0 96 -12.5 t80 -37.5h260l-4 -32q-1 -10 -7.5 -17.5t-20.5 -9.5l-162 -13q18 -31 28 -69t10 -83z"/>
<glyph glyph-name="Idotaccent" horiz-adv-x="550" unicode="İ" d="M509 1677q0 -17 -7 -32.5t-19 -27t-28 -18.5t-33 -7t-32.5 7t-27.5 18.5t-19 27t-7 32.5q0 18 7 33.5t19 27.5t27.5 19t32.5 7t33 -7t28 -19t19 -27.5t7 -33.5zM265 0h-100l173 1415h100z"/>
<glyph glyph-name="dotlessi" horiz-adv-x="455" unicode="ı" d="M334 995l-121 -995h-93l121 995h93z"/>
<glyph glyph-name="Lslash" horiz-adv-x="982" unicode="Ł" d="M359 722l404 215l-7 -61q-2 -10 -6 -17t-15 -13l-386 -208l-68 -553h616l-11 -85h-714l72 589l-196 -102l9 64q2 11 6 17.5t14 11.5l178 94l91 741h99z"/>
<glyph glyph-name="lslash" horiz-adv-x="562" unicode="ł" d="M83 712q0 11 3.5 17.5t14.5 11.5l178 84l76 630h93l-72 -591l192 87v-50q0 -11 -3.5 -18.5t-15.5 -12.5l-183 -86l-95 -784h-92l90 746l-186 -86v52z"/>
<glyph glyph-name="Nacute" horiz-adv-x="1390" unicode="Ń" d="M1129 1770l-291 -213q-11 -8 -19 -11.5t-20 -3.5h-73l234 206q14 13 25.5 17.5t34.5 4.5h109zM354 1415q14 0 20.5 -3.5t13.5 -15.5l686 -1232q1 14 1.5 26.5t2.5 23.5l148 1201h87l-174 -1415h-46q-25 0 -37 22l-687 1232l-3 -45l-148 -1209h-87l174 1415h49z"/>
<glyph glyph-name="nacute" horiz-adv-x="1024" unicode="ń" d="M854 1433l-232 -254q-15 -16 -37 -16h-55l173 238q13 17 25 24.5t35 7.5h91zM94 0l120 998h43q34 0 34 -36l-29 -288q41 79 90.5 141.5t104.5 106t113 66t117 22.5q111 0 167 -73t56 -209q0 -9 -0.5 -20.5t-3 -36.5t-7.5 -70.5t-14 -123t-22.5 -194t-33.5 -283.5h-94 l75 636q6 46 6 87q0 101 -38.5 154t-121.5 53q-56 0 -113 -28.5t-110.5 -81t-100.5 -127t-83 -167.5l-61 -526h-94z"/>
<glyph glyph-name="OE" horiz-adv-x="2048" unicode="Œ" d="M1188 824q0 120 -27.5 217t-79 165.5t-125.5 106t-167 37.5q-119 0 -221 -53.5t-176.5 -152.5t-117 -239t-42.5 -313q0 -120 28 -217t80 -165.5t126 -105t166 -36.5q120 0 222 53t176 151t116 238t42 314zM2048 1415l-9 -82h-678l-71 -577h562l-9 -80h-563l-72 -594h677 l-11 -82h-767l39 318q-43 -78 -99.5 -139.5t-124.5 -104t-146.5 -65t-164.5 -22.5q-111 0 -199.5 43.5t-151 122.5t-96 190t-33.5 246q0 189 50.5 344t139 265.5t208 171.5t258.5 61q87 0 159.5 -26.5t129.5 -75t97.5 -118t63.5 -155.5l44 359h767z"/>
<glyph glyph-name="oe" horiz-adv-x="1530" unicode="œ" d="M1212 941q-72 0 -133.5 -29t-109 -82.5t-79 -130t-43.5 -171.5q174 20 283.5 49t171 63.5t84 73.5t22.5 78q0 30 -11.5 57t-35.5 47.5t-61 32.5t-88 12zM383 60q71 0 128 25t100.5 68t74.5 100.5t51 121.5t29 131.5t9 130.5q0 67 -14 122.5t-43 95t-72.5 61t-102.5 21.5 q-90 0 -163 -42t-125 -119t-80 -186.5t-28 -245.5q0 -54 12.5 -105t40.5 -91t73 -64t110 -24zM1225 1011q61 0 109.5 -16t82.5 -44.5t51.5 -68t17.5 -87.5q0 -37 -11 -72t-39 -67t-75 -60t-118.5 -52t-170.5 -43.5t-230 -33.5q-1 -12 -1 -24v-23q0 -172 69.5 -264.5 t190.5 -92.5q53 0 95.5 11.5t76.5 29.5t59.5 38t45.5 38t34.5 29.5t25.5 11.5q12 0 21 -10l22 -26q-48 -51 -94 -88.5t-94 -62t-99.5 -36t-109.5 -11.5q-121 0 -200.5 76.5t-105.5 219.5q-31 -69 -73.5 -124t-95 -93t-115.5 -58.5t-134 -20.5q-79 0 -137 29t-95.5 77.5 t-55.5 112t-18 132.5q0 161 38.5 286t106 211t158.5 131t196 45q120 0 192.5 -68.5t95.5 -185.5q58 118 156 186t228 68z"/>
<glyph glyph-name="Sacute" horiz-adv-x="962" unicode="Ś" d="M966 1770l-291 -213q-11 -8 -19 -11.5t-20 -3.5h-73l234 206q14 13 25.5 17.5t34.5 4.5h109zM916 1244q-11 -17 -26 -17q-12 0 -29 19t-46.5 41.5t-76 41.5t-116.5 19q-76 0 -135.5 -24.5t-101 -67t-63.5 -99t-22 -120.5q0 -61 25 -102.5t65.5 -71t92 -51t106 -42 t106 -45t92 -59.5t65.5 -85t25 -123q0 -96 -33 -182.5t-94.5 -151t-149.5 -102.5t-197 -38q-128 0 -216 49.5t-148 135.5l33 43q14 14 28 14q9 0 20.5 -12t28 -29.5t39 -38t54.5 -38t74.5 -29.5t98.5 -12q84 0 152 28.5t116 78.5t73.5 117.5t25.5 145.5q0 62 -25 103.5 t-65.5 70.5t-92 49t-105.5 40t-106 44t-92.5 59.5t-65 87t-24.5 126.5q0 81 29 156t83.5 132.5t133.5 91.5t180 34q102 0 179 -37.5t133 -109.5z"/>
<glyph glyph-name="sacute" horiz-adv-x="772" unicode="ś" d="M730 1433l-232 -254q-15 -16 -37 -16h-55l173 238q13 17 25 24.5t35 7.5h91zM711 873q-8 -14 -22 -14q-10 0 -24.5 12.5t-39.5 28t-62 28t-92 12.5q-51 0 -96.5 -17t-79 -45.5t-53 -66t-19.5 -79.5q0 -41 19 -69t50.5 -48.5t71 -35.5t81.5 -30t81.5 -33.5t71 -44.5 t50.5 -63.5t19 -90.5q0 -64 -25.5 -124t-72.5 -106.5t-113.5 -74.5t-148.5 -28q-97 0 -162 33.5t-112 87.5l23 34q6 8 12 12t15 4q10 0 25 -16t41.5 -35.5t67.5 -35.5t103 -16q59 0 107.5 19.5t83 53.5t53.5 78.5t19 94.5q0 44 -19 74t-50 51.5t-71 36.5t-81.5 29.5 t-81.5 32t-71 42.5t-50 61t-19 88q0 58 25 111.5t70 95t107 66t136 24.5q84 0 146 -26t110 -78z"/>
<glyph glyph-name="Scedilla" horiz-adv-x="962" unicode="Ş" d="M254 -274q5 0 12.5 -5.5t19 -12t29 -12t43.5 -5.5q51 0 80 25t29 67q0 22 -11 37t-31 25t-48 15.5t-62 10.5l47 114q-102 7 -175 48q-88 50 -148 136l33 43q14 14 28 14q9 0 20.5 -12t28 -29.5t39 -38t54.5 -38t74.5 -29.5t98.5 -12q84 0 152 28.5t116 78.5t73.5 117.5 t25.5 145.5q0 62 -25 103.5t-65.5 70.5t-92 49t-105.5 40t-106 44t-92.5 59.5t-65 87t-24.5 126.5q0 81 29 156t83.5 132.5t133.5 91.5t180 34q102 0 179 -37.5t133 -109.5l-28 -40q-11 -17 -26 -17q-12 0 -29 19t-46.5 41.5t-76 41.5t-116.5 19q-76 0 -135.5 -24.5 t-101 -67t-63.5 -99t-22 -120.5q0 -61 25 -102.5t65.5 -71t92 -51t106 -42t106 -45t92 -59.5t65.5 -85t25 -123q0 -96 -33 -182.5t-94.5 -151t-149.5 -102.5q-81 -35 -180 -38l-30 -76q74 -14 113 -41.5t39 -78.5q0 -33 -14.5 -59.5t-39.5 -45t-59.5 -28.5t-74.5 -10 q-38 0 -72 11.5t-57 31.5l13 27q8 11 16 11z"/>
<glyph glyph-name="scedilla" horiz-adv-x="772" unicode="ş" d="M174 -274q5 0 12.5 -5.5t19 -12t29 -12t43.5 -5.5q51 0 80 25t29 67q0 22 -11 37t-31 25t-48 15.5t-62 10.5l47 114q-81 4 -137 32q-65 34 -112 88l23 34q6 8 12 12t15 4q10 0 25 -16t41.5 -35.5t67.5 -35.5t103 -16q59 0 107.5 19.5t83 53.5t53.5 78.5t19 94.5 q0 44 -19 74t-50 51.5t-71 36.5t-81.5 29.5t-81.5 32t-71 42.5t-50 61t-19 88q0 58 25 111.5t70 95t107 66t136 24.5q84 0 146 -26t110 -78l-23 -33q-8 -14 -22 -14q-10 0 -24.5 12.5t-39.5 28t-62 28t-92 12.5q-51 0 -96.5 -17t-79 -45.5t-53 -66t-19.5 -79.5q0 -41 19 -69 t50.5 -48.5t71 -35.5t81.5 -30t81.5 -33.5t71 -44.5t50.5 -63.5t19 -90.5q0 -64 -25.5 -124t-72.5 -106.5t-114 -74.5q-52 -22 -114 -27l-31 -77q74 -14 113 -41.5t39 -78.5q0 -33 -14.5 -59.5t-39.5 -45t-59.5 -28.5t-74.5 -10q-38 0 -72 11.5t-57 31.5l13 27q8 11 16 11z "/>
<glyph glyph-name="Scaron" horiz-adv-x="962" unicode="Š" d="M425 1741h71q7 0 15.5 -2.5t13.5 -7.5l134 -131l4 -4q2 -2 3 -4q3 5 8 8l167 131q7 5 16 7.5t17 2.5h71l-241 -199h-87zM916 1244q-11 -17 -26 -17q-12 0 -29 19t-46.5 41.5t-76 41.5t-116.5 19q-76 0 -135.5 -24.5t-101 -67t-63.5 -99t-22 -120.5q0 -61 25 -102.5 t65.5 -71t92 -51t106 -42t106 -45t92 -59.5t65.5 -85t25 -123q0 -96 -33 -182.5t-94.5 -151t-149.5 -102.5t-197 -38q-128 0 -216 49.5t-148 135.5l33 43q14 14 28 14q9 0 20.5 -12t28 -29.5t39 -38t54.5 -38t74.5 -29.5t98.5 -12q84 0 152 28.5t116 78.5t73.5 117.5 t25.5 145.5q0 62 -25 103.5t-65.5 70.5t-92 49t-105.5 40t-106 44t-92.5 59.5t-65 87t-24.5 126.5q0 81 29 156t83.5 132.5t133.5 91.5t180 34q102 0 179 -37.5t133 -109.5z"/>
<glyph glyph-name="scaron" horiz-adv-x="772" unicode="š" d="M274 1417h65q8 0 14 -3.5t10 -7.5l123 -165l8 -12l12 12l163 165q11 11 27 11h63l-231 -246h-83zM711 873q-8 -14 -22 -14q-10 0 -24.5 12.5t-39.5 28t-62 28t-92 12.5q-51 0 -96.5 -17t-79 -45.5t-53 -66t-19.5 -79.5q0 -41 19 -69t50.5 -48.5t71 -35.5t81.5 -30 t81.5 -33.5t71 -44.5t50.5 -63.5t19 -90.5q0 -64 -25.5 -124t-72.5 -106.5t-113.5 -74.5t-148.5 -28q-97 0 -162 33.5t-112 87.5l23 34q6 8 12 12t15 4q10 0 25 -16t41.5 -35.5t67.5 -35.5t103 -16q59 0 107.5 19.5t83 53.5t53.5 78.5t19 94.5q0 44 -19 74t-50 51.5 t-71 36.5t-81.5 29.5t-81.5 32t-71 42.5t-50 61t-19 88q0 58 25 111.5t70 95t107 66t136 24.5q84 0 146 -26t110 -78z"/>
<glyph glyph-name="Ydieresis" horiz-adv-x="1107" unicode="Ÿ" d="M937 1665q0 -31 -23 -53t-54 -22t-53.5 22t-22.5 53q0 32 22.5 54.5t53.5 22.5t54 -22.5t23 -54.5zM602 1665q0 -31 -23.5 -53t-54.5 -22q-30 0 -53 22t-23 53q0 32 23 54.5t53 22.5q31 0 54.5 -22.5t23.5 -54.5zM615 583l-73 -583h-99l73 584l-381 831h88q14 0 21.5 -7 t12.5 -18l299 -668q8 -17 12 -33.5t7 -32.5q8 17 17 33t20 33l464 668q7 11 16 18t23 7h83z"/>
<glyph glyph-name="Zacute" horiz-adv-x="1165" unicode="Ź" d="M1029 1770l-291 -213q-11 -8 -19 -11.5t-20 -3.5h-73l234 206q14 13 25.5 17.5t34.5 4.5h109zM1185 1415l-5 -33q-2 -9 -5.5 -16t-10.5 -15l-974 -1269h824l-11 -82h-959l4 33q1 8 5.5 14.5t9.5 14.5l976 1271h-807l11 82h942z"/>
<glyph glyph-name="zacute" horiz-adv-x="838" unicode="ź" d="M748 1433l-232 -254q-15 -16 -37 -16h-55l173 238q13 17 25 24.5t35 7.5h91zM822 955q-3 -20 -18 -38l-671 -842h559l-9 -75h-674l4 38q1 8 6 18t13 19l673 845h-554l10 75h667z"/>
<glyph glyph-name="Zdotaccent" horiz-adv-x="1165" unicode="Ż" d="M819 1677q0 -17 -7 -32.5t-19 -27t-28 -18.5t-33 -7t-32.5 7t-27.5 18.5t-19 27t-7 32.5q0 18 7 33.5t19 27.5t27.5 19t32.5 7t33 -7t28 -19t19 -27.5t7 -33.5zM1185 1415l-5 -33q-2 -9 -5.5 -16t-10.5 -15l-974 -1269h824l-11 -82h-959l4 33q1 8 5.5 14.5t9.5 14.5 l976 1271h-807l11 82h942z"/>
<glyph glyph-name="zdotaccent" horiz-adv-x="838" unicode="ż" d="M636 1352q0 -18 -7.5 -33.5t-20 -27.5t-28.5 -19t-34 -7t-34 7t-28 19t-19 27.5t-7 33.5t7 34.5t19 28.5t28 19t34 7t34 -7t28.5 -19t20 -28.5t7.5 -34.5zM822 955q-3 -20 -18 -38l-671 -842h559l-9 -75h-674l4 38q1 8 6 18t13 19l673 845h-554l10 75h667z"/>
<glyph glyph-name="Zcaron" horiz-adv-x="1165" unicode="Ž" d="M485 1741h71q7 0 15.5 -2.5t13.5 -7.5l134 -131l4 -4q2 -2 3 -4q3 5 8 8l167 131q7 5 16 7.5t17 2.5h71l-241 -199h-87zM1185 1415l-5 -33q-2 -9 -5.5 -16t-10.5 -15l-974 -1269h824l-11 -82h-959l4 33q1 8 5.5 14.5t9.5 14.5l976 1271h-807l11 82h942z"/>
<glyph glyph-name="zcaron" horiz-adv-x="838" unicode="ž" d="M292 1417h65q8 0 14 -3.5t10 -7.5l123 -165l8 -12l12 12l163 165q11 11 27 11h63l-231 -246h-83zM822 955q-3 -20 -18 -38l-671 -842h559l-9 -75h-674l4 38q1 8 6 18t13 19l673 845h-554l10 75h667z"/>
<glyph glyph-name="florin" d="M671 798l-191 -786q-24 -98 -67 -168t-102.5 -116t-134.5 -67.5t-162 -21.5l6 47q3 31 40 31q51 1 101.5 16.5t94 50.5t78 91.5t54.5 139.5l191 780l-192 10q-23 2 -23 20q0 1 0.5 7t4.5 35h228l47 192q47 192 165 282.5t300 90.5l-7 -49q-4 -29 -38 -29q-53 0 -103 -16 t-93.5 -51t-78 -91.5t-55.5 -138.5l-49 -190h358l-9 -69h-363z" unicode="ƒ"/>
<glyph glyph-name="circumflex" horiz-adv-x="540" unicode="ˆ" d="M594 1169h-61q-15 0 -24 12l-123 164l-8 12l-11 -12l-164 -164q-5 -5 -12 -8.5t-15 -3.5h-65l231 246h83z"/>
<glyph glyph-name="caron" horiz-adv-x="540" unicode="ˇ" d="M141 1415h65q8 0 14 -3.5t10 -7.5l123 -165l8 -12l12 12l163 165q11 11 27 11h63l-231 -246h-83z"/>
<glyph glyph-name="uni02C9" horiz-adv-x="540" unicode="ˉ" d="M121 1316h504l-8 -64h-503z"/>
<glyph glyph-name="breve" horiz-adv-x="540" unicode="˘" d="M357 1168q-53 0 -90.5 15t-60.5 41.5t-33.5 62.5t-10.5 78q0 24 3 50h67q-3 -23 -3 -43q0 -30 7 -56t23 -44.5t41.5 -29.5t63.5 -11q44 0 75.5 14.5t53 40t33 58.5t16.5 71h67q-6 -50 -23.5 -95t-48 -79t-75 -53.5t-105.5 -19.5z"/>
<glyph glyph-name="dotaccent" horiz-adv-x="540" unicode="˙" d="M484 1350q0 -18 -7.5 -33.5t-20 -27.5t-28.5 -19t-34 -7t-34 7t-28 19t-19 27.5t-7 33.5t7 34.5t19 28.5t28 19t34 7t34 -7t28.5 -19t20 -28.5t7.5 -34.5z"/>
<glyph glyph-name="ring" horiz-adv-x="540" unicode="˚" d="M256 1302q0 -50 32 -82t83 -32q50 0 82 32t32 82t-32 82t-82 32q-51 0 -83 -32t-32 -82zM198 1302q0 36 13.5 66t37 51.5t55 34t66.5 12.5t66.5 -12.5t55 -34t37.5 -51.5t14 -66t-14 -65.5t-37.5 -51.5t-55 -34t-66.5 -12t-66.5 12t-55 34t-37 51.5t-13.5 65.5z"/>
<glyph glyph-name="ogonek" horiz-adv-x="540" unicode="˛" d="M326 -244q9 0 12 -8l10 -33q-28 -24 -68.5 -38.5t-83.5 -14.5q-66 0 -103.5 33t-37.5 91q0 37 15 70.5t39.5 62.5t55.5 52.5t62 41.5l45 -13q-21 -12 -46.5 -30t-47 -42t-36.5 -54t-15 -64q0 -41 25.5 -65t67.5 -24q26 0 44 5.5t30.5 12t19.5 12t12 5.5z"/>
<glyph glyph-name="tilde" horiz-adv-x="540" unicode="˜" d="M472 1279q40 0 63 27.5t30 74.5h57q-4 -36 -16.5 -67t-32.5 -54t-47 -36t-59 -13q-31 0 -55.5 16.5t-47 36.5t-44 36.5t-45.5 16.5q-38 0 -62 -29t-31 -74h-58q4 36 17.5 67.5t34 54t47 35.5t58.5 13q31 0 56 -16.5t47 -36t43 -36t45 -16.5z"/>
<glyph glyph-name="hungarumlaut" horiz-adv-x="540" unicode="˝" d="M739 1431l-244 -254q-16 -16 -38 -16h-45l197 238q13 16 24.5 24t34.5 8h71zM487 1431l-213 -254q-8 -11 -17.5 -13.5t-20.5 -2.5h-41l169 238q12 17 23.5 24.5t34.5 7.5h65z"/>
<glyph glyph-name="pi" horiz-adv-x="1084" unicode="π" d="M1113 995l-4 -36q-2 -14 -12 -24.5t-27 -10.5h-157l-113 -924h-93l113 924h-426l-86 -709q-14 -110 -71.5 -167.5t-155.5 -57.5q-29 0 -53 4.5t-44 18.5l9 38q5 13 17 13q8 0 21 -2.5t35 -2.5q130 0 149 157l86 708h-183l4 33q2 13 13 25.5t31 12.5h947z"/>
<glyph glyph-name="endash" horiz-adv-x="997" unicode="–" d="M151 612h725l-8 -69h-725z"/>
<glyph glyph-name="emdash" horiz-adv-x="1467" unicode="—" d="M151 612h1195l-9 -69h-1194z"/>
<glyph glyph-name="quoteleft" horiz-adv-x="366" unicode="‘" d="M227 1059q-23 55 -23 114q0 88 46 168t118 146l23 -16q6 -5 6 -12q0 -5 -2.5 -10t-10.5 -13q-41 -49 -70 -108t-29 -122q0 -47 19 -89q2 -4 2 -11q0 -16 -17 -22z"/>
<glyph glyph-name="quoteright" horiz-adv-x="366" unicode="’" d="M325 1475q23 -55 23 -114q0 -88 -46 -168.5t-118 -145.5l-23 16q-7 5 -7 12q0 5 3 9.5t11 13.5q42 49 70 108t28 122q0 23 -4 45t-14 44q-2 4 -2 11q0 15 17 22z"/>
<glyph glyph-name="quotesinglbase" horiz-adv-x="389" unicode="‚" d="M184 174q23 -55 23 -114q0 -88 -46 -168.5t-118 -145.5l-23 16q-7 5 -7 12q0 5 3 9.5t11 13.5q42 49 70 108t28 122q0 23 -4 45t-14 44q-2 4 -2 11q0 15 17 22z"/>
<glyph glyph-name="quotedblleft" horiz-adv-x="615" unicode="“" d="M477 1059q-23 55 -23 114q0 88 46 168t118 146l23 -16q6 -5 6 -12q0 -5 -2.5 -10t-10.5 -13q-41 -49 -70 -108t-29 -122q0 -47 19 -89q2 -4 2 -11q0 -16 -17 -22zM227 1059q-23 55 -23 114q0 88 46 168t118 146l23 -16q6 -5 6 -12q0 -5 -2.5 -10t-10.5 -13 q-41 -49 -70 -108t-29 -122q0 -47 19 -89q2 -4 2 -11q0 -16 -17 -22z"/>
<glyph glyph-name="quotedblright" horiz-adv-x="615" unicode="”" d="M590 1475q23 -55 23 -114q0 -88 -46 -168.5t-118 -145.5l-23 16q-7 5 -7 12q0 5 3 9.5t11 13.5q42 49 70 108t28 122q0 23 -4 45t-14 44q-2 4 -2 11q0 15 17 22zM340 1475q23 -55 23 -114q0 -88 -46 -168.5t-118 -145.5l-23 16q-7 5 -7 12q0 5 3 9.5t11 13.5 q42 49 70 108t28 122q0 23 -4 45t-14 44q-2 4 -2 11q0 15 17 22z"/>
<glyph glyph-name="quotedblbase" horiz-adv-x="615" unicode="„" d="M374 174q23 -55 23 -114q0 -88 -46 -168.5t-118 -145.5l-23 16q-7 5 -7 12q0 5 3 9.5t11 13.5q42 49 70 108t28 122q0 23 -4 45t-14 44q-2 4 -2 11q0 15 17 22zM124 174q23 -55 23 -114q0 -88 -46 -168.5t-118 -145.5l-23 16q-7 5 -7 12q0 5 3 9.5t11 13.5q42 49 70 108 t28 122q0 23 -4 45t-14 44q-2 4 -2 11q0 15 17 22z"/>
<glyph glyph-name="dagger" horiz-adv-x="1068" unicode="†" d="M200 935q2 16 14.5 29t35.5 13q70 -1 148.5 -8.5t153.5 -10.5l47 474q11 5 23.5 8.5t26.5 3.5t26 -3.5t21 -8.5l-71 -474q76 3 157 10.5t151 8.5q20 0 30 -11t10 -25q0 -2 -0.5 -7t-2.5 -31h-352l-61 -508l-79 -745q-11 -6 -24 -9t-26 -3q-29 0 -48 12l104 745l61 508 h-350z"/>
<glyph glyph-name="daggerdbl" horiz-adv-x="1068" unicode="‡" d="M458 178l88 725h-351l5 32q2 16 14.5 29t35.5 13q70 -1 148.5 -8.5t153.5 -10.5l47 474q11 5 23.5 8.5t26.5 3.5t26 -3.5t21 -8.5l-71 -474q76 3 157 10.5t151 8.5q20 0 30 -11t10 -25q0 -2 -0.5 -7t-2.5 -31h-351l-90 -725h351l-3 -31q-2 -16 -15 -29.5t-36 -13.5 q-70 1 -149.5 9t-154.5 10l-44 -473q-11 -6 -24 -9t-26 -3q-29 0 -48 12l71 473q-38 -1 -78 -4l-79 -6q-39 -3 -77.5 -5.5t-74.5 -3.5q-21 0 -30.5 12t-9.5 27q0 1 0.5 6t4.5 29h351z"/>
<glyph glyph-name="bullet" d="M313 596q0 61 23 115t63 94.5t92.5 63.5t112.5 23q61 0 115 -23t94 -63.5t63 -94.5t23 -115q0 -60 -23 -112.5t-63 -92.5t-94 -63t-115 -23q-60 0 -112.5 23t-92.5 63t-63 92.5t-23 112.5z" unicode="•"/>
<glyph glyph-name="ellipsis" horiz-adv-x="1376" unicode="…" d="M1039 77q0 19 7 36t19.5 29.5t29 20t36.5 7.5q19 0 36.5 -7.5t30 -20t20 -29.5t7.5 -36q0 -39 -27.5 -65.5t-66.5 -26.5t-65.5 26.5t-26.5 65.5zM549 77q0 19 7 36t19.5 29.5t29 20t36.5 7.5q19 0 36 -7.5t29.5 -20t20 -29.5t7.5 -36q0 -20 -7.5 -36.5t-20 -29 t-29.5 -19.5t-36 -7q-39 0 -65.5 26.5t-26.5 65.5zM58 77q0 19 7 36t19.5 29.5t29 20t36.5 7.5q19 0 36.5 -7.5t30 -20t20 -29.5t7.5 -36q0 -39 -27.5 -65.5t-66.5 -26.5t-65.5 26.5t-26.5 65.5z"/>
<glyph glyph-name="perthousand" horiz-adv-x="2080" unicode="‰" d="M1912 398q0 60 -13 103.5t-36 72t-53.5 42t-66.5 13.5q-48 0 -91.5 -20.5t-77 -64t-53 -110.5t-19.5 -160q0 -59 13 -102t35.5 -71t53.5 -41.5t67 -13.5q48 0 91.5 20t77 63t53 109.5t19.5 159.5zM1986 398q0 -103 -27 -180.5t-72 -129.5t-103 -78.5t-121 -26.5 q-51 0 -94.5 19t-74.5 56t-48.5 91t-17.5 125q0 103 26 181.5t70 131t102.5 79t123.5 26.5q51 0 94 -19t74.5 -56.5t49.5 -92t18 -126.5zM1246 398q0 60 -13 103.5t-36 72t-53.5 42t-66.5 13.5q-48 0 -92 -20.5t-77.5 -64t-53.5 -110.5t-20 -160q0 -59 13 -102t36 -71 t54.5 -41.5t67.5 -13.5q48 0 91.5 20t76.5 63t53 109.5t20 159.5zM1320 398q0 -103 -27.5 -180.5t-72.5 -129.5t-103 -78.5t-120 -26.5q-51 0 -94.5 19t-74.5 56t-48.5 91t-17.5 125q0 103 26 181.5t70 131t102.5 79t123.5 26.5q51 0 94 -19t74.5 -56.5t49.5 -92t18 -126.5z M1232 1397q8 8 16.5 13t22.5 5h65l-1109 -1398q-15 -17 -36 -17h-66zM632 1136q0 60 -13 103.5t-36 72t-54 42.5t-67 14q-48 0 -92 -20.5t-77.5 -64t-53 -110.5t-19.5 -160q0 -60 13 -103t35.5 -71t54 -41.5t67.5 -13.5q48 0 91.5 20t77 63t53.5 109.5t20 159.5zM706 1137 q0 -103 -27.5 -181t-72.5 -130t-103 -78t-120 -26q-51 0 -94.5 19t-75 55.5t-49 91t-17.5 125.5q0 103 26 181t70 130.5t103 79t124 26.5q51 0 94 -19t74.5 -56t49.5 -91.5t18 -126.5z"/>
<glyph glyph-name="guilsinglleft" horiz-adv-x="581" unicode="‹" d="M146 513l2 12l269 378l28 -14q13 -8 13 -21q0 -12 -11 -26l-202 -295q-17 -21 -26 -28q9 -8 18 -28l131 -295q5 -12 5 -19q0 -19 -19 -28l-32 -15z"/>
<glyph glyph-name="guilsinglright" horiz-adv-x="581" unicode="›" d="M168 134l-27 15q-14 8 -14 21q0 12 9 26l205 295q12 19 23 28q-8 6 -17 28l-132 295q-4 8 -4 16q0 21 20 31l31 14l175 -378l-1 -12z"/>
<glyph glyph-name="fraction" horiz-adv-x="463" unicode="⁄" d="M-149 31q-12 -19 -26 -25t-31 -6h-38l907 1380q22 35 58 35h40z"/>
<glyph glyph-name="Euro" d="M76 862h158q30 133 86.5 238t135.5 178.5t178 112.5t213 39q64 0 117 -11.5t96.5 -33.5t80 -54.5t68.5 -74.5l-37 -36q-5 -5 -8.5 -7.5t-11.5 -2.5t-18 10.5t-25 26t-37 33.5t-54 33.5t-75.5 26t-101.5 10.5q-95 0 -177 -32t-148 -94.5t-114 -153.5t-75 -208h613l-3 -29 q-2 -11 -10 -19.5t-25 -8.5h-586q-7 -42 -11 -86t-6 -92h521l-3 -29q-2 -12 -11 -20t-24 -8h-484q0 -122 26 -216t74.5 -158t118.5 -97.5t159 -33.5q62 0 111.5 12t88 30.5t67.5 40t49.5 40t34.5 30.5t23 12q8 0 16 -9l32 -33q-41 -46 -88 -83.5t-101 -64t-116 -41 t-132 -14.5q-110 0 -195.5 40.5t-144 116.5t-88.5 184.5t-30 243.5h-162l6 57h157q2 47 6 91.5t12 86.5h-152z" unicode="€"/>
<glyph glyph-name="trademark" horiz-adv-x="1313" unicode="™" d="M613 1415l-7 -58h-182l-63 -517h-69l63 517h-183l8 58h433zM957 1036q2 -8 4 -14.5t4 -14.5q3 8 7 14.5t9 14.5l238 366q5 8 10 10.5t15 2.5h54l-69 -575h-60l54 446l9 39l-245 -378q-9 -15 -26 -15h-10q-15 0 -22 15l-157 380v-41l-55 -446h-60l70 575h55q10 0 15 -2.5 t8 -10.5z"/>
<glyph glyph-name="Omega" horiz-adv-x="1388" unicode="Ω" d="M736 0l44 360q100 23 184 67.5t144.5 113t94.5 162t34 214.5q0 106 -33.5 187t-92.5 136t-139 82.5t-173 27.5q-112 0 -213.5 -36.5t-179 -108.5t-123 -179.5t-45.5 -249.5q0 -86 24 -154.5t68.5 -120.5t106.5 -87t138 -54l-43 -360h-461q-31 0 -31 31v1q0 2 0.5 7 t1.5 16t3 31h418l27 223q-78 21 -143 62t-111.5 100.5t-72.5 136.5t-26 169q0 154 54 275.5t146.5 205.5t214.5 128.5t257 44.5q114 0 211.5 -35t168 -101t110.5 -160.5t40 -212.5q0 -125 -37.5 -227.5t-103 -180t-154 -129.5t-191.5 -76l-28 -223h418l-5 -51 q-2 -14 -14 -23.5t-27 -11.5h-461z"/>
<glyph glyph-name="partialdiff" horiz-adv-x="1067" unicode="∂" d="M401 64q75 0 143 35t127 101.5t106.5 161.5t80.5 215q-3 52 -16 102t-40.5 89t-70.5 63t-106 24q-102 0 -183.5 -48t-138.5 -125t-87.5 -172.5t-30.5 -191.5q0 -121 58 -187.5t158 -66.5zM463 1341q37 24 70 41.5t66 28.5t67 16.5t72 5.5q69 0 122 -26.5t89 -76.5 t55 -123t19 -167q0 -65 -9 -138q-24 -195 -77.5 -362t-134 -290t-186.5 -192.5t-236 -69.5q-67 0 -121 22t-92.5 63.5t-59 100.5t-20.5 134q0 82 19 160t53.5 147t83 127t108 100t128.5 65.5t144 23.5q49 0 92.5 -13.5t79 -41t61.5 -69.5t40 -100q17 78 28.5 160.5 t11.5 168.5q0 156 -55.5 237.5t-163.5 81.5q-45 0 -80.5 -10.5t-62.5 -22.5t-45.5 -22.5t-28.5 -10.5q-14 0 -21 17z"/>
<glyph glyph-name="Delta" horiz-adv-x="1205" unicode="∆" d="M99 80h906l-286 1153q-4 16 -8 34.5t-8 40.5q-8 -22 -16.5 -41t-16.5 -35zM1129 0h-1174l717 1415h89z"/>
<glyph glyph-name="product" horiz-adv-x="1364" unicode="∏" d="M1399 1415l-9 -80h-211l-207 -1687h-95l206 1687h-596l-207 -1687h-95l207 1687h-210l9 80h1208z"/>
<glyph glyph-name="summation" horiz-adv-x="1256" unicode="∑" d="M1298 1415l-9 -82h-951l494 -788l-4 -26l-686 -789h949l-10 -82h-1095l5 36q1 14 15 31l716 818l-516 813q-8 13 -8 25q0 2 1 10t4 34h1095z"/>
<glyph glyph-name="minus" d="M192 706h828l-9 -71h-827z" unicode="−"/>
<glyph glyph-name="radical" horiz-adv-x="1122" unicode="√" d="M594 0h-77l-182 691h-232q-14 0 -24 7.5t-10 24.5q0 2 1 9.5t3 27.5h313q15 0 23 -7.5t10 -16.5l141 -545q5 -22 7 -42.5t3 -41.5q10 35 25 75l676 1513q5 11 15 18t22 7h55z"/>
<glyph glyph-name="infinity" horiz-adv-x="1255" unicode="∞" d="M904 360q48 0 88.5 21t70 57.5t46.5 86.5t17 108q0 45 -12.5 80t-35 59t-52.5 36.5t-66 12.5q-40 0 -76.5 -19t-70 -51t-66 -73.5t-65.5 -86.5q22 -45 44 -87t48.5 -74t58 -51t71.5 -19zM319 360q40 0 76.5 19t70.5 50.5t66.5 73.5t64.5 87q-21 45 -43.5 87t-48.5 74 t-58 51t-72 19q-45 0 -85 -19.5t-70.5 -55t-48.5 -86t-18 -111.5q0 -46 12.5 -81t35 -59t52.5 -36.5t66 -12.5zM897 282q-51 0 -90.5 19.5t-71 52.5t-57 76t-47.5 89q-34 -46 -70 -89t-76 -76t-84 -52.5t-95 -19.5q-48 0 -90 18t-73 51.5t-49 81.5t-18 108q0 78 25.5 144 t68 113.5t97.5 74t115 26.5q51 0 90.5 -19.5t71 -52.5t57 -76t48.5 -89q34 46 69.5 89t75.5 76t84 52.5t95 19.5q49 0 91.5 -18t74 -51.5t49.5 -81.5t18 -108q0 -76 -25 -141.5t-67.5 -113.5t-98.5 -75.5t-118 -27.5z"/>
<glyph glyph-name="integral" horiz-adv-x="711" unicode="∫" d="M491 1086q21 87 55.5 152t79.5 107.5t99 64t113 21.5q36 0 62 -5.5t49 -18.5l-10 -44q-4 -10 -10 -12.5t-19 -2.5q-9 0 -22.5 0.5t-33.5 0.5q-96 0 -167 -65.5t-105 -208.5l-252 -1062q-24 -100 -61.5 -170.5t-86 -115.5t-106 -65.5t-121.5 -20.5q-31 0 -60.5 4.5 t-49.5 18.5l12 39q4 8 8 11t12 3q10 0 26 -2t42 -2q54 0 99.5 16t82.5 51.5t64.5 92.5t47.5 138z"/>
<glyph glyph-name="approxequal" d="M781 493q26 0 51 6t47.5 16.5t41.5 23.5t31 27l11 -56q-35 -42 -87 -65.5t-108 -23.5q-52 0 -100.5 18t-95 40t-92.5 40t-93 18q-27 0 -52.5 -6t-47.5 -16.5t-40 -23.5t-30 -28l-15 54q36 45 88 69t112 24q53 0 101.5 -18.5t95 -40t91.5 -40t91 -18.5zM820 808 q25 0 50.5 6t48 16.5t41 23.5t30.5 27l12 -56q-35 -43 -87.5 -66t-108.5 -23q-51 0 -99.5 18t-95 40t-92.5 40t-92 18q-27 0 -52.5 -6t-47.5 -16.5t-40.5 -24t-30.5 -27.5l-14 54q35 45 87 68.5t112 23.5q52 0 100.5 -18t95 -40t92 -40t91.5 -18z" unicode="≈"/>
<glyph glyph-name="notequal" d="M207 867h481l150 269h70l-150 -269h275l-8 -71h-307l-135 -241h412l-9 -71h-442l-152 -272h-69l151 272h-314l8 71h346l134 241h-450z" unicode="≠"/>
<glyph glyph-name="lessequal" horiz-adv-x="1067" unicode="≤" d="M113 153h750l-10 -73h-750zM184 729l795 374l-7 -62q-2 -11 -9 -20t-26 -17l-583 -271q-38 -15 -79 -24q20 -5 38 -11t35 -14l516 -272q26 -14 26 -31v-3q0 -1 -1 -7.5t-2.5 -20t-4.5 -37.5l-704 376z"/>
<glyph glyph-name="greaterequal" horiz-adv-x="1067" unicode="≥" d="M867 80h-750l9 73h750zM941 689l-795 -374l7 62q2 11 9 20t26 17l583 271q38 15 79 24q-20 5 -38 11t-35 14l-516 272q-26 14 -26 31v2q0 2 1 8.5t2.5 20t4.5 37.5l704 -376z"/>
<glyph glyph-name="lozenge" d="M240 678l332 -685q8 -15 12.5 -29.5t7.5 -28.5q4 14 8.5 28t12.5 30l333 685l-333 685q-8 16 -12.5 30t-8.5 28q-4 -14 -8.5 -28t-11.5 -30zM157 678l402 832h66l402 -832l-402 -832h-66z" unicode="◊"/>
<glyph glyph-name="uni2669" horiz-adv-x="0" unicode="♩" d="M-118 -500l242 2000h2l-242 -2000h-2z"/>
<glyph glyph-name="fl" horiz-adv-x="1046" unicode="ﬂ" d="M307 894l-108 -874l-42 -230q-4 -21 -16.5 -31t-32.5 -10h-34l140 1142l-126 9q-24 1 -24 22l4 42h155l8 66q11 88 44 163t86 129.5t125.5 85.5t161.5 31q69 0 133 -6.5t121 -6.5h52l-175 -1426h-93l165 1356q-47 2 -99 7.5t-100 5.5q-69 0 -125.5 -23.5t-99 -67.5 t-70 -107t-36.5 -141l-8 -66h263l-8 -70h-261z"/>
<glyph glyph-name="undercommaaccent" d="M252 -91l-110 -281h-59l78 281h91z" horiz-adv-x="540"/>
<glyph glyph-name="grave.case" d="M231 1770q23 0 33.5 -4.5t21.5 -17.5l183 -206h-73q-12 0 -19 3.5t-16 11.5l-238 213h108z" horiz-adv-x="540"/>
<glyph glyph-name="dieresis.case" d="M643 1665q0 -31 -23 -53t-54 -22t-53.5 22t-22.5 53q0 32 22.5 54.5t53.5 22.5t54 -22.5t23 -54.5zM308 1665q0 -31 -23.5 -53t-54.5 -22q-30 0 -53 22t-23 53q0 32 23 54.5t53 22.5q31 0 54.5 -22.5t23.5 -54.5z" horiz-adv-x="540"/>
<glyph glyph-name="macron.case" d="M147 1648h527l-9 -58h-525z" horiz-adv-x="540"/>
<glyph glyph-name="acute.case" d="M703 1770l-291 -213q-11 -8 -19 -11.5t-20 -3.5h-73l234 206q14 13 25.5 17.5t34.5 4.5h109z" horiz-adv-x="540"/>
<glyph glyph-name="circumflex.case" d="M650 1542h-71q-7 0 -15.5 2.5t-13.5 7.5l-134 131l-4 4q-2 2 -3 4q-3 -5 -8 -8l-167 -131q-7 -5 -16 -7.5t-17 -2.5h-71l241 199h87z" horiz-adv-x="540"/>
<glyph glyph-name="caron.case" d="M159 1741h71q7 0 15.5 -2.5t13.5 -7.5l134 -131l4 -4q2 -2 3 -4q3 5 8 8l167 131q7 5 16 7.5t17 2.5h71l-241 -199h-87z" horiz-adv-x="540"/>
<glyph glyph-name="breve.case" d="M396 1528q-103 0 -152.5 44t-49.5 128q0 20 3 41h62q-1 -8 -1.5 -15.5t-0.5 -15.5q0 -57 34 -89.5t112 -32.5q88 0 130.5 40.5t50.5 112.5h63q-13 -99 -74.5 -156t-176.5 -57z" horiz-adv-x="540"/>
<glyph glyph-name="dotaccent.case" d="M493 1677q0 -17 -7 -32.5t-19 -27t-28 -18.5t-33 -7t-32.5 7t-27.5 18.5t-19 27t-7 32.5q0 18 7 33.5t19 27.5t27.5 19t32.5 7t33 -7t28 -19t19 -27.5t7 -33.5z" horiz-adv-x="540"/>
<glyph glyph-name="ring.case" d="M280 1630q0 -50 31.5 -82t82.5 -32q50 0 82 32t32 82t-32 82t-82 32q-51 0 -82.5 -32t-31.5 -82zM227 1630q0 34 13.5 63.5t36 50.5t52.5 33t64 12t65 -12t53.5 -33t36 -50.5t13.5 -63.5q0 -35 -13.5 -64t-36 -50t-53.5 -32.5t-65 -11.5t-64 11.5t-52.5 32.5t-36 50 t-13.5 64z" horiz-adv-x="540"/>
<glyph glyph-name="tilde.case" d="M518 1615q38 0 61.5 27.5t30.5 70.5h52q-5 -34 -16.5 -64t-30.5 -52t-45 -34.5t-58 -12.5q-31 0 -56.5 16t-49 35t-46 35t-46.5 16q-38 0 -61.5 -28.5t-29.5 -70.5h-55q4 34 16.5 64t32 52t45.5 34.5t58 12.5q31 0 57 -16t49 -34.5t45.5 -34.5t46.5 -16z" horiz-adv-x="540"/>
<glyph glyph-name="hungarumlaut.case" d="M798 1765l-239 -207q-17 -16 -39 -16h-51l190 191q16 16 29.5 24t36.5 8h73zM515 1765l-207 -207q-8 -8 -16.5 -12t-20.5 -4h-45l163 191q14 16 27 24t36 8h63z" horiz-adv-x="540"/>
<glyph glyph-name="caron.salt" d="M420 1457q20 0 20 -21q0 -10 -4.5 -26.5t-15 -46t-28.5 -73.5l-45 -110q-7 -14 -15.5 -19t-23.5 -5h-31l85 301h58z" horiz-adv-x="540"/>
</font>
</defs>
</svg>
