<?xml version="1.0" encoding="UTF-8" standalone="no"?>
<!DOCTYPE svg  PUBLIC '-//W3C//DTD SVG 1.1//EN'  'http://www.w3.org/Graphics/SVG/1.1/DTD/svg11.dtd'>
<svg xmlns="http://www.w3.org/2000/svg">
<defs>
<font id="LatoTR-Light" horiz-adv-x="1160">
<font-face underline-position="-132" font-weight="300" descent="-400" panose-1="2 0 5 3 0 0 0 2 0 4" units-per-em="2000" unicode-range="U+000D-FB02" bbox="-202 -372 2170 1789" x-height="995" underline-thickness="68" font-family="LatoTR" ascent="1600" cap-height="1415"/>
<missing-glyph d="M82 36h859v1343h-859v-1343zM47 1415h931v-1415h-931v1415zM410 265q0 32 22 55t55 23q32 0 54 -23t22 -55t-22 -55t-54 -23q-33 0 -55 23t-22 55zM262 1134q21 20 46.5 38t55.5 32t65.5 22.5t77.5 8.5q54 0 100.5 -15.5t81 -45t54 -71t19.5 -93.5q0 -55 -16.5 -94.5 t-41 -69t-53.5 -52t-54.5 -42.5t-44 -39.5t-20.5 -44.5l-10 -114h-65l-6 122q-2 31 14 54.5t40.5 44.5t54 42t54.5 47.5t42 60t17 80.5q0 36 -14 64t-37.5 47.5t-55 30t-66.5 10.5q-46 0 -79 -11.5t-56 -26t-36.5 -26t-20.5 -11.5q-14 0 -21 11z" horiz-adv-x="1025"/>
<glyph glyph-name=".notdef" d="M82 36h859v1343h-859v-1343zM47 1415h931v-1415h-931v1415zM410 265q0 32 22 55t55 23q32 0 54 -23t22 -55t-22 -55t-54 -23q-33 0 -55 23t-22 55zM262 1134q21 20 46.5 38t55.5 32t65.5 22.5t77.5 8.5q54 0 100.5 -15.5t81 -45t54 -71t19.5 -93.5q0 -55 -16.5 -94.5 t-41 -69t-53.5 -52t-54.5 -42.5t-44 -39.5t-20.5 -44.5l-10 -114h-65l-6 122q-2 31 14 54.5t40.5 44.5t54 42t54.5 47.5t42 60t17 80.5q0 36 -14 64t-37.5 47.5t-55 30t-66.5 10.5q-46 0 -79 -11.5t-56 -26t-36.5 -26t-20.5 -11.5q-14 0 -21 11z" horiz-adv-x="1025"/>
<glyph glyph-name=".null" horiz-adv-x="0"/>
<glyph glyph-name="nonmarkingreturn" horiz-adv-x="0" unicode=""/>
<glyph glyph-name="NULL" horiz-adv-x="0"/>
<glyph glyph-name="NULL" horiz-adv-x="0"/>
<glyph glyph-name="space" horiz-adv-x="386" unicode=" "/>
<glyph glyph-name="exclam" horiz-adv-x="645" unicode="!" d="M230 77q0 19 7 36t19.5 29.5t29 20t36.5 7.5q19 0 36 -7.5t29.5 -20t20 -29.5t7.5 -36q0 -20 -7.5 -36.5t-20 -29t-29.5 -19.5t-36 -7q-39 0 -65.5 26.5t-26.5 65.5zM372 1415v-572q0 -45 -1 -85t-2.5 -81.5t-4.5 -87.5t-6 -102h-65q-3 56 -6 102t-4.5 87.5t-2.5 81.5 t-1 85v572h93z"/>
<glyph glyph-name="quotedbl" horiz-adv-x="734" unicode='&quot;' d="M553 1415v-292l-9 -153q-2 -17 -9 -26.5t-24 -9.5q-14 0 -22 9.5t-10 26.5l-9 153v292h83zM263 1415v-292l-9 -153q-2 -17 -9 -26.5t-24 -9.5q-14 0 -22 9.5t-10 26.5l-9 153v292h83z"/>
<glyph glyph-name="numbersign" d="M389 513h298l82 389h-298zM757 443l-94 -443h-41q-14 0 -23 8.5t-9 24.5q0 7 1 11l86 399h-298l-86 -403q-5 -22 -17 -31t-29 -9h-42l94 443h-183q-14 0 -22 6.5t-8 23.5v9q0 5 2 15l3 16h218l82 389h-253l6 38q4 33 44 33h213l87 404q4 19 16.5 28.5t29.5 9.5h42 l-95 -442h298l95 442h42q31 0 31 -30q0 -8 -1 -12l-87 -400h225l-6 -38q-5 -33 -45 -33h-184l-82 -389h225q30 0 30 -26l-4 -44h-261z" unicode="#"/>
<glyph glyph-name="dollar" d="M307 1072q0 -62 22 -106t60 -75.5t87.5 -54t105.5 -41.5l28 552q-76 -4 -132.5 -28t-94.5 -61.5t-57 -85.5t-19 -100zM944 398q0 66 -25 112t-67 78t-96.5 53.5t-114.5 40.5l-31 -617q80 5 142.5 32.5t105 72t64.5 103t22 125.5zM542 -15q-128 6 -223 55t-167 129l27 39 q12 15 28 15q9 0 22.5 -11t32.5 -27.5t45 -36t60.5 -37t78.5 -30.5t100 -16l32 636q-68 21 -132.5 47t-115 66.5t-81.5 100t-31 149.5q0 69 26 133.5t76.5 115t124.5 81.5t169 34l9 168q1 14 8.5 23t21.5 9h36l-11 -201q101 -7 177 -44.5t139 -100.5l-22 -34 q-10 -17 -26 -17q-12 0 -31.5 16.5t-51 36.5t-78 38.5t-111.5 23.5l-29 -572q47 -15 94.5 -31t91 -36t80.5 -46t64.5 -61.5t43 -81t15.5 -105.5q0 -86 -29 -162t-83.5 -133.5t-134 -92.5t-181.5 -40l-11 -211q-1 -13 -8.5 -22t-20.5 -9h-36z" unicode="$"/>
<glyph glyph-name="percent" horiz-adv-x="1534" unicode="%" d="M1370 336q0 77 -17.5 132.5t-47.5 91t-70.5 52t-85.5 16.5t-85.5 -16.5t-70.5 -52t-47.5 -91t-17.5 -132.5t17.5 -131.5t47.5 -89.5t70.5 -51t85.5 -16t85.5 16t70.5 51t47.5 89.5t17.5 131.5zM1446 336q0 -87 -24 -153.5t-64.5 -110.5t-94.5 -66.5t-114 -22.5 q-62 0 -116.5 22.5t-94.5 66.5t-63 110.5t-23 153.5q0 88 23 155t63 111.5t94.5 67t116.5 22.5t116 -22.5t94.5 -67t63.5 -111.5t23 -155zM1219 1397q6 8 14.5 13t22.5 5h67l-1016 -1397q-13 -18 -35 -18h-68zM606 1075q0 77 -17.5 132t-48 90.5t-71 52t-85.5 16.5 t-85 -16.5t-70 -52t-47.5 -90.5t-17.5 -132t17.5 -131.5t47.5 -89.5t70 -51.5t85 -16.5t85.5 16.5t71 51.5t48 89.5t17.5 131.5zM682 1075q0 -87 -24 -153.5t-65 -110.5t-95 -66.5t-114 -22.5q-62 0 -116.5 22.5t-94.5 66.5t-63 110.5t-23 153.5q0 88 23 155t63 111.5 t94.5 67t116.5 22.5t116 -22.5t94.5 -67t64 -111.5t23.5 -155z"/>
<glyph glyph-name="ampersand" horiz-adv-x="1383" unicode="&amp;" d="M203 368q0 -77 29.5 -134t76.5 -95.5t104.5 -57.5t113.5 -19q70 0 132.5 16t117 44.5t100 67.5t83.5 86l-459 451q-6 5 -11 11q-66 -28 -119.5 -67t-90.5 -86.5t-57 -102.5t-20 -114zM659 1431q67 0 127 -23t104.5 -62t71 -90.5t28.5 -107.5q-14 -3 -25 -6q-23 -5 -36 -5 q-8 0 -15 6t-10 17q-7 26 -24 60t-46 64t-72.5 51t-102.5 21q-60 0 -109 -18.5t-84 -52t-54.5 -79.5t-19.5 -101q0 -82 42 -157t130 -161l446 -440q45 72 71.5 150t34.5 151q2 13 8 20.5t18 7.5h55q-2 -94 -35.5 -193.5t-95.5 -190.5l298 -292h-89q-18 0 -29.5 4t-26.5 18 l-205 201q-45 -52 -99 -96t-117 -75.5t-134.5 -49.5t-150.5 -18q-75 0 -148 25t-130.5 73.5t-93 119t-35.5 160.5q0 72 26 137.5t71 120t107 97.5t134 70q-71 80 -106.5 155.5t-35.5 161.5q0 70 25.5 129.5t72.5 103.5t112.5 69t146.5 25z"/>
<glyph glyph-name="quotesingle" horiz-adv-x="443" unicode="&apos;" d="M263 1415v-292l-9 -153q-2 -17 -9 -26.5t-24 -9.5q-14 0 -22 9.5t-10 26.5l-9 153v292h83z"/>
<glyph glyph-name="parenleft" horiz-adv-x="600" unicode="(" d="M253 630q0 -224 60.5 -429.5t180.5 -396.5q7 -11 7 -21q0 -15 -14 -22l-42 -26q-77 118 -129.5 228.5t-84.5 220t-46.5 219.5t-14.5 227t14.5 227.5t46.5 220t84.5 220t129.5 228.5l42 -26q13 -7 13 -21q0 -10 -7 -21q-119 -192 -179.5 -397.5t-60.5 -430.5z"/>
<glyph glyph-name="parenright" horiz-adv-x="600" unicode=")" d="M346 630q0 225 -60.5 430.5t-179.5 397.5q-7 11 -7 21q0 14 13 21l42 26q76 -118 129 -228.5t85 -220t46.5 -220t14.5 -227.5t-14.5 -227t-46.5 -219.5t-85 -220t-129 -228.5l-42 26q-14 7 -14 22q0 10 7 21q120 191 180.5 396.5t60.5 429.5z"/>
<glyph glyph-name="asterisk" horiz-adv-x="800" unicode="*" d="M372 897v213q0 17 2.5 30t10.5 30q-11 -15 -21.5 -23t-25.5 -17l-188 -109l-25 44l188 110q14 8 27 12q12 4 29 7q-18 3 -30 8t-26 13l-190 110l26 45l189 -110q16 -10 25.5 -19.5t23.5 -26.5q-8 19 -11.5 33.5t-3.5 31.5v214h52v-213q0 -18 -2.5 -32.5t-10.5 -32.5 q12 17 22 26.5t26 18.5l188 109l26 -45l-188 -109q-15 -9 -28 -14t-29 -7q17 -3 29.5 -7t27.5 -12l189 -110l-25 -45l-190 110q-15 9 -25 17t-23 25q6 -18 9.5 -31t3.5 -30v-214h-52z"/>
<glyph glyph-name="plus" d="M617 1158v-451h431v-73h-431v-453h-78v453h-430v73h430v451h78z" unicode="+"/>
<glyph glyph-name="comma" horiz-adv-x="395" unicode="," d="M110 85q0 35 24 60t63 25q43 0 66.5 -29.5t23.5 -77.5q0 -41 -10.5 -83.5t-30.5 -83.5t-48 -79t-62 -70l-15 15q-8 8 -8 17q0 5 3 10t7 9q10 10 25.5 29.5t31 46t28 58.5t16.5 68q-6 -2 -13.5 -3t-16.5 -1q-37 0 -60.5 25t-23.5 64z"/>
<glyph glyph-name="hyphen" horiz-adv-x="665" unicode="-" d="M100 634h465v-81h-465v81z"/>
<glyph glyph-name="period" horiz-adv-x="395" unicode="." d="M105 77q0 19 7 36t19.5 29.5t29 20t36.5 7.5q19 0 36 -7.5t29.5 -20t20 -29.5t7.5 -36q0 -20 -7.5 -36.5t-20 -29t-29.5 -19.5t-36 -7q-39 0 -65.5 26.5t-26.5 65.5z"/>
<glyph glyph-name="slash" horiz-adv-x="713" unicode="/" d="M91 -45q-8 -20 -24 -29.5t-33 -9.5h-39l622 1502q15 37 54 37h41z"/>
<glyph glyph-name="zero" d="M987 708q0 172 -33 294t-88.5 199.5t-130 113.5t-156.5 36t-156 -36t-130 -113.5t-89 -199.5t-33 -294q0 -173 33 -294.5t89 -199t130 -113t156 -35.5t156.5 35.5t130 113t88.5 199t33 294.5zM1087 708q0 -186 -40 -322t-109 -225t-161.5 -132.5t-197.5 -43.5t-197 43.5 t-161 132.5t-108.5 225t-39.5 322t39.5 322t108.5 225t161 132.5t197 43.5t197.5 -43.5t161.5 -132.5t109 -225t40 -322z" unicode="0"/>
<glyph glyph-name="one" d="M309 74h325v1148q0 34 3 72l-312 -277q-10 -9 -24 -9q-17 0 -26 12l-29 40l409 361h74v-1347h309v-74h-729v74z" unicode="1"/>
<glyph glyph-name="two" d="M602 1431q81 0 154.5 -23.5t129.5 -71t89 -119t33 -167.5q0 -80 -24.5 -148.5t-66.5 -131.5t-97.5 -122.5t-116.5 -121.5l-443 -452q32 8 66.5 12t69.5 4h611q16 0 25.5 -9.5t9.5 -24.5v-56h-913v34q0 11 5.5 22.5t13.5 19.5l483 489q60 61 111 118t88.5 115t59 119 t21.5 130q0 78 -26 135.5t-69.5 94.5t-100 55t-118.5 18q-67 0 -123.5 -20.5t-100 -57t-72 -87t-39.5 -110.5q-10 -35 -40 -35q-2 0 -5 0.5t-5 0.5l-48 8q12 91 49.5 162t94.5 120t132 74.5t162 25.5z" unicode="2"/>
<glyph glyph-name="three" d="M613 1431q81 0 153 -22.5t126.5 -67.5t86 -112t31.5 -155q0 -69 -21.5 -124.5t-59 -97.5t-88.5 -70.5t-111 -43.5q156 -29 236 -120.5t80 -228.5q0 -87 -35 -161.5t-96 -128.5t-144 -84.5t-180 -30.5q-121 0 -201.5 32.5t-132.5 84.5t-81 116.5t-47 128.5l38 16 q12 5 23 5t21 -5t15 -19l7 -20q6 -18 17 -44.5t28.5 -55t43.5 -57t63.5 -51t88 -36.5t116.5 -14q90 0 157.5 30t113 76.5t68 104t22.5 111.5q0 65 -20.5 121t-68.5 96.5t-126.5 64t-193.5 23.5v69q92 2 162 24.5t117 61.5t71 93t24 119q0 75 -25 130t-67 91t-98 53t-117 17 q-67 0 -123 -20t-99 -56t-72 -86.5t-43 -112.5q-8 -35 -37 -35q-7 0 -11 1l-49 8q13 91 50 162t94 120t132 74.5t162 25.5z" unicode="3"/>
<glyph glyph-name="four" d="M773 1223q0 17 1 36t4 39l-611 -816h606v741zM859 482h259v-52q0 -11 -6.5 -17.5t-20.5 -6.5h-232v-406h-86v406h-667q-15 0 -23 6.5t-11 17.5l-9 47l711 940h85v-935z" unicode="4"/>
<glyph glyph-name="five" d="M966 1374q0 -20 -13.5 -33.5t-42.5 -13.5h-512l-85 -472q67 17 127 24.5t115 7.5q110 0 194 -31.5t140.5 -88t85.5 -134.5t29 -170q0 -112 -39 -200.5t-105.5 -150.5t-155.5 -95t-189 -33q-59 0 -112 10.5t-100 28t-86 40.5t-69 47l28 39q10 15 29 15q13 0 37.5 -15 t63 -33t91 -33t122.5 -15q82 0 153 26.5t123.5 76.5t82 123.5t29.5 166.5q0 76 -22.5 140t-68 109.5t-115 71t-163.5 25.5q-57 0 -121 -9t-136 -29l-62 19l111 627h636v-41z" unicode="5"/>
<glyph glyph-name="six" d="M229 427q0 -79 24.5 -146t69.5 -115.5t110 -75.5t146 -27q86 0 155 27t117.5 74.5t74.5 113t26 142.5q0 81 -25.5 146.5t-72 111t-110.5 70t-142 24.5q-88 0 -157.5 -30.5t-117.5 -79t-73 -110.5t-25 -125zM628 846q91 0 168 -30t132.5 -84.5t87 -132t31.5 -173.5 t-34.5 -177t-96 -140t-147.5 -92t-189 -33q-99 0 -181 32t-140.5 92t-90.5 146.5t-32 195.5q0 83 42 187.5t138 234.5l386 520q17 23 51 23h84l-422 -551q-31 -41 -57 -77t-47 -71q59 61 140 95.5t177 34.5z" unicode="6"/>
<glyph glyph-name="seven" d="M1071 1415v-43q0 -17 -3.5 -29.5t-8.5 -21.5l-649 -1285q-8 -16 -21.5 -26t-35.5 -10h-65l653 1280q13 26 31 47h-816q-11 0 -18.5 8t-7.5 19v61h941z" unicode="7"/>
<glyph glyph-name="eight" d="M580 774q81 0 140.5 24.5t98.5 66t57.5 94.5t18.5 110q0 61 -21 113.5t-61.5 91.5t-99 61t-133.5 22t-134 -22t-99.5 -61t-61.5 -91.5t-21 -113.5q0 -57 18.5 -110t57.5 -94.5t98.5 -66t141.5 -24.5zM580 60q81 0 147.5 22.5t114.5 64t74 99.5t26 129q0 93 -34 155 t-87 99t-117 52.5t-124 15.5t-124 -15.5t-117 -52.5t-87 -99t-34 -155q0 -71 26 -129t73.5 -99.5t114.5 -64t148 -22.5zM580 -16q-102 0 -186.5 27t-145 78t-94.5 123t-34 162q0 78 22.5 139t63.5 106t97.5 75t124.5 45q-62 18 -110 49t-80.5 74t-49.5 95.5t-17 112.5 q0 75 28.5 141t81.5 115t128.5 77t170.5 28q94 0 169.5 -28t129 -77t82 -115t28.5 -141q0 -60 -17 -112.5t-50 -95.5t-81 -74t-110 -49q68 -15 124.5 -45t97.5 -75t64 -106t23 -139q0 -90 -34 -162t-94.5 -123t-145 -78t-186.5 -27z" unicode="8"/>
<glyph glyph-name="nine" d="M957 1005q0 77 -25 141t-70 109.5t-106.5 71t-134.5 25.5q-78 0 -143.5 -25t-112 -70t-72.5 -107.5t-26 -137.5q0 -78 24 -140.5t67.5 -106t105 -66.5t136.5 -23q85 0 151.5 29t112.5 76t69.5 105.5t23.5 118.5zM573 602q-87 0 -160.5 28.5t-127 81.5t-83.5 127.5 t-30 166.5q0 91 33.5 168.5t93.5 134.5t142.5 89.5t180.5 32.5q94 0 172.5 -32t135 -90.5t88 -140t31.5 -181.5q0 -55 -11.5 -105t-34 -100t-54.5 -102.5t-73 -112.5l-371 -544q-15 -23 -49 -23h-86l418 584q30 42 55.5 79.5t46.5 72.5q-58 -64 -140.5 -99t-176.5 -35z" unicode="9"/>
<glyph glyph-name="colon" horiz-adv-x="475" unicode=":" d="M145 874q0 19 7 36t19.5 29.5t29 20t36.5 7.5q19 0 36 -7.5t29.5 -20t20 -29.5t7.5 -36q0 -20 -7.5 -36.5t-20 -29t-29.5 -19.5t-36 -7q-39 0 -65.5 26.5t-26.5 65.5zM145 77q0 19 7 36t19.5 29.5t29 20t36.5 7.5q19 0 36 -7.5t29.5 -20t20 -29.5t7.5 -36 q0 -20 -7.5 -36.5t-20 -29t-29.5 -19.5t-36 -7q-39 0 -65.5 26.5t-26.5 65.5z"/>
<glyph glyph-name="semicolon" horiz-adv-x="475" unicode=";" d="M150 85q0 35 24 60t63 25q43 0 66.5 -29.5t23.5 -77.5q0 -41 -10.5 -83.5t-30.5 -83.5t-48 -79t-62 -70l-15 15q-8 8 -8 17q0 5 3 10t7 9q10 10 25.5 29.5t31 46t28 58.5t16.5 68q-6 -2 -13.5 -3t-16.5 -1q-37 0 -60.5 25t-23.5 64zM145 874q0 19 7 36t19.5 29.5t29 20 t36.5 7.5q19 0 36 -7.5t29.5 -20t20 -29.5t7.5 -36q0 -20 -7.5 -36.5t-20 -29t-29.5 -19.5t-36 -7q-39 0 -65.5 26.5t-26.5 65.5z"/>
<glyph glyph-name="less" d="M160 692l750 385v-65q0 -11 -6 -19t-21 -16l-553 -280q-33 -17 -72 -26q42 -9 72 -25l553 -281q15 -8 21 -16t6 -19v-65l-750 386v41z" unicode="&lt;"/>
<glyph glyph-name="equal" d="M166 869h827v-74h-827v74zM166 556h827v-74h-827v74z" unicode="="/>
<glyph glyph-name="greater" d="M251 265v65q0 11 6 19.5t20 15.5l554 281q31 16 71 25q-20 5 -37 11.5t-34 14.5l-554 280q-26 14 -26 35v65l750 -385v-41z" unicode="&gt;"/>
<glyph glyph-name="question" horiz-adv-x="741" unicode="?" d="M235 77q0 19 7 36t19.5 29.5t29 20t36.5 7.5q19 0 36 -7.5t29.5 -20t20 -29.5t7.5 -36q0 -20 -7.5 -36.5t-20 -29t-29.5 -19.5t-36 -7q-39 0 -65.5 26.5t-26.5 65.5zM33 1292q27 27 61 52t74.5 44.5t88.5 31t104 11.5q70 0 132 -21t108.5 -60t74 -95.5t27.5 -126.5 q0 -76 -23.5 -131t-59.5 -96.5t-78 -73t-78.5 -59t-62 -55.5t-27.5 -62l-12 -164h-65l-5 171v5q0 41 24 72t59.5 60t77 59t77 67.5t59.5 86.5t24 116q0 54 -21 96.5t-57 72t-83 45t-98 15.5q-66 0 -114.5 -17.5t-81.5 -39t-52 -39t-26 -17.5q-15 0 -22 12z"/>
<glyph glyph-name="at" horiz-adv-x="1643" unicode="@" d="M727 258q36 0 74.5 12t74 43.5t66.5 85t52 136.5l80 310q-24 7 -49.5 10.5t-59.5 3.5q-90 0 -163.5 -36.5t-125 -95.5t-80 -132.5t-28.5 -148.5q0 -40 10 -74.5t30 -59.5t49.5 -39.5t69.5 -14.5zM1167 188q-88 0 -132.5 46.5t-46.5 133.5q-56 -93 -126.5 -134.5 t-152.5 -41.5q-56 0 -97 19.5t-68 53.5t-40.5 80t-13.5 99q0 85 32.5 170.5t95 154t153.5 111.5t207 43q53 0 99.5 -9t83.5 -26l-91 -347q-12 -46 -17.5 -82.5t-5.5 -65.5q0 -44 11 -71.5t29.5 -43.5t42.5 -21.5t50 -5.5q57 0 109 30t92 85.5t63.5 134.5t23.5 177 q0 148 -48.5 258.5t-132 183.5t-194.5 109t-236 36q-137 0 -259.5 -53t-215 -148t-147 -226.5t-54.5 -288.5q0 -177 56.5 -311.5t153.5 -225t226.5 -137t275.5 -46.5q148 0 270.5 34t222.5 99q7 5 17 5q14 0 20 -14l15 -37q-112 -74 -246.5 -114t-298.5 -40 q-165 0 -308 52.5t-249 153t-167 247t-61 334.5q0 167 59 310t161 248t238 164.5t291 59.5q134 0 257 -41.5t217.5 -124t151 -204.5t56.5 -283q0 -109 -29 -199t-79.5 -154.5t-118.5 -100.5t-145 -36z"/>
<glyph glyph-name="A" horiz-adv-x="1289" unicode="A" d="M328 514h634l-289 715q-7 17 -14 38.5t-14 45.5q-7 -24 -14 -45.5t-14 -39.5zM1275 0h-79q-14 0 -23 7.5t-14 19.5l-167 411h-695l-166 -411q-4 -11 -14 -19t-24 -8h-78l579 1415h102z"/>
<glyph glyph-name="B" horiz-adv-x="1282" unicode="B" d="M312 753h307q98 0 167.5 25t114 66t65.5 93t21 107q0 143 -90.5 216.5t-279.5 73.5h-305v-581zM312 678v-596h355q187 0 282 80.5t95 226.5q0 67 -25.5 120.5t-73.5 91t-118 57.5t-159 20h-356zM210 0v1415h407q121 0 209.5 -24t146.5 -70.5t86.5 -113.5t28.5 -152 q0 -56 -19.5 -108t-56.5 -96t-90.5 -76.5t-122.5 -49.5q167 -25 257 -111t90 -227q0 -90 -32 -162t-93 -122t-150 -76.5t-202 -26.5h-459z"/>
<glyph glyph-name="C" horiz-adv-x="1407" unicode="C" d="M1238 238q10 0 17 -7l40 -43q-44 -47 -96 -84.5t-113.5 -64t-135 -41t-161.5 -14.5q-147 0 -269.5 51.5t-210 146t-136.5 228.5t-49 298q0 161 50.5 294t142 228.5t219 148t281.5 52.5q77 0 141 -11.5t119.5 -33t104.5 -53.5t96 -74l-31 -45q-8 -12 -25 -12 q-9 0 -23 10.5t-35.5 26t-52 34t-72.5 34t-97 26t-125 10.5q-129 0 -237 -44.5t-186 -127t-121.5 -200t-43.5 -263.5q0 -150 43 -268t119 -199.5t179.5 -125t224.5 -43.5q76 0 135.5 10t109.5 30t93 49t85 68q5 4 9.5 6.5t10.5 2.5z"/>
<glyph glyph-name="D" horiz-adv-x="1520" unicode="D" d="M1295 708q0 148 -41 264t-115.5 196t-179.5 122t-233 42h-413v-1249h413q128 0 233 42t179.5 122t115.5 196t41 265zM1401 708q0 -164 -49 -295t-138 -223t-213 -141t-275 -49h-516v1415h516q151 0 275 -49t213 -141t138 -223t49 -294z"/>
<glyph glyph-name="E" horiz-adv-x="1182" unicode="E" d="M1058 1415v-85h-745v-572h620v-83h-620v-590h745v-85h-848v1415h848z"/>
<glyph glyph-name="F" horiz-adv-x="1144" unicode="F" d="M1058 1415v-85h-745v-595h645v-85h-645v-650h-103v1415h848z"/>
<glyph glyph-name="G" horiz-adv-x="1497" unicode="G" d="M818 67q73 0 133 7.5t111.5 22.5t98 36.5t93.5 48.5v381h-272q-11 0 -18.5 7t-7.5 16v56h391v-503q-53 -37 -110 -66t-122 -48.5t-140 -30t-164 -10.5q-153 0 -279.5 51.5t-217 146t-140.5 228.5t-50 298t50 297.5t142 228t223.5 146t294.5 51.5q81 0 149.5 -11 t127.5 -32.5t110 -53t98 -72.5l-27 -44q-9 -15 -25 -15q-9 0 -17 4q-15 6 -43.5 28t-77 46t-121.5 43t-177 19q-138 0 -249 -44t-189.5 -126t-121 -200t-42.5 -265q0 -150 43 -269t120.5 -201.5t186 -126.5t239.5 -44z"/>
<glyph glyph-name="H" horiz-adv-x="1512" unicode="H" d="M1302 0h-103v678h-886v-678h-103v1415h103v-660h886v660h103v-1415z"/>
<glyph glyph-name="I" horiz-adv-x="598" unicode="I" d="M350 0h-103v1415h103v-1415z"/>
<glyph glyph-name="J" horiz-adv-x="908" unicode="J" d="M698 472q0 -119 -29.5 -210t-84 -153t-133 -93.5t-176.5 -31.5q-45 0 -91 7t-95 22q2 14 3.5 28t2.5 28q2 9 7.5 16t19.5 7q9 0 21.5 -3.5t30 -7.5t40 -7.5t52.5 -3.5q76 0 137 24t104 73.5t65.5 125t22.5 177.5v945h103v-943z"/>
<glyph glyph-name="K" horiz-adv-x="1320" unicode="K" d="M342 762h84q19 0 33 1.5t25.5 6t21.5 11.5t21 18l571 587q16 16 29.5 22.5t33.5 6.5h83l-618 -635q-19 -20 -33.5 -31t-32.5 -18q21 -6 37.5 -18.5t33.5 -32.5l652 -680h-83q-26 0 -37 7.5t-23 19.5l-599 612q-11 11 -20 19t-20.5 13.5t-27.5 8t-40 2.5h-91v-682h-102 v1417h102v-655z"/>
<glyph glyph-name="L" horiz-adv-x="1023" unicode="L" d="M312 87h671v-87h-773v1415h102v-1328z"/>
<glyph glyph-name="M" horiz-adv-x="1818" unicode="M" d="M890 412q15 -28 26 -60q6 16 12.5 31.5t14.5 29.5l556 983q8 13 16 16t22 3h71v-1415h-90v1206q0 26 3 55l-557 -989q-14 -26 -40 -26h-16q-25 0 -40 26l-572 990q3 -29 3 -56v-1206h-89v1415h70q14 0 22.5 -3t16.5 -16z"/>
<glyph glyph-name="N" horiz-adv-x="1512" unicode="N" d="M260 1415q14 0 22 -3.5t17 -15.5l916 -1226q-3 30 -3 58v1187h90v-1415h-49q-23 0 -37 20l-920 1228q3 -30 3 -57v-1191h-89v1415h50z"/>
<glyph glyph-name="O" horiz-adv-x="1595" unicode="O" d="M1366 708q0 148 -41 266t-115.5 200t-179.5 125.5t-233 43.5q-126 0 -230.5 -43.5t-180 -125.5t-117 -200t-41.5 -266q0 -149 41.5 -266.5t117 -199.5t180 -125t230.5 -43q128 0 233 43t179.5 125t115.5 199.5t41 266.5zM1472 708q0 -164 -49 -297.5t-138 -228t-213 -146 t-275 -51.5q-149 0 -273 51.5t-213 146t-138.5 228t-49.5 297.5q0 163 49.5 296.5t138.5 228t213 146.5t273 52q151 0 275 -51.5t213 -146.5t138 -228.5t49 -296.5z"/>
<glyph glyph-name="P" horiz-adv-x="1187" unicode="P" d="M342 652h263q94 0 168 26t125.5 72t79 108.5t27.5 136.5q0 163 -100.5 251t-299.5 88h-263v-682zM342 570v-570h-102v1415h365q249 0 375.5 -109t126.5 -311q0 -93 -34.5 -171t-99.5 -134.5t-158 -88t-210 -31.5h-263z"/>
<glyph glyph-name="Q" horiz-adv-x="1595" unicode="Q" d="M1366 708q0 148 -41 266t-115.5 200t-179.5 125.5t-233 43.5q-126 0 -230.5 -43.5t-180 -125.5t-117 -200t-41.5 -266q0 -149 41.5 -266.5t117 -199.5t180 -125t230.5 -43q128 0 233 43t179.5 125t115.5 199.5t41 266.5zM1472 708q0 -107 -21.5 -201.5t-61.5 -174 t-97.5 -142.5t-129.5 -108l368 -394h-86q-20 0 -36 5.5t-28 19.5l-302 326q-63 -26 -133 -40t-148 -14q-149 0 -273 51.5t-213 146t-138.5 228t-49.5 297.5q0 163 49.5 296.5t138.5 228t213 146.5t273 52q151 0 275 -51.5t213 -146.5t138 -228.5t49 -296.5z"/>
<glyph glyph-name="R" horiz-adv-x="1262" unicode="R" d="M342 716h246q94 0 168.5 22.5t126 64.5t78.5 101t27 133q0 151 -99 224t-288 73h-259v-618zM342 640v-640h-102v1415h361q245 0 366 -94.5t121 -277.5q0 -81 -28 -148t-80.5 -117.5t-126.5 -83t-167 -42.5q24 -15 43 -40l487 -612h-89q-16 0 -27.5 6t-22.5 20l-453 574 q-17 22 -36.5 31t-60.5 9h-185z"/>
<glyph glyph-name="S" horiz-adv-x="1045" unicode="S" d="M894 1243q-9 -17 -26 -17q-13 0 -33.5 18.5t-55.5 41t-87.5 41.5t-129.5 19t-135.5 -22t-98 -60t-60 -88t-20.5 -105q0 -72 30.5 -119t80.5 -80t113.5 -55.5t130.5 -44.5t130.5 -48.5t113.5 -66.5t80.5 -98.5t30.5 -145.5q0 -89 -30.5 -167.5t-88.5 -136.5t-142 -91.5 t-192 -33.5q-140 0 -241 49.5t-177 135.5l28 44q12 15 28 15q9 0 23 -12t34 -29.5t48 -38t65 -38t85 -29.5t109 -12q84 0 150 25.5t111.5 69.5t69.5 104.5t24 129.5q0 75 -30.5 123.5t-80.5 81t-113.5 54.5t-130.5 43t-130.5 47t-113.5 66.5t-80.5 101t-30.5 151.5 q0 71 27 137t79 116.5t128.5 81t174.5 30.5q110 0 197.5 -35t159.5 -107z"/>
<glyph glyph-name="T" horiz-adv-x="1169" unicode="T" d="M1134 1415v-87h-497v-1328h-102v1328h-500v87h1099z"/>
<glyph glyph-name="U" horiz-adv-x="1467" unicode="U" d="M733 73q102 0 182.5 35.5t136.5 98.5t85.5 148.5t29.5 184.5v875h102v-875q0 -117 -37 -218.5t-106.5 -177t-169 -118.5t-223.5 -43t-223.5 43t-169 118.5t-106.5 177t-37 218.5v875h103v-874q0 -99 29.5 -184.5t85 -148.5t136 -99t182.5 -36z"/>
<glyph glyph-name="V" horiz-adv-x="1289" unicode="V" d="M15 1415h81q14 0 23 -7.5t14 -19.5l482 -1174q19 -46 31 -98q11 54 29 98l481 1174q5 11 14.5 19t23.5 8h80l-584 -1415h-91z"/>
<glyph glyph-name="W" horiz-adv-x="1974" unicode="W" d="M17 1415h85q29 0 37 -27l357 -1163q6 -20 10.5 -43t9.5 -48q5 25 10 48t12 43l400 1163q4 11 14 19t24 8h28q14 0 23 -7.5t14 -19.5l400 -1163q7 -20 12.5 -42t10.5 -47q5 24 9 46.5t10 42.5l357 1163q3 11 13.5 19t24.5 8h78l-445 -1415h-92l-418 1228q-8 24 -14 51 q-6 -27 -14 -51l-419 -1228h-91z"/>
<glyph glyph-name="X" horiz-adv-x="1199" unicode="X" d="M528 726l-488 689h101q14 0 20.5 -6t11.5 -14l430 -620q3 8 6.5 15.5t8.5 15.5l415 588q6 8 13 14.5t17 6.5h98l-489 -684l509 -731h-101q-14 0 -22 8.5t-13 16.5l-446 652q-4 -15 -14 -29l-438 -623q-7 -9 -16 -17t-21 -8h-93z"/>
<glyph glyph-name="Y" horiz-adv-x="1199" unicode="Y" d="M651 584v-584h-103v584l-523 831h89q14 0 22.5 -6.5t16.5 -18.5l405 -650q14 -23 24 -44.5t18 -43.5q8 22 18 43.5t24 44.5l404 650q6 11 15 18t23 7h90z"/>
<glyph glyph-name="Z" horiz-adv-x="1266" unicode="Z" d="M1163 1415v-35q0 -21 -14 -41l-898 -1254h904v-85h-1040v37q0 19 12 36l900 1257h-886v85h1022z"/>
<glyph glyph-name="bracketleft" horiz-adv-x="600" unicode="[" d="M175 -264v1781h318v-36q0 -13 -8.5 -21t-22.5 -8h-206v-1651h206q14 0 22.5 -8t8.5 -21v-36h-318z"/>
<glyph glyph-name="backslash" horiz-adv-x="715" unicode="\" d="M-8 1455h41q39 0 54 -37l622 -1502h-39q-17 0 -33 9.5t-24 29.5z"/>
<glyph glyph-name="bracketright" horiz-adv-x="600" unicode="]" d="M107 -228q0 13 8 21t22 8h206v1651h-206q-14 0 -22 8t-8 21v36h317v-1781h-317v36z"/>
<glyph glyph-name="asciicircum" d="M544 1415h60l341 -615h-68q-11 0 -19.5 6.5t-13.5 16.5l-241 436q-9 17 -16 32t-12 31q-5 -16 -11.5 -31.5t-15.5 -31.5l-240 -436q-5 -8 -13 -15.5t-21 -7.5h-71z" unicode="^"/>
<glyph glyph-name="underscore" horiz-adv-x="788" unicode="_" d="M788 -205v-68h-788v68h788z"/>
<glyph glyph-name="grave" horiz-adv-x="585" unicode="`" d="M178 1431q24 0 36 -7t23 -25l157 -238h-54q-12 0 -20.5 3.5t-16.5 13.5l-217 253h92z"/>
<glyph glyph-name="a" horiz-adv-x="973" unicode="a" d="M397 53q58 0 106.5 12.5t90 35t77.5 53.5t71 67v259q-142 -4 -244.5 -21.5t-169 -47.5t-98 -71.5t-31.5 -94.5q0 -50 16.5 -86.5t43.5 -60t63 -34.5t75 -11zM797 0q-30 0 -37 28l-14 127q-41 -40 -81.5 -72t-84.5 -54t-95 -33.5t-112 -11.5q-51 0 -99 15t-85 46 t-59.5 79.5t-22.5 116.5q0 63 36 117t112.5 94t197 64t289.5 28v104q0 138 -59.5 212.5t-176.5 74.5q-72 0 -122.5 -20t-85.5 -44t-57 -44t-37 -20q-20 0 -30 18l-17 29q78 78 164 118t195 40q80 0 140 -25.5t99.5 -73t59.5 -115t20 -150.5v-648h-38z"/>
<glyph glyph-name="b" horiz-adv-x="1092" unicode="b" d="M590 935q-99 0 -179 -51t-143 -142v-525q57 -86 126 -120.5t159 -34.5q88 0 154 32t110.5 90.5t67 140t22.5 179.5q0 222 -82 326.5t-235 104.5zM172 0v1455h96v-634q66 88 153 139t196 51q183 0 285.5 -126.5t102.5 -380.5q0 -109 -28.5 -203.5t-84 -164t-136 -109.5 t-185.5 -40q-104 0 -179 40.5t-129 119.5l-6 -122q-3 -25 -27 -25h-58z"/>
<glyph glyph-name="c" horiz-adv-x="910" unicode="c" d="M817 862q-5 -5 -9.5 -8.5t-12.5 -3.5q-10 0 -27.5 13.5t-46.5 29.5t-72.5 29.5t-105.5 13.5q-86 0 -152.5 -30.5t-112 -87.5t-69.5 -138t-24 -182q0 -105 24.5 -186t69.5 -136.5t109 -84.5t142 -29q72 0 120.5 17t80 37t50 37t29.5 17q13 0 20 -10l26 -32 q-23 -30 -58 -56t-79 -45t-95.5 -29.5t-107.5 -10.5q-95 0 -173.5 34.5t-135 100t-88 160.5t-31.5 216q0 114 30 208t87.5 162t141 105.5t191.5 37.5q97 0 172.5 -31t131.5 -84z"/>
<glyph glyph-name="d" horiz-adv-x="1092" unicode="d" d="M502 64q99 0 179 51t143 142v525q-58 85 -127.5 120t-157.5 35t-154 -32t-110.5 -90.5t-67 -140t-22.5 -179.5q0 -222 82 -326.5t235 -104.5zM867 0q-25 0 -29 26l-10 157q-66 -90 -154.5 -143t-198.5 -53q-183 0 -285.5 127t-102.5 381q0 109 28.5 203.5t84 164 t136 109.5t185.5 40q101 0 175 -37.5t128 -109.5v590h96v-1455h-53z"/>
<glyph glyph-name="e" horiz-adv-x="1022" unicode="e" d="M538 940q-77 0 -138 -24t-105.5 -69t-72 -108t-36.5 -141h656q0 80 -22 143.5t-62 107.5t-96 67.5t-124 23.5zM537 1011q84 0 155.5 -29t124 -84.5t82 -136.5t29.5 -186q0 -22 -6.5 -30t-20.5 -8h-719v-19q0 -112 26 -197t74 -142.5t116 -86.5t152 -29q75 0 130 16.5 t92.5 37t59.5 37t32 16.5q13 0 20 -10l26 -32q-24 -30 -63.5 -56t-88 -44.5t-104 -29.5t-111.5 -11q-102 0 -186 35.5t-144 103.5t-92.5 166.5t-32.5 225.5q0 107 30.5 197.5t88 156t141 102.5t189.5 37z"/>
<glyph glyph-name="f" horiz-adv-x="644" unicode="f" d="M199 0v891l-140 9q-29 2 -29 25v39h169v126q0 85 22 149.5t62 107.5t96.5 64.5t124.5 21.5q31 0 62.5 -5.5t55.5 -15.5l-3 -46q-1 -14 -19 -14q-12 0 -32.5 3t-50.5 3q-49 0 -90.5 -14.5t-71.5 -46.5t-46.5 -83.5t-16.5 -126.5v-123h323v-71h-321v-893h-95z"/>
<glyph glyph-name="g" horiz-adv-x="1009" unicode="g" d="M490 440q64 0 114 18.5t84 51.5t51.5 79t17.5 102t-18 102.5t-52.5 79.5t-84 51t-112.5 18t-113 -18t-84.5 -51t-52.5 -79.5t-18 -102.5t18 -102t52.5 -79t84.5 -51.5t113 -18.5zM859 -67q0 47 -24.5 75.5t-65.5 44.5t-94.5 22.5t-112 9.5t-117.5 6t-110 12 q-38 -15 -70.5 -34.5t-55.5 -44t-36 -54t-13 -64.5q0 -44 22.5 -81.5t66 -65t106.5 -43.5t145 -16q76 0 141.5 17t114 48t76 74t27.5 94zM490 1012q65 0 120.5 -16t99.5 -45h255v-33q0 -25 -28 -27l-151 -11q28 -38 43 -85.5t15 -101.5q0 -72 -26 -130.5t-72.5 -100 t-111.5 -64.5t-144 -23q-86 0 -156 26q-42 -24 -66 -57t-24 -64q0 -43 30 -66t79.5 -33.5t113 -13.5t129 -6.5t129 -12.5t113 -31.5t79.5 -63t30 -107.5q0 -62 -31 -119t-89.5 -101t-141.5 -70.5t-186 -26.5q-105 0 -184 21.5t-132.5 58t-80.5 84.5t-27 102q0 79 52 136 t143 88q-50 17 -79.5 49t-29.5 89q0 21 8 44t24 45.5t38.5 42.5t52.5 36q-71 41 -110.5 109t-39.5 159q0 72 25.5 130.5t72 100.5t112.5 65t146 23z"/>
<glyph glyph-name="h" horiz-adv-x="1082" unicode="h" d="M162 0v1455h95v-630q69 85 157.5 135.5t198.5 50.5q82 0 144.5 -26t103.5 -75t62 -118t21 -156v-636h-95v636q0 140 -64 219.5t-196 79.5q-98 0 -182 -50.5t-150 -138.5v-746h-95z"/>
<glyph glyph-name="i" horiz-adv-x="475" unicode="i" d="M327 1338q0 -18 -7.5 -33.5t-19.5 -27.5t-28 -19t-34 -7t-34 7t-28 19t-19 27.5t-7 33.5t7 34.5t19 28.5t28 19t34 7t34 -7t28 -19t19.5 -28.5t7.5 -34.5zM285 995v-995h-95v995h95z"/>
<glyph glyph-name="j" horiz-adv-x="471" unicode="j" d="M327 1338q0 -18 -7.5 -33.5t-19.5 -27.5t-28 -19t-34 -7t-34 7t-28 19t-19 27.5t-7 33.5t7 34.5t19 28.5t28 19t34 7t34 -7t28 -19t19.5 -28.5t7.5 -34.5zM285 995v-1122q0 -52 -15 -96t-44.5 -76.5t-74 -51t-104.5 -18.5q-29 0 -52 5t-45 16l5 48q1 12 14 12 q8 0 22.5 -4t39.5 -4q81 0 120 44t39 125v1122h95z"/>
<glyph glyph-name="k" horiz-adv-x="984" unicode="k" d="M268 1455v-887h46q14 0 26.5 4t27.5 19l399 379q11 11 22.5 18t29.5 7h84l-439 -417q-10 -10 -19 -18.5t-20 -14.5q16 -8 27 -19t23 -24l461 -502h-83q-14 0 -25 5.5t-22 17.5l-418 448q-17 18 -31 24.5t-44 6.5h-45v-502h-96v1455h96z"/>
<glyph glyph-name="l" horiz-adv-x="475" unicode="l" d="M285 1455v-1455h-95v1455h95z"/>
<glyph glyph-name="m" horiz-adv-x="1591" unicode="m" d="M162 0v995h52q26 0 30 -25l9 -144q29 41 62 75t70.5 58.5t80 38t89.5 13.5q109 0 174 -63.5t88 -176.5q18 62 50.5 107t74.5 74.5t91.5 44t101.5 14.5q74 0 133 -24.5t100.5 -72.5t63.5 -118t22 -160v-636h-96v636q0 146 -63 222.5t-180 76.5q-52 0 -99.5 -19t-84 -56.5 t-58 -93.5t-21.5 -130v-636h-95v636q0 145 -58 222t-169 77q-81 0 -150 -48.5t-123 -134.5v-752h-95z"/>
<glyph glyph-name="n" horiz-adv-x="1082" unicode="n" d="M162 0v995h52q26 0 30 -25l9 -150q68 86 158.5 138.5t201.5 52.5q82 0 144.5 -26t103.5 -75t62 -118t21 -156v-636h-95v636q0 140 -64 219.5t-196 79.5q-98 0 -182 -50.5t-150 -138.5v-746h-95z"/>
<glyph glyph-name="o" horiz-adv-x="1082" unicode="o" d="M541 62q89 0 155.5 30.5t111 87.5t66.5 137.5t22 180.5q0 99 -22 180t-66.5 138.5t-111 88.5t-155.5 31t-155.5 -31t-111 -88.5t-67 -138.5t-22.5 -180q0 -100 22.5 -180.5t67 -137.5t111 -87.5t155.5 -30.5zM541 1011q107 0 191.5 -36.5t142.5 -103.5t88.5 -161.5 t30.5 -211.5t-30.5 -211t-88.5 -161t-142.5 -103t-191.5 -36t-191.5 36t-143 103t-89 161t-30.5 211t30.5 211.5t89 161.5t143 103.5t191.5 36.5z"/>
<glyph glyph-name="p" horiz-adv-x="1070" unicode="p" d="M579 935q-99 0 -179.5 -51.5t-142.5 -143.5v-522q57 -86 126.5 -121t158.5 -35q88 0 154 32t110.5 90.5t67 140t22.5 179.5q0 222 -81.5 326.5t-235.5 104.5zM162 -352v1347h52q13 0 21 -5.5t9 -19.5l9 -154q66 90 154.5 143t198.5 53q184 0 286 -127t102 -381 q0 -109 -28.5 -203.5t-83.5 -164t-135.5 -109.5t-185.5 -40q-102 0 -176 37t-128 110v-486h-95z"/>
<glyph glyph-name="q" horiz-adv-x="1092" unicode="q" d="M502 64q99 0 179 51t143 142v526q-54 82 -125 118t-160 36q-88 0 -154 -32t-110.5 -90.5t-67 -140t-22.5 -179.5q0 -222 82 -326.5t235 -104.5zM920 995v-1347h-96v529q-66 -88 -153.5 -139t-195.5 -51q-183 0 -285.5 127t-102.5 381q0 109 28.5 203.5t84 164t136 109.5 t185.5 40q103 0 178.5 -39t129.5 -115l9 112q1 25 29 25h53z"/>
<glyph glyph-name="r" horiz-adv-x="794" unicode="r" d="M162 0v995h50q17 0 24.5 -7t8.5 -24l8 -210q48 121 128 189.5t197 68.5q45 0 83 -9.5t72 -27.5l-13 -66q-3 -16 -20 -16q-6 0 -17 4t-27.5 9t-40.5 9t-55 4q-113 0 -185.5 -70t-117.5 -202v-647h-95z"/>
<glyph glyph-name="s" horiz-adv-x="860" unicode="s" d="M710 872q-7 -14 -22 -14q-11 0 -28.5 12.5t-46 28t-70 28t-101.5 12.5q-54 0 -98.5 -15.5t-76 -41.5t-49 -60.5t-17.5 -72.5q0 -47 24 -78t63 -53t88.5 -38t101.5 -32t101.5 -35.5t88.5 -48.5t63 -71t24 -102q0 -65 -23.5 -121t-68 -97t-109.5 -65t-148 -24 q-105 0 -181 33.5t-136 87.5l23 34q5 8 11 12t17 4q13 0 32 -16t49.5 -34.5t76 -34.5t112.5 -16q63 0 111 17.5t80 47.5t48.5 70.5t16.5 85.5q0 50 -24 83t-63 56t-88.5 39t-102 32t-102 35t-88.5 48t-63 70.5t-24 103.5q0 53 23 102t65.5 86t103.5 59t137 22 q91 0 161.5 -26t129.5 -80z"/>
<glyph glyph-name="t" horiz-adv-x="713" unicode="t" d="M434 -16q-101 0 -157.5 56t-56.5 173v680h-143q-11 0 -18 6t-7 17v37l170 12l24 356q1 9 7.5 16t17.5 7h45v-380h313v-71h-313v-675q0 -41 10.5 -70.5t29 -48.5t43.5 -28t54 -9q36 0 62 10.5t45 23t31 23t19 10.5q8 0 16 -10l26 -42q-38 -42 -96.5 -67.5t-121.5 -25.5z "/>
<glyph glyph-name="u" horiz-adv-x="1082" unicode="u" d="M233 995v-636q0 -140 64 -219.5t195 -79.5q97 0 181 49.5t151 137.5v748h96v-995h-53q-28 0 -29 26l-9 148q-69 -86 -159.5 -138t-201.5 -52q-83 0 -145 26t-103 75t-62 118t-21 156v636h96z"/>
<glyph glyph-name="v" horiz-adv-x="974" unicode="v" d="M529 0h-84l-420 995h75q14 0 22.5 -7.5t12.5 -16.5l328 -785q10 -23 15 -44l10 -42q5 21 10.5 42.5t14.5 43.5l330 785q5 11 13.5 17.5t20.5 6.5h72z"/>
<glyph glyph-name="w" horiz-adv-x="1474" unicode="w" d="M22 995h73q14 0 23 -7.5t12 -16.5l251 -785q7 -23 11 -44l8 -42q5 21 11 42t14 44l267 792q7 22 28 22h39q22 0 29 -22l263 -792q15 -45 24 -87q4 21 8.5 42.5t12.5 44.5l252 785q8 24 34 24h70l-333 -995h-70q-16 0 -23 21l-273 808q-5 15 -9 30q-4 14 -7 29 q-3 -15 -7 -29q-3 -15 -8 -30l-276 -808q-6 -21 -24 -21h-67z"/>
<glyph glyph-name="x" horiz-adv-x="921" unicode="x" d="M395 509l-346 486h91q14 0 20.5 -6t11.5 -14l292 -422q4 17 17 36l273 385q5 9 12.5 15t17.5 6h88l-348 -481l362 -514h-91q-14 0 -22 8.5t-13 16.5l-302 440q-5 -20 -15 -34l-290 -408q-7 -9 -14.5 -16t-18.5 -7h-85z"/>
<glyph glyph-name="y" horiz-adv-x="974" unicode="y" d="M379 -320q-6 -14 -15.5 -23t-27.5 -9h-68l175 389l-421 958h79q15 0 23.5 -7.5t12.5 -16.5l335 -774q6 -15 10.5 -30.5t8.5 -31.5q5 16 10.5 31.5t11.5 30.5l331 774q5 11 14 17.5t20 6.5h73z"/>
<glyph glyph-name="z" horiz-adv-x="904" unicode="z" d="M826 955q0 -21 -14 -38l-623 -842h612v-75h-727v38q0 17 15 37l625 845h-607v75h719v-40z"/>
<glyph glyph-name="braceleft" horiz-adv-x="600" unicode="{" d="M219 445q0 33 -11 60.5t-31.5 48t-49.5 31.5t-64 11v61q35 0 64 11t49.5 31.5t31.5 48t11 60.5q0 55 -9.5 107t-20.5 104t-20.5 104.5t-9.5 108.5q0 61 19 113t55 90.5t88.5 60t118.5 21.5h55v-42q0 -11 -8.5 -17t-16.5 -6h-33q-43 0 -78.5 -15t-61 -43t-40 -68 t-14.5 -89q0 -57 9 -111t20 -106.5t20 -105t9 -105.5q0 -37 -12.5 -68t-33 -54t-47 -38.5t-55.5 -22.5q29 -6 55.5 -21.5t47 -39t33 -54t12.5 -67.5q0 -53 -9 -105.5t-20 -105.5t-20 -107t-9 -110q0 -49 14.5 -89t40 -68t61 -43t78.5 -15h33q8 0 16.5 -6t8.5 -17v-42h-55 q-66 0 -118.5 21.5t-88.5 60t-55 90.5t-19 113q0 56 9.5 108.5t20.5 104.5t20.5 104t9.5 107z"/>
<glyph glyph-name="bar" horiz-adv-x="600" unicode="|" d="M262 1517h75v-1869h-75v1869z"/>
<glyph glyph-name="braceright" horiz-adv-x="600" unicode="}" d="M381 445q0 -55 9.5 -107t20.5 -104t20.5 -104.5t9.5 -108.5q0 -61 -19 -113t-55 -90.5t-88.5 -60t-118.5 -21.5h-55v42q0 11 8 17t17 6h33q43 0 78.5 15t61 43t40 68t14.5 89q0 56 -9 110t-20 107t-20 105.5t-9 105.5q0 37 12 67.5t32.5 54t47 39t55.5 21.5 q-29 7 -55.5 22.5t-47 38.5t-32.5 54t-12 68q0 53 9 105.5t20 105t20 106.5t9 111q0 49 -14.5 89t-40 68t-61 43t-78.5 15h-33q-9 0 -17 6t-8 17v42h55q66 0 118.5 -21.5t88.5 -60t55 -90.5t19 -113q0 -56 -9.5 -108.5t-20.5 -104.5t-20.5 -104t-9.5 -107q0 -33 11 -60.5 t31.5 -48t49 -31.5t63.5 -11v-61q-35 0 -63.5 -11t-49 -31.5t-31.5 -48t-11 -60.5z"/>
<glyph glyph-name="asciitilde" d="M779 567q37 0 67.5 13.5t51.5 37.5t32.5 57t11.5 72h78q0 -55 -16 -102t-46 -82t-74 -55t-100 -20q-51 0 -104.5 19.5t-106 43.5t-101.5 43.5t-92 19.5q-38 0 -67.5 -13.5t-50.5 -37.5t-32.5 -57t-12.5 -72h-77q0 55 16 102t46 82t73.5 55t99.5 20q52 0 105.5 -19.5 t105.5 -43.5t101 -43.5t92 -19.5z" unicode="~"/>
<glyph glyph-name="uni00A0" horiz-adv-x="386" unicode=" "/>
<glyph glyph-name="exclamdown" horiz-adv-x="645" unicode="¡" d="M230 919q0 39 26.5 65.5t65.5 26.5q19 0 36 -7t29.5 -19.5t20 -29.5t7.5 -36q0 -20 -7.5 -37t-20 -29.5t-29.5 -20t-36 -7.5q-39 0 -65.5 27.5t-26.5 66.5zM279 -352v550q0 45 1 85t2.5 81.5t4.5 87.5t6 102h65q3 -56 6 -102t4.5 -87.5t2.5 -81.5t1 -85v-550h-93z"/>
<glyph glyph-name="cent" d="M253 498q0 -98 23.5 -175.5t68 -133t107 -87.5t140.5 -39l44 873q-92 -3 -163.5 -34.5t-120 -88t-74 -136.5t-25.5 -179zM589 -11q-96 6 -175 43t-136 102t-88 156.5t-31 207.5q0 112 32 205.5t93.5 161t151 106t204.5 40.5l10 205q1 13 8.5 22.5t21.5 9.5h36l-12 -240 q87 -8 154.5 -37t120.5 -75l-24 -33q-5 -5 -9.5 -8.5t-12.5 -3.5q-9 0 -25.5 11.5t-44 26t-67.5 28t-96 18.5l-43 -874q75 2 126 19t84.5 36.5t53 35.5t30.5 16q8 0 12 -2t8 -7l24 -31q-23 -29 -57.5 -53.5t-78.5 -43t-96 -30t-110 -13.5l-10 -210q-1 -13 -8.5 -22t-21.5 -9 h-36z" unicode="¢"/>
<glyph glyph-name="sterling" d="M67 664q0 15 9.5 25t26.5 10h165v294q0 93 26 173t77.5 138.5t129 92t179.5 33.5q76 0 134 -18.5t101.5 -50.5t74.5 -75t53 -91l-38 -22q-9 -5 -22 -5q-17 0 -30 17q-20 31 -42.5 60.5t-53.5 52.5t-74 36.5t-103 13.5q-78 0 -136.5 -26t-98.5 -72.5t-60 -112t-20 -144.5 v-294h479v-39q0 -11 -8.5 -19.5t-21.5 -8.5h-449v-304q0 -89 -36 -149.5t-99 -103.5q22 4 43.5 6t44.5 2h787v-40q0 -15 -12 -29t-32 -14h-970v65q34 13 66 33t57 49t39.5 68t14.5 91v326h-201v32z" unicode="£"/>
<glyph glyph-name="currency" d="M309 671q0 -56 21.5 -105t58 -85.5t86 -58t105.5 -21.5t105.5 21.5t86.5 58t58.5 85.5t21.5 105t-21.5 105.5t-58.5 86.5t-86.5 58.5t-105.5 21.5t-105.5 -21.5t-86 -58.5t-58 -86.5t-21.5 -105.5zM237 671q0 62 20 116.5t56 99.5l-154 154l49 50l154 -154q45 36 100 57 t118 21q62 0 116.5 -20.5t99.5 -56.5l154 154l49 -50l-153 -153q36 -45 57 -100t21 -118q0 -62 -20.5 -116.5t-56.5 -99.5l154 -154l-50 -50l-154 154q-45 -36 -100 -56.5t-117 -20.5t-116.5 20t-99.5 56l-155 -154l-49 50l154 153q-36 45 -56.5 100t-20.5 118z" unicode="¤"/>
<glyph glyph-name="yen" d="M161 616h346l-422 799h79q26 0 39 -25l346 -665q8 -20 14.5 -37.5t11.5 -34.5q9 33 26 72l345 665q5 11 14.5 18t23.5 7h80l-423 -799h347v-58h-366v-118h366v-58h-366v-382h-95v382h-366v58h366v118h-366v58z" unicode="¥"/>
<glyph glyph-name="brokenbar" horiz-adv-x="600" unicode="¦" d="M262 425h75v-777h-75v777zM262 1517h75v-778h-75v778z"/>
<glyph glyph-name="section" horiz-adv-x="1002" unicode="§" d="M224 727q0 -41 19.5 -73.5t53 -59t77.5 -49t92 -43.5t97.5 -42.5t94.5 -46.5q71 32 102 80t31 109q0 45 -18 80t-48.5 62.5t-71 49.5t-85.5 42.5t-91.5 40t-89.5 42.5q-89 -38 -126 -85t-37 -107zM808 1291q-7 -13 -22 -13q-11 0 -28.5 12.5t-46 27.5t-70 27.5 t-101.5 12.5q-56 0 -101.5 -15.5t-77.5 -42t-49.5 -61.5t-17.5 -74q0 -46 25 -80t66 -61.5t93 -50.5t106.5 -47t106.5 -51.5t93 -62.5t66 -81.5t25 -108.5q0 -83 -42 -144.5t-124 -96.5q54 -38 87.5 -87t33.5 -118q0 -65 -23.5 -121t-68 -97t-109.5 -65t-148 -24 q-105 0 -181 33.5t-136 87.5l23 34q5 8 11 12t17 4q13 0 32 -16t50 -34.5t77 -34.5t114 -16q62 0 110 17t81 47t50 70.5t17 87.5q0 51 -26 89t-69 67.5t-97.5 53.5t-111 48t-111 50t-97.5 60.5t-69 79t-26 105.5q0 77 45.5 138.5t148.5 98.5q-55 37 -89.5 86.5t-34.5 123.5 q0 54 23 102.5t65.5 86t103.5 59.5t137 22q91 0 161.5 -26.5t129.5 -79.5z"/>
<glyph glyph-name="dieresis" horiz-adv-x="585" unicode="¨" d="M546 1284q0 -16 -7 -30.5t-18 -25.5t-26.5 -17.5t-31.5 -6.5q-17 0 -31.5 6.5t-26 17.5t-18 25.5t-6.5 30.5q0 17 6.5 32t18 26.5t26 18t31.5 6.5q16 0 31.5 -6.5t26.5 -18t18 -26.5t7 -32zM203 1284q0 -16 -7 -30.5t-18 -25.5t-26.5 -17.5t-31.5 -6.5t-30.5 6.5 t-26 17.5t-18 25.5t-6.5 30.5q0 17 6.5 32t18 26.5t26 18t30.5 6.5t31.5 -6.5t26.5 -18t18 -26.5t7 -32z"/>
<glyph glyph-name="copyright" horiz-adv-x="1613" unicode="©" d="M144 708q0 -139 51.5 -260.5t141.5 -212t210.5 -142.5t258.5 -52t259.5 52t211.5 142.5t142 212t52 260.5t-52 260.5t-142 212.5t-211.5 143.5t-259.5 52.5t-258.5 -52.5t-210.5 -143.5t-141.5 -212.5t-51.5 -260.5zM85 708q0 99 26 191.5t72.5 172.5t112.5 146t146 113 t172 73t192 26t192 -26t172.5 -73t146.5 -113t112.5 -146t72.5 -172.5t26 -191.5q0 -100 -26 -192t-72.5 -172t-112.5 -146t-146.5 -113t-172.5 -73t-192 -26q-99 0 -191.5 26t-172.5 73t-146 113t-112.5 146t-72.5 172t-26 192zM1080 414q12 10 23 10q5 0 9 -2t6 -4l31 -31 q-59 -59 -139 -94t-196 -35q-96 0 -176.5 32.5t-138 91.5t-89.5 142t-32 185q0 100 33.5 183t93.5 142.5t143 92.5t182 33q52 0 95.5 -7.5t80.5 -22t69 -35t63 -47.5l-24 -33q-7 -11 -20 -11q-10 0 -26.5 13t-45.5 28.5t-74.5 28.5t-113.5 13q-83 0 -151 -26.5t-116.5 -75.5 t-75 -119t-26.5 -157q0 -90 26.5 -160t73.5 -118.5t111.5 -74t141.5 -25.5q85 0 146.5 20.5t115.5 62.5z"/>
<glyph glyph-name="ordfeminine" horiz-adv-x="671" unicode="ª" d="M292 883q33 0 61 7t52.5 19.5t46 29.5t42.5 37v138q-168 -5 -243.5 -39t-75.5 -90q0 -27 9.5 -46.5t26 -32t37.5 -18t44 -5.5zM565 839h-32q-11 0 -16 4t-10 15l-10 68q-25 -23 -49.5 -41t-51 -30t-57 -18.5t-66.5 -6.5q-33 0 -63 9t-53 27.5t-37 47t-14 67.5 q0 36 21 68.5t67.5 57t120.5 40t179 17.5v51q0 76 -34 115.5t-107 39.5q-43 0 -72.5 -11t-49.5 -23.5t-33.5 -23.5t-24.5 -11q-15 0 -22 13l-12 23q48 48 101 70.5t120 22.5q101 0 153 -58.5t52 -156.5v-376z"/>
<glyph glyph-name="guillemotleft" horiz-adv-x="874" unicode="«" d="M410 513v13l241 378l30 -15q16 -10 16 -25q0 -12 -7 -23l-183 -293q-13 -20 -22 -29q10 -8 22 -28l183 -294q7 -11 7 -23q0 -15 -16 -25l-30 -15zM155 513v13l241 378l30 -15q16 -10 16 -25q0 -12 -7 -23l-183 -293q-13 -20 -22 -29q10 -8 22 -28l183 -294q7 -11 7 -23 q0 -15 -16 -25l-30 -15z"/>
<glyph glyph-name="logicalnot" d="M164 707h829v-368h-82v295h-747v73z" unicode="¬"/>
<glyph glyph-name="uni00AD" horiz-adv-x="665" unicode="­" d="M100 634h465v-81h-465v81z"/>
<glyph glyph-name="registered" horiz-adv-x="1613" unicode="®" d="M624 721h148q121 0 180.5 48.5t59.5 139.5q0 92 -54 134t-172 42h-162v-364zM624 657v-391h-85v885h247q153 0 231.5 -57.5t78.5 -175.5q0 -100 -64.5 -164t-181.5 -80q12 -7 21.5 -16.5t18.5 -23.5l285 -368h-80q-10 0 -17.5 3t-13.5 13l-270 351q-8 11 -20.5 17.5 t-39.5 6.5h-110zM144 708q0 -139 51.5 -260.5t141.5 -212t210.5 -142.5t258.5 -52t259.5 52t211.5 142.5t142 212t52 260.5t-52 260.5t-142 212.5t-211.5 143.5t-259.5 52.5t-258.5 -52.5t-210.5 -143.5t-141.5 -212.5t-51.5 -260.5zM85 708q0 99 26 191.5t72.5 172.5 t112.5 146t146 113t172 73t192 26t192 -26t172.5 -73t146.5 -113t112.5 -146t72.5 -172.5t26 -191.5q0 -100 -26 -192t-72.5 -172t-112.5 -146t-146.5 -113t-172.5 -73t-192 -26q-99 0 -191.5 26t-172.5 73t-146 113t-112.5 146t-72.5 172t-26 192z"/>
<glyph glyph-name="macron" horiz-adv-x="585" unicode="¯" d="M20 1317h545v-65h-545v65z"/>
<glyph glyph-name="degree" horiz-adv-x="786" unicode="°" d="M162 1134q0 -48 18 -90t49 -73t73 -49t90 -18t90 18t72.5 49t48.5 73t18 90t-18 90t-48.5 73.5t-72.5 49.5t-90 18t-90 -18t-73 -49.5t-49 -73.5t-18 -90zM91 1134q0 62 23.5 116.5t64 95t95.5 63.5t118 23t118 -23t95.5 -63.5t64 -95t23.5 -116.5t-23.5 -116t-64 -94.5 t-95.5 -64t-118 -23.5t-118 23.5t-95.5 64t-64 94.5t-23.5 116z"/>
<glyph glyph-name="plusminus" d="M109 153h939v-73h-939v73zM617 1153v-406h431v-73h-431v-402h-78v402h-430v73h430v406h78z" unicode="±"/>
<glyph glyph-name="twosuperior" horiz-adv-x="662" unicode="²" d="M342 1623q44 0 83 -13t67.5 -37.5t45 -61t16.5 -84.5q0 -40 -12.5 -74.5t-33.5 -66t-49 -61t-58 -59.5l-207 -210q19 5 38.5 7.5t39.5 2.5h275q24 0 24 -24v-42h-474v24q0 8 3 16t11 15l235 237q28 28 52.5 56t43 56.5t29 58.5t10.5 62q0 35 -11.5 61t-31 43t-45.5 25.5 t-54 8.5q-62 0 -98 -35.5t-56 -90.5q-7 -19 -27 -19q-2 0 -8 0.5t-9 1.5l-30 5q14 96 76 147t155 51z"/>
<glyph glyph-name="threesuperior" horiz-adv-x="662" unicode="³" d="M348 1623q44 0 82 -12.5t65.5 -36t43.5 -57t16 -76.5q0 -66 -36 -109.5t-96 -62.5q73 -17 111.5 -59t38.5 -108q0 -48 -18.5 -86.5t-50.5 -66t-75 -42.5t-91 -15q-60 0 -100.5 15t-68 40.5t-44 59t-27.5 69.5l30 13q4 2 7.5 3t8.5 1q8 0 15 -4t10 -12l3 -8 q4 -12 13.5 -32t27.5 -38.5t47.5 -32.5t74.5 -14q41 0 72 13.5t51.5 34.5t31 47t10.5 51q0 33 -10.5 59t-33.5 44.5t-60 28.5t-90 10v49q91 2 135.5 39.5t44.5 100.5q0 34 -11 59t-30.5 41.5t-45 24.5t-54.5 8q-63 0 -99.5 -32.5t-54.5 -91.5q-6 -20 -24 -20q-7 0 -22 3 l-25 4q14 96 75.5 147t152.5 51z"/>
<glyph glyph-name="acute" horiz-adv-x="585" unicode="´" d="M517 1431l-216 -253q-8 -10 -16.5 -13.5t-20.5 -3.5h-57l157 238q11 18 23 25t36 7h94z"/>
<glyph glyph-name="mu" horiz-adv-x="1082" unicode="µ" d="M233 995v-636q0 -140 64 -219.5t195 -79.5q97 0 181 49.5t151 137.5v748h96v-995h-53q-28 0 -29 26l-9 148q-70 -88 -155 -134t-187 -46q-98 0 -164 38.5t-103 110.5q5 -43 6.5 -87t1.5 -80v-328h-48q-20 0 -31.5 11t-11.5 31v1305h96z"/>
<glyph glyph-name="paragraph" horiz-adv-x="1264" unicode="¶" d="M1220 1415v-82h-225v-1523h-85v1523h-328v-1523h-86v889q-103 0 -185 28t-139 77t-87.5 115.5t-30.5 143.5q0 80 30.5 145t87.5 111t139 71t185 25h724z"/>
<glyph glyph-name="periodcentered" horiz-adv-x="532" unicode="·" d="M165 592q0 21 8 40t21.5 33t31.5 22t38 8q21 0 40 -8t33 -22t22 -33t8 -40q0 -20 -8 -38.5t-22 -32t-33 -21.5t-40 -8q-20 0 -38 8t-31.5 21.5t-21.5 32t-8 38.5z"/>
<glyph glyph-name="cedilla" horiz-adv-x="585" unicode="¸" d="M158 -273q5 0 13.5 -5.5t22 -12t33.5 -12t49 -5.5q51 0 79.5 22t28.5 60q0 25 -13 41.5t-37 27.5t-56.5 17t-71.5 11l42 134h61l-30 -96q89 -16 135.5 -46t46.5 -89q0 -30 -13.5 -54t-38 -40.5t-58.5 -25.5t-74 -9q-41 0 -80 11.5t-65 30.5l10 28q6 12 16 12z"/>
<glyph glyph-name="onesuperior" horiz-adv-x="662" unicode="¹" d="M187 949h158v540l4 37l-144 -126q-8 -6 -16 -6q-11 0 -18 9l-22 31l211 184h58v-669h147v-49h-378v49z"/>
<glyph glyph-name="ordmasculine" horiz-adv-x="747" unicode="º" d="M375 885q104 0 156.5 64.5t52.5 178.5q0 113 -52.5 178t-156.5 65q-107 0 -159.5 -65t-52.5 -178q0 -114 52.5 -178.5t159.5 -64.5zM375 1429q66 0 119 -21t90 -60.5t56.5 -95t19.5 -124.5t-19.5 -124.5t-56.5 -95t-90 -60.5t-119 -21q-68 0 -121 21t-90.5 60.5t-57 95 t-19.5 124.5t19.5 124.5t57 95t90.5 60.5t121 21z"/>
<glyph glyph-name="guillemotright" horiz-adv-x="874" unicode="»" d="M478 134l-30 15q-17 9 -17 26q0 11 7 22l183 294q6 11 11.5 17.5t10.5 10.5q-5 5 -10.5 11.5t-11.5 17.5l-183 293q-7 11 -7 23q0 16 17 25l30 15l241 -378v-13zM223 134l-30 15q-17 9 -17 26q0 11 7 22l183 294q6 11 11.5 17.5t10.5 10.5q-5 5 -10.5 11.5t-11.5 17.5 l-183 293q-7 11 -7 23q0 16 17 25l30 15l241 -378v-13z"/>
<glyph glyph-name="onequarter" horiz-adv-x="1424" unicode="¼" d="M408 31q-11 -18 -24.5 -24.5t-30.5 -6.5h-40l800 1380q10 17 22.5 26t32.5 9h42zM1204 582q0 23 3 52l-289 -387h286v335zM172 750h158v540l4 37l-144 -126q-8 -6 -16 -6q-11 0 -18 9l-22 31l211 184h58v-669h147v-49h-378v49zM1267 247h126v-36q0 -16 -17 -16h-109v-195 h-63v195h-325q-23 0 -25 16l-6 32l352 472h67v-468z"/>
<glyph glyph-name="onehalf" horiz-adv-x="1424" unicode="½" d="M361 31q-11 -18 -24.5 -24.5t-30.5 -6.5h-40l800 1380q10 17 22.5 26t32.5 9h42zM172 750h158v540l4 37l-144 -126q-8 -6 -16 -6q-11 0 -18 9l-22 31l211 184h58v-669h147v-49h-378v49zM1126 723q44 0 83 -13t67.5 -37.5t45 -61t16.5 -84.5q0 -40 -12.5 -74.5t-33.5 -66 t-49 -61t-58 -59.5l-207 -210q19 5 38.5 7.5t39.5 2.5h275q24 0 24 -24v-42h-474v24q0 8 3 16t11 15l235 237q28 28 52.5 56t43 56.5t29 58.5t10.5 62q0 35 -11.5 61t-31 43t-45.5 25.5t-54 8.5q-62 0 -98.5 -32t-55.5 -94q-6 -19 -27 -19q-2 0 -12 1t-12 2l-23 4 q14 96 76 147t155 51z"/>
<glyph glyph-name="threequarters" horiz-adv-x="1428" unicode="¾" d="M1204 582q0 23 3 52l-289 -387h286v335zM333 1424q44 0 82 -12.5t65.5 -36t43.5 -57t16 -76.5q0 -66 -36 -109.5t-96 -62.5q73 -17 111.5 -59t38.5 -108q0 -48 -18.5 -86.5t-50.5 -66t-75 -42.5t-91 -15q-60 0 -100.5 15t-68 40.5t-44 59t-27.5 69.5l30 13q4 2 7.5 3 t8.5 1q8 0 15 -4t10 -12l3 -8q4 -12 13.5 -32t27.5 -38.5t47.5 -32.5t74.5 -14q41 0 72 13.5t51.5 34.5t31 47t10.5 51q0 33 -10.5 59t-33.5 44.5t-60 28.5t-90 10v49q91 2 135.5 39.5t44.5 100.5q0 34 -11 59t-30.5 41.5t-45 24.5t-54.5 8q-62 0 -99 -35.5t-55 -88.5 q-7 -20 -24 -20h-3q-2 0 -6.5 1t-13.5 2t-24 4q14 96 75.5 147t152.5 51zM416 31q-11 -18 -24.5 -24.5t-30.5 -6.5h-40l800 1380q10 17 22.5 26t32.5 9h42zM1267 247h126v-36q0 -16 -17 -16h-109v-195h-63v195h-325q-23 0 -25 16l-6 32l352 472h67v-468z"/>
<glyph glyph-name="questiondown" horiz-adv-x="741" unicode="¿" d="M325 918q0 19 7 36t19.5 29.5t29 20t36.5 7.5q19 0 36 -7.5t29.5 -20t20 -29.5t7.5 -36q0 -20 -7.5 -36.5t-20 -29t-29.5 -19.5t-36 -7q-39 0 -65.5 26.5t-26.5 65.5zM712 -224q-27 -27 -61 -52t-74.5 -44.5t-88.5 -31t-104 -11.5q-69 0 -131.5 20.5t-109 59t-74 94 t-27.5 126.5q0 76 24 129.5t59.5 92t77.5 67t79 53.5t62.5 51t27.5 61l11 163h65l6 -170v-5q0 -42 -24 -72t-59.5 -56t-77.5 -52.5t-77.5 -61t-59.5 -81t-24 -112.5q0 -54 21 -96.5t57 -72t83 -45t98 -15.5q69 0 116.5 17.5t79.5 39t50 39t28 17.5q9 0 13.5 -3.5t8.5 -9.5z "/>
<glyph glyph-name="Agrave" horiz-adv-x="1289" unicode="À" d="M463 1770q24 0 35.5 -4.5t25.5 -17.5l228 -206h-71q-12 0 -20 2t-18 10l-293 216h113zM328 514h634l-289 715q-7 17 -14 38.5t-14 45.5q-7 -24 -14 -45.5t-14 -39.5zM1275 0h-79q-14 0 -23 7.5t-14 19.5l-167 411h-695l-166 -411q-4 -11 -14 -19t-24 -8h-78l579 1415h102 z"/>
<glyph glyph-name="Aacute" horiz-adv-x="1289" unicode="Á" d="M933 1770l-292 -216q-10 -7 -18.5 -9.5t-20.5 -2.5h-70l227 206q14 13 26 17.5t36 4.5h112zM328 514h634l-289 715q-7 17 -14 38.5t-14 45.5q-7 -24 -14 -45.5t-14 -39.5zM1275 0h-79q-14 0 -23 7.5t-14 19.5l-167 411h-695l-166 -411q-4 -11 -14 -19t-24 -8h-78 l579 1415h102z"/>
<glyph glyph-name="Acircumflex" horiz-adv-x="1289" unicode="Â" d="M924 1542h-73q-8 0 -17.5 2.5t-16.5 7.5l-156 123q-8 6 -11 9l-5 5q-2 -2 -5.5 -5t-11.5 -9l-157 -123q-7 -5 -16 -7.5t-17 -2.5h-74l235 199h90zM328 514h634l-289 715q-7 17 -14 38.5t-14 45.5q-7 -24 -14 -45.5t-14 -39.5zM1275 0h-79q-14 0 -23 7.5t-14 19.5 l-167 411h-695l-166 -411q-4 -11 -14 -19t-24 -8h-78l579 1415h102z"/>
<glyph glyph-name="Atilde" horiz-adv-x="1289" unicode="Ã" d="M764 1616q42 0 64 27.5t23 70.5h54q0 -35 -9 -64.5t-26 -52t-43.5 -35t-60.5 -12.5q-33 0 -63 16t-58 34.5t-54.5 34.5t-53.5 16q-42 0 -63.5 -28t-23.5 -70h-56q0 34 9.5 64t27.5 52.5t44 35t60 12.5t64 -16t58 -34.5t54 -34.5t53 -16zM328 514h634l-289 715 q-7 17 -14 38.5t-14 45.5q-7 -24 -14 -45.5t-14 -39.5zM1275 0h-79q-14 0 -23 7.5t-14 19.5l-167 411h-695l-166 -411q-4 -11 -14 -19t-24 -8h-78l579 1415h102z"/>
<glyph glyph-name="Adieresis" horiz-adv-x="1289" unicode="Ä" d="M933 1665q0 -16 -6.5 -30.5t-18 -25t-26 -17t-30.5 -6.5q-17 0 -31.5 6.5t-25.5 17t-17.5 25t-6.5 30.5q0 33 24 57.5t57 24.5q16 0 30.5 -6.5t26 -18t18 -26.5t6.5 -31zM517 1665q0 -16 -7 -30.5t-18 -25t-26 -17t-31 -6.5t-30.5 6.5t-25.5 17t-17.5 25t-6.5 30.5 t6.5 31t17.5 26.5t25.5 18t30.5 6.5t31 -6.5t26 -18t18 -26.5t7 -31zM328 514h634l-289 715q-7 17 -14 38.5t-14 45.5q-7 -24 -14 -45.5t-14 -39.5zM1275 0h-79q-14 0 -23 7.5t-14 19.5l-167 411h-695l-166 -411q-4 -11 -14 -19t-24 -8h-78l579 1415h102z"/>
<glyph glyph-name="Aring" horiz-adv-x="1289" unicode="Å" d="M530 1630q0 -50 32 -82t83 -32q50 0 82 32t32 82t-32 82t-82 32q-51 0 -83 -32t-32 -82zM477 1630q0 34 13.5 63.5t36 50.5t53 33t64.5 12t65 -12t53.5 -33t36 -50.5t13.5 -63.5q0 -35 -13.5 -64t-36 -50t-53.5 -32.5t-65 -11.5t-64.5 11.5t-53 32.5t-36 50t-13.5 64z M328 514h634l-289 715q-7 17 -14 38.5t-14 45.5q-7 -24 -14 -45.5t-14 -39.5zM1275 0h-79q-14 0 -23 7.5t-14 19.5l-167 411h-695l-166 -411q-4 -11 -14 -19t-24 -8h-78l579 1415h102z"/>
<glyph glyph-name="AE" horiz-adv-x="1847" unicode="Æ" d="M371 514h544l-105 823q-8 -26 -18 -49t-21 -46zM763 1415h960v-85h-815l72 -572h618v-83h-607l75 -590h657v-85h-742l-56 438h-596l-227 -413q-13 -25 -42 -25h-79z"/>
<glyph glyph-name="Ccedilla" horiz-adv-x="1407" unicode="Ç" d="M656 -273q5 0 13.5 -5.5t22 -12t33.5 -12t49 -5.5q51 0 79.5 22t28.5 60q0 25 -13 41.5t-37 27.5t-56.5 17t-71.5 11l36 115q-137 8 -250.5 63t-194.5 149t-126 223t-45 287q0 161 50.5 294t142 228.5t219 148t281.5 52.5q77 0 141 -11.5t119.5 -33t104.5 -53.5t96 -74 l-31 -45q-8 -12 -25 -12q-9 0 -23 10.5t-35.5 26t-52 34t-72.5 34t-97 26t-125 10.5q-129 0 -237 -44.5t-186 -127t-121.5 -200t-43.5 -263.5q0 -150 43 -268t119 -199.5t179.5 -125t224.5 -43.5q76 0 135.5 10t109.5 30t93 49t85 68q5 4 9.5 6.5t10.5 2.5q10 0 17 -7 l40 -43q-44 -46 -94.5 -83t-111 -63.5t-132.5 -41.5t-157 -16l-23 -75q89 -16 135.5 -46t46.5 -89q0 -30 -13.5 -54t-38 -40.5t-58.5 -25.5t-74 -9q-41 0 -80 11.5t-65 30.5l10 28q6 12 16 12z"/>
<glyph glyph-name="Egrave" horiz-adv-x="1182" unicode="È" d="M462 1770q24 0 35.5 -4.5t25.5 -17.5l228 -206h-71q-12 0 -20 2t-18 10l-293 216h113zM1058 1415v-85h-745v-572h620v-83h-620v-590h745v-85h-848v1415h848z"/>
<glyph glyph-name="Eacute" horiz-adv-x="1182" unicode="É" d="M932 1770l-292 -216q-10 -7 -18.5 -9.5t-20.5 -2.5h-70l227 206q14 13 26 17.5t36 4.5h112zM1058 1415v-85h-745v-572h620v-83h-620v-590h745v-85h-848v1415h848z"/>
<glyph glyph-name="Ecircumflex" horiz-adv-x="1182" unicode="Ê" d="M923 1542h-73q-8 0 -17.5 2.5t-16.5 7.5l-156 123q-8 6 -11 9l-5 5q-2 -2 -5.5 -5t-11.5 -9l-157 -123q-7 -5 -16 -7.5t-17 -2.5h-74l235 199h90zM1058 1415v-85h-745v-572h620v-83h-620v-590h745v-85h-848v1415h848z"/>
<glyph glyph-name="Edieresis" horiz-adv-x="1182" unicode="Ë" d="M932 1665q0 -16 -6.5 -30.5t-18 -25t-26 -17t-30.5 -6.5q-17 0 -31.5 6.5t-25.5 17t-17.5 25t-6.5 30.5q0 33 24 57.5t57 24.5q16 0 30.5 -6.5t26 -18t18 -26.5t6.5 -31zM516 1665q0 -16 -7 -30.5t-18 -25t-26 -17t-31 -6.5t-30.5 6.5t-25.5 17t-17.5 25t-6.5 30.5 t6.5 31t17.5 26.5t25.5 18t30.5 6.5t31 -6.5t26 -18t18 -26.5t7 -31zM1058 1415v-85h-745v-572h620v-83h-620v-590h745v-85h-848v1415h848z"/>
<glyph glyph-name="Igrave" horiz-adv-x="598" unicode="Ì" d="M120 1770q24 0 35.5 -4.5t25.5 -17.5l228 -206h-71q-12 0 -20 2t-18 10l-293 216h113zM350 0h-103v1415h103v-1415z"/>
<glyph glyph-name="Iacute" horiz-adv-x="598" unicode="Í" d="M590 1770l-292 -216q-10 -7 -18.5 -9.5t-20.5 -2.5h-70l227 206q14 13 26 17.5t36 4.5h112zM350 0h-103v1415h103v-1415z"/>
<glyph glyph-name="Icircumflex" horiz-adv-x="598" unicode="Î" d="M581 1542h-73q-8 0 -17.5 2.5t-16.5 7.5l-156 123q-8 6 -11 9l-5 5q-2 -2 -5.5 -5t-11.5 -9l-157 -123q-7 -5 -16 -7.5t-17 -2.5h-74l235 199h90zM350 0h-103v1415h103v-1415z"/>
<glyph glyph-name="Idieresis" horiz-adv-x="598" unicode="Ï" d="M590 1665q0 -16 -6.5 -30.5t-18 -25t-26 -17t-30.5 -6.5q-17 0 -31.5 6.5t-25.5 17t-17.5 25t-6.5 30.5q0 33 24 57.5t57 24.5q16 0 30.5 -6.5t26 -18t18 -26.5t6.5 -31zM174 1665q0 -16 -7 -30.5t-18 -25t-26 -17t-31 -6.5t-30.5 6.5t-25.5 17t-17.5 25t-6.5 30.5 t6.5 31t17.5 26.5t25.5 18t30.5 6.5t31 -6.5t26 -18t18 -26.5t7 -31zM350 0h-103v1415h103v-1415z"/>
<glyph glyph-name="Eth" horiz-adv-x="1575" unicode="Ð" d="M1350 708q0 148 -41 264t-115.5 196t-179.5 122t-233 42h-413v-583h404v-64h-404v-602h413q128 0 233 42t179.5 122t115.5 196t41 265zM49 749h216v666h516q151 0 275 -49t213 -141t138 -223t49 -294q0 -164 -49 -295t-138 -223t-213 -141t-275 -49h-516v685h-216v64z "/>
<glyph glyph-name="Ntilde" horiz-adv-x="1512" unicode="Ñ" d="M912 1616q42 0 64 27.5t23 70.5h54q0 -35 -9 -64.5t-26 -52t-43.5 -35t-60.5 -12.5q-33 0 -63 16t-58 34.5t-54.5 34.5t-53.5 16q-42 0 -63.5 -28t-23.5 -70h-56q0 34 9.5 64t27.5 52.5t44 35t60 12.5t64 -16t58 -34.5t54 -34.5t53 -16zM260 1415q14 0 22 -3.5t17 -15.5 l916 -1226q-3 30 -3 58v1187h90v-1415h-49q-23 0 -37 20l-920 1228q3 -30 3 -57v-1191h-89v1415h50z"/>
<glyph glyph-name="Ograve" horiz-adv-x="1595" unicode="Ò" d="M618 1770q24 0 35.5 -4.5t25.5 -17.5l228 -206h-71q-12 0 -20 2t-18 10l-293 216h113zM1366 708q0 148 -41 266t-115.5 200t-179.5 125.5t-233 43.5q-126 0 -230.5 -43.5t-180 -125.5t-117 -200t-41.5 -266q0 -149 41.5 -266.5t117 -199.5t180 -125t230.5 -43 q128 0 233 43t179.5 125t115.5 199.5t41 266.5zM1472 708q0 -164 -49 -297.5t-138 -228t-213 -146t-275 -51.5q-149 0 -273 51.5t-213 146t-138.5 228t-49.5 297.5q0 163 49.5 296.5t138.5 228t213 146.5t273 52q151 0 275 -51.5t213 -146.5t138 -228.5t49 -296.5z"/>
<glyph glyph-name="Oacute" horiz-adv-x="1595" unicode="Ó" d="M1088 1770l-292 -216q-10 -7 -18.5 -9.5t-20.5 -2.5h-70l227 206q14 13 26 17.5t36 4.5h112zM1366 708q0 148 -41 266t-115.5 200t-179.5 125.5t-233 43.5q-126 0 -230.5 -43.5t-180 -125.5t-117 -200t-41.5 -266q0 -149 41.5 -266.5t117 -199.5t180 -125t230.5 -43 q128 0 233 43t179.5 125t115.5 199.5t41 266.5zM1472 708q0 -164 -49 -297.5t-138 -228t-213 -146t-275 -51.5q-149 0 -273 51.5t-213 146t-138.5 228t-49.5 297.5q0 163 49.5 296.5t138.5 228t213 146.5t273 52q151 0 275 -51.5t213 -146.5t138 -228.5t49 -296.5z"/>
<glyph glyph-name="Ocircumflex" horiz-adv-x="1595" unicode="Ô" d="M1079 1542h-73q-8 0 -17.5 2.5t-16.5 7.5l-156 123q-8 6 -11 9l-5 5q-2 -2 -5.5 -5t-11.5 -9l-157 -123q-7 -5 -16 -7.5t-17 -2.5h-74l235 199h90zM1366 708q0 148 -41 266t-115.5 200t-179.5 125.5t-233 43.5q-126 0 -230.5 -43.5t-180 -125.5t-117 -200t-41.5 -266 q0 -149 41.5 -266.5t117 -199.5t180 -125t230.5 -43q128 0 233 43t179.5 125t115.5 199.5t41 266.5zM1472 708q0 -164 -49 -297.5t-138 -228t-213 -146t-275 -51.5q-149 0 -273 51.5t-213 146t-138.5 228t-49.5 297.5q0 163 49.5 296.5t138.5 228t213 146.5t273 52 q151 0 275 -51.5t213 -146.5t138 -228.5t49 -296.5z"/>
<glyph glyph-name="Otilde" horiz-adv-x="1595" unicode="Õ" d="M919 1616q42 0 64 27.5t23 70.5h54q0 -35 -9 -64.5t-26 -52t-43.5 -35t-60.5 -12.5q-33 0 -63 16t-58 34.5t-54.5 34.5t-53.5 16q-42 0 -63.5 -28t-23.5 -70h-56q0 34 9.5 64t27.5 52.5t44 35t60 12.5t64 -16t58 -34.5t54 -34.5t53 -16zM1366 708q0 148 -41 266 t-115.5 200t-179.5 125.5t-233 43.5q-126 0 -230.5 -43.5t-180 -125.5t-117 -200t-41.5 -266q0 -149 41.5 -266.5t117 -199.5t180 -125t230.5 -43q128 0 233 43t179.5 125t115.5 199.5t41 266.5zM1472 708q0 -164 -49 -297.5t-138 -228t-213 -146t-275 -51.5 q-149 0 -273 51.5t-213 146t-138.5 228t-49.5 297.5q0 163 49.5 296.5t138.5 228t213 146.5t273 52q151 0 275 -51.5t213 -146.5t138 -228.5t49 -296.5z"/>
<glyph glyph-name="Odieresis" horiz-adv-x="1595" unicode="Ö" d="M1088 1665q0 -16 -6.5 -30.5t-18 -25t-26 -17t-30.5 -6.5q-17 0 -31.5 6.5t-25.5 17t-17.5 25t-6.5 30.5q0 33 24 57.5t57 24.5q16 0 30.5 -6.5t26 -18t18 -26.5t6.5 -31zM672 1665q0 -16 -7 -30.5t-18 -25t-26 -17t-31 -6.5t-30.5 6.5t-25.5 17t-17.5 25t-6.5 30.5 t6.5 31t17.5 26.5t25.5 18t30.5 6.5t31 -6.5t26 -18t18 -26.5t7 -31zM1366 708q0 148 -41 266t-115.5 200t-179.5 125.5t-233 43.5q-126 0 -230.5 -43.5t-180 -125.5t-117 -200t-41.5 -266q0 -149 41.5 -266.5t117 -199.5t180 -125t230.5 -43q128 0 233 43t179.5 125 t115.5 199.5t41 266.5zM1472 708q0 -164 -49 -297.5t-138 -228t-213 -146t-275 -51.5q-149 0 -273 51.5t-213 146t-138.5 228t-49.5 297.5q0 163 49.5 296.5t138.5 228t213 146.5t273 52q151 0 275 -51.5t213 -146.5t138 -228.5t49 -296.5z"/>
<glyph glyph-name="multiply" d="M998 1036l-367 -366l372 -372l-51 -52l-373 372l-374 -374l-52 52l373 374l-368 368l53 54l368 -369l366 367z" unicode="×"/>
<glyph glyph-name="Oslash" horiz-adv-x="1595" unicode="Ø" d="M1366 708q0 152 -43 271t-121 201l-745 -1002q69 -51 154.5 -77.5t185.5 -26.5q128 0 233 43t179.5 125t115.5 199.5t41 266.5zM228 708q0 -160 47 -282.5t132 -204.5l746 1005q-71 57 -160.5 87t-195.5 30q-126 0 -230.5 -43.5t-180 -125.5t-117 -200t-41.5 -266z M1472 708q0 -164 -49 -297.5t-138 -228t-213 -146t-275 -51.5q-115 0 -214.5 30.5t-180.5 87.5l-131 -176q-13 -17 -29 -24.5t-33 -7.5h-44l185 249q-108 96 -167.5 238.5t-59.5 325.5q0 163 49.5 296.5t138.5 228t213 146.5t273 52q121 0 225 -33.5t187 -96.5l111 149 q12 16 21 23t29 7h55l-165 -222q101 -96 156.5 -235t55.5 -315z"/>
<glyph glyph-name="Ugrave" horiz-adv-x="1467" unicode="Ù" d="M552 1770q24 0 35.5 -4.5t25.5 -17.5l228 -206h-71q-12 0 -20 2t-18 10l-293 216h113zM733 73q102 0 182.5 35.5t136.5 98.5t85.5 148.5t29.5 184.5v875h102v-875q0 -117 -37 -218.5t-106.5 -177t-169 -118.5t-223.5 -43t-223.5 43t-169 118.5t-106.5 177t-37 218.5v875 h103v-874q0 -99 29.5 -184.5t85 -148.5t136 -99t182.5 -36z"/>
<glyph glyph-name="Uacute" horiz-adv-x="1467" unicode="Ú" d="M1022 1770l-292 -216q-10 -7 -18.5 -9.5t-20.5 -2.5h-70l227 206q14 13 26 17.5t36 4.5h112zM733 73q102 0 182.5 35.5t136.5 98.5t85.5 148.5t29.5 184.5v875h102v-875q0 -117 -37 -218.5t-106.5 -177t-169 -118.5t-223.5 -43t-223.5 43t-169 118.5t-106.5 177 t-37 218.5v875h103v-874q0 -99 29.5 -184.5t85 -148.5t136 -99t182.5 -36z"/>
<glyph glyph-name="Ucircumflex" horiz-adv-x="1467" unicode="Û" d="M1013 1542h-73q-8 0 -17.5 2.5t-16.5 7.5l-156 123q-8 6 -11 9l-5 5q-2 -2 -5.5 -5t-11.5 -9l-157 -123q-7 -5 -16 -7.5t-17 -2.5h-74l235 199h90zM733 73q102 0 182.5 35.5t136.5 98.5t85.5 148.5t29.5 184.5v875h102v-875q0 -117 -37 -218.5t-106.5 -177t-169 -118.5 t-223.5 -43t-223.5 43t-169 118.5t-106.5 177t-37 218.5v875h103v-874q0 -99 29.5 -184.5t85 -148.5t136 -99t182.5 -36z"/>
<glyph glyph-name="Udieresis" horiz-adv-x="1467" unicode="Ü" d="M1022 1665q0 -16 -6.5 -30.5t-18 -25t-26 -17t-30.5 -6.5q-17 0 -31.5 6.5t-25.5 17t-17.5 25t-6.5 30.5q0 33 24 57.5t57 24.5q16 0 30.5 -6.5t26 -18t18 -26.5t6.5 -31zM606 1665q0 -16 -7 -30.5t-18 -25t-26 -17t-31 -6.5t-30.5 6.5t-25.5 17t-17.5 25t-6.5 30.5 t6.5 31t17.5 26.5t25.5 18t30.5 6.5t31 -6.5t26 -18t18 -26.5t7 -31zM733 73q102 0 182.5 35.5t136.5 98.5t85.5 148.5t29.5 184.5v875h102v-875q0 -117 -37 -218.5t-106.5 -177t-169 -118.5t-223.5 -43t-223.5 43t-169 118.5t-106.5 177t-37 218.5v875h103v-874 q0 -99 29.5 -184.5t85 -148.5t136 -99t182.5 -36z"/>
<glyph glyph-name="Yacute" horiz-adv-x="1199" unicode="Ý" d="M889 1770l-292 -216q-10 -7 -18.5 -9.5t-20.5 -2.5h-70l227 206q14 13 26 17.5t36 4.5h112zM651 584v-584h-103v584l-523 831h89q14 0 22.5 -6.5t16.5 -18.5l405 -650q14 -23 24 -44.5t18 -43.5q8 22 18 43.5t24 44.5l404 650q6 11 15 18t23 7h90z"/>
<glyph glyph-name="Thorn" horiz-adv-x="1187" unicode="Þ" d="M342 368h263q94 0 168 26t125.5 72t79 108.5t27.5 136.5q0 163 -100.5 250.5t-299.5 87.5h-263v-681zM342 286v-286h-102v1415h102v-284h263q249 0 375.5 -109t126.5 -311q0 -93 -34.5 -171t-99.5 -134.5t-158 -88t-210 -31.5h-263z"/>
<glyph glyph-name="germandbls" horiz-adv-x="1158" unicode="ß" d="M641 1433q85 0 151 -25.5t111 -66t68 -90.5t23 -100q0 -62 -23.5 -108t-59 -81.5t-76.5 -63.5t-76.5 -55.5t-59 -56.5t-23.5 -66q0 -36 16.5 -60.5t44 -42.5t62 -33t71 -31.5t71 -37t62 -50.5t44 -71.5t16.5 -100.5q0 -68 -25 -125t-70 -98t-108 -63.5t-140 -22.5 q-101 0 -173.5 33.5t-132.5 87.5l22 34q5 8 11.5 12t17.5 4q13 0 31.5 -16t48.5 -34.5t74.5 -34.5t107.5 -16q59 0 105 17.5t77.5 48t48 71.5t16.5 88q0 67 -29.5 107.5t-73.5 66.5t-95 45t-95 43.5t-73.5 62t-29.5 100.5q0 49 24 85t60.5 67t78.5 60t78.5 63t60.5 75.5 t24 97.5q0 31 -14 67.5t-45.5 68t-82.5 52.5t-124 21q-71 0 -133.5 -21.5t-109.5 -65.5t-74 -112.5t-27 -162.5v-999h-95v1001q0 101 33 181.5t91.5 136t140 85t177.5 29.5z"/>
<glyph glyph-name="agrave" horiz-adv-x="973" unicode="à" d="M392 1431q24 0 36 -7t23 -25l157 -238h-54q-12 0 -20.5 3.5t-16.5 13.5l-217 253h92zM397 53q58 0 106.5 12.5t90 35t77.5 53.5t71 67v259q-142 -4 -244.5 -21.5t-169 -47.5t-98 -71.5t-31.5 -94.5q0 -50 16.5 -86.5t43.5 -60t63 -34.5t75 -11zM797 0q-30 0 -37 28 l-14 127q-41 -40 -81.5 -72t-84.5 -54t-95 -33.5t-112 -11.5q-51 0 -99 15t-85 46t-59.5 79.5t-22.5 116.5q0 63 36 117t112.5 94t197 64t289.5 28v104q0 138 -59.5 212.5t-176.5 74.5q-72 0 -122.5 -20t-85.5 -44t-57 -44t-37 -20q-20 0 -30 18l-17 29q78 78 164 118 t195 40q80 0 140 -25.5t99.5 -73t59.5 -115t20 -150.5v-648h-38z"/>
<glyph glyph-name="aacute" horiz-adv-x="973" unicode="á" d="M731 1431l-216 -253q-8 -10 -16.5 -13.5t-20.5 -3.5h-57l157 238q11 18 23 25t36 7h94zM397 53q58 0 106.5 12.5t90 35t77.5 53.5t71 67v259q-142 -4 -244.5 -21.5t-169 -47.5t-98 -71.5t-31.5 -94.5q0 -50 16.5 -86.5t43.5 -60t63 -34.5t75 -11zM797 0q-30 0 -37 28 l-14 127q-41 -40 -81.5 -72t-84.5 -54t-95 -33.5t-112 -11.5q-51 0 -99 15t-85 46t-59.5 79.5t-22.5 116.5q0 63 36 117t112.5 94t197 64t289.5 28v104q0 138 -59.5 212.5t-176.5 74.5q-72 0 -122.5 -20t-85.5 -44t-57 -44t-37 -20q-20 0 -30 18l-17 29q78 78 164 118 t195 40q80 0 140 -25.5t99.5 -73t59.5 -115t20 -150.5v-648h-38z"/>
<glyph glyph-name="acircumflex" horiz-adv-x="973" unicode="â" d="M766 1169h-65q-16 0 -27 12l-156 163q-6 4 -11 11q-2 -4 -5 -6.5t-5 -4.5l-157 -163q-5 -5 -12 -8.5t-15 -3.5h-67l218 246h85zM397 53q58 0 106.5 12.5t90 35t77.5 53.5t71 67v259q-142 -4 -244.5 -21.5t-169 -47.5t-98 -71.5t-31.5 -94.5q0 -50 16.5 -86.5t43.5 -60 t63 -34.5t75 -11zM797 0q-30 0 -37 28l-14 127q-41 -40 -81.5 -72t-84.5 -54t-95 -33.5t-112 -11.5q-51 0 -99 15t-85 46t-59.5 79.5t-22.5 116.5q0 63 36 117t112.5 94t197 64t289.5 28v104q0 138 -59.5 212.5t-176.5 74.5q-72 0 -122.5 -20t-85.5 -44t-57 -44t-37 -20 q-20 0 -30 18l-17 29q78 78 164 118t195 40q80 0 140 -25.5t99.5 -73t59.5 -115t20 -150.5v-648h-38z"/>
<glyph glyph-name="atilde" horiz-adv-x="973" unicode="ã" d="M621 1280q43 0 65 27.5t23 74.5h59q0 -36 -9.5 -67.5t-28 -54.5t-45.5 -36t-61 -13q-33 0 -62.5 16.5t-56.5 36t-52.5 36t-51.5 16.5q-42 0 -64 -28.5t-24 -73.5h-61q0 36 10 67.5t29 54.5t46 36t61 13t63.5 -16.5t56 -36t52 -36t51.5 -16.5zM397 53q58 0 106.5 12.5 t90 35t77.5 53.5t71 67v259q-142 -4 -244.5 -21.5t-169 -47.5t-98 -71.5t-31.5 -94.5q0 -50 16.5 -86.5t43.5 -60t63 -34.5t75 -11zM797 0q-30 0 -37 28l-14 127q-41 -40 -81.5 -72t-84.5 -54t-95 -33.5t-112 -11.5q-51 0 -99 15t-85 46t-59.5 79.5t-22.5 116.5q0 63 36 117 t112.5 94t197 64t289.5 28v104q0 138 -59.5 212.5t-176.5 74.5q-72 0 -122.5 -20t-85.5 -44t-57 -44t-37 -20q-20 0 -30 18l-17 29q78 78 164 118t195 40q80 0 140 -25.5t99.5 -73t59.5 -115t20 -150.5v-648h-38z"/>
<glyph glyph-name="adieresis" horiz-adv-x="973" unicode="ä" d="M760 1284q0 -16 -7 -30.5t-18 -25.5t-26.5 -17.5t-31.5 -6.5q-17 0 -31.5 6.5t-26 17.5t-18 25.5t-6.5 30.5q0 17 6.5 32t18 26.5t26 18t31.5 6.5q16 0 31.5 -6.5t26.5 -18t18 -26.5t7 -32zM417 1284q0 -16 -7 -30.5t-18 -25.5t-26.5 -17.5t-31.5 -6.5t-30.5 6.5 t-26 17.5t-18 25.5t-6.5 30.5q0 17 6.5 32t18 26.5t26 18t30.5 6.5t31.5 -6.5t26.5 -18t18 -26.5t7 -32zM397 53q58 0 106.5 12.5t90 35t77.5 53.5t71 67v259q-142 -4 -244.5 -21.5t-169 -47.5t-98 -71.5t-31.5 -94.5q0 -50 16.5 -86.5t43.5 -60t63 -34.5t75 -11zM797 0 q-30 0 -37 28l-14 127q-41 -40 -81.5 -72t-84.5 -54t-95 -33.5t-112 -11.5q-51 0 -99 15t-85 46t-59.5 79.5t-22.5 116.5q0 63 36 117t112.5 94t197 64t289.5 28v104q0 138 -59.5 212.5t-176.5 74.5q-72 0 -122.5 -20t-85.5 -44t-57 -44t-37 -20q-20 0 -30 18l-17 29 q78 78 164 118t195 40q80 0 140 -25.5t99.5 -73t59.5 -115t20 -150.5v-648h-38z"/>
<glyph glyph-name="aring" horiz-adv-x="973" unicode="å" d="M392 1302q0 -50 32 -82t83 -32q50 0 82 32t32 82t-32 82t-82 32q-51 0 -83 -32t-32 -82zM334 1302q0 36 13.5 66t37 51.5t55 34t66.5 12.5t66.5 -12.5t55 -34t37.5 -51.5t14 -66t-14 -65.5t-37.5 -51.5t-55 -34t-66.5 -12t-66.5 12t-55 34t-37 51.5t-13.5 65.5zM397 53 q58 0 106.5 12.5t90 35t77.5 53.5t71 67v259q-142 -4 -244.5 -21.5t-169 -47.5t-98 -71.5t-31.5 -94.5q0 -50 16.5 -86.5t43.5 -60t63 -34.5t75 -11zM797 0q-30 0 -37 28l-14 127q-41 -40 -81.5 -72t-84.5 -54t-95 -33.5t-112 -11.5q-51 0 -99 15t-85 46t-59.5 79.5 t-22.5 116.5q0 63 36 117t112.5 94t197 64t289.5 28v104q0 138 -59.5 212.5t-176.5 74.5q-72 0 -122.5 -20t-85.5 -44t-57 -44t-37 -20q-20 0 -30 18l-17 29q78 78 164 118t195 40q80 0 140 -25.5t99.5 -73t59.5 -115t20 -150.5v-648h-38z"/>
<glyph glyph-name="ae" horiz-adv-x="1609" unicode="æ" d="M1157 940q-72 0 -129.5 -26t-98.5 -73t-65.5 -114t-30.5 -149h598q0 85 -20 152.5t-56 114t-86.5 71t-111.5 24.5zM742 515q-142 -5 -244.5 -25t-169 -53t-98 -77.5t-31.5 -97.5q0 -56 16.5 -95.5t46.5 -64.5t71 -37t90 -12q66 0 124 22t101.5 64.5t68.5 104.5t25 141 v130zM1159 1011q75 0 140 -30t113 -87.5t75.5 -142.5t27.5 -196q0 -22 -5 -30t-19 -8h-660q0 -112 24 -197t68 -142t106 -86t138 -29q71 0 121 16.5t84 36t53 36t29 16.5q14 0 22 -10l24 -30q-23 -30 -60 -56t-82 -44.5t-95.5 -29.5t-102.5 -11q-131 0 -225.5 69t-141.5 206 q-20 -77 -62.5 -130t-96.5 -86t-114.5 -47.5t-115.5 -14.5q-63 0 -117 15.5t-94 48.5t-63 85t-23 125q0 64 36 120.5t112.5 99.5t197 70t289.5 31v69q0 138 -59.5 213.5t-176.5 75.5q-72 0 -122.5 -20.5t-85.5 -44.5t-57 -44.5t-37 -20.5q-11 0 -18 5t-12 13l-17 29 q77 78 160.5 118t190.5 40q126 0 198 -64.5t95 -176.5q47 111 137 175.5t221 64.5z"/>
<glyph glyph-name="ccedilla" horiz-adv-x="910" unicode="ç" d="M393 -273q5 0 13.5 -5.5t22 -12t33.5 -12t49 -5.5q51 0 79.5 22t28.5 60q0 25 -13 41.5t-37 27.5t-56.5 17t-71.5 11l37 118q-87 6 -159 43.5t-123.5 102.5t-79.5 156.5t-28 206.5q0 114 30 208t87.5 162t141 105.5t191.5 37.5q97 0 172.5 -31t131.5 -84l-25 -34 q-5 -5 -9.5 -8.5t-12.5 -3.5q-10 0 -27.5 13.5t-46.5 29.5t-72.5 29.5t-105.5 13.5q-86 0 -152.5 -30.5t-112 -87.5t-69.5 -138t-24 -182q0 -105 24.5 -186t69.5 -136.5t109 -84.5t142 -29q72 0 120.5 17t80 37t50 37t29.5 17q13 0 20 -10l26 -32q-45 -58 -128.5 -97 t-189.5 -43l-24 -79q89 -16 135.5 -46t46.5 -89q0 -30 -13.5 -54t-38 -40.5t-58.5 -25.5t-74 -9q-41 0 -80 11.5t-65 30.5l10 28q6 12 16 12z"/>
<glyph glyph-name="egrave" horiz-adv-x="1022" unicode="è" d="M423 1431q24 0 36 -7t23 -25l157 -238h-54q-12 0 -20.5 3.5t-16.5 13.5l-217 253h92zM538 940q-77 0 -138 -24t-105.5 -69t-72 -108t-36.5 -141h656q0 80 -22 143.5t-62 107.5t-96 67.5t-124 23.5zM537 1011q84 0 155.5 -29t124 -84.5t82 -136.5t29.5 -186 q0 -22 -6.5 -30t-20.5 -8h-719v-19q0 -112 26 -197t74 -142.5t116 -86.5t152 -29q75 0 130 16.5t92.5 37t59.5 37t32 16.5q13 0 20 -10l26 -32q-24 -30 -63.5 -56t-88 -44.5t-104 -29.5t-111.5 -11q-102 0 -186 35.5t-144 103.5t-92.5 166.5t-32.5 225.5q0 107 30.5 197.5 t88 156t141 102.5t189.5 37z"/>
<glyph glyph-name="eacute" horiz-adv-x="1022" unicode="é" d="M762 1431l-216 -253q-8 -10 -16.5 -13.5t-20.5 -3.5h-57l157 238q11 18 23 25t36 7h94zM538 940q-77 0 -138 -24t-105.5 -69t-72 -108t-36.5 -141h656q0 80 -22 143.5t-62 107.5t-96 67.5t-124 23.5zM537 1011q84 0 155.5 -29t124 -84.5t82 -136.5t29.5 -186 q0 -22 -6.5 -30t-20.5 -8h-719v-19q0 -112 26 -197t74 -142.5t116 -86.5t152 -29q75 0 130 16.5t92.5 37t59.5 37t32 16.5q13 0 20 -10l26 -32q-24 -30 -63.5 -56t-88 -44.5t-104 -29.5t-111.5 -11q-102 0 -186 35.5t-144 103.5t-92.5 166.5t-32.5 225.5q0 107 30.5 197.5 t88 156t141 102.5t189.5 37z"/>
<glyph glyph-name="ecircumflex" horiz-adv-x="1022" unicode="ê" d="M797 1169h-65q-16 0 -27 12l-156 163q-6 4 -11 11q-2 -4 -5 -6.5t-5 -4.5l-157 -163q-5 -5 -12 -8.5t-15 -3.5h-67l218 246h85zM538 940q-77 0 -138 -24t-105.5 -69t-72 -108t-36.5 -141h656q0 80 -22 143.5t-62 107.5t-96 67.5t-124 23.5zM537 1011q84 0 155.5 -29 t124 -84.5t82 -136.5t29.5 -186q0 -22 -6.5 -30t-20.5 -8h-719v-19q0 -112 26 -197t74 -142.5t116 -86.5t152 -29q75 0 130 16.5t92.5 37t59.5 37t32 16.5q13 0 20 -10l26 -32q-24 -30 -63.5 -56t-88 -44.5t-104 -29.5t-111.5 -11q-102 0 -186 35.5t-144 103.5t-92.5 166.5 t-32.5 225.5q0 107 30.5 197.5t88 156t141 102.5t189.5 37z"/>
<glyph glyph-name="edieresis" horiz-adv-x="1022" unicode="ë" d="M791 1284q0 -16 -7 -30.5t-18 -25.5t-26.5 -17.5t-31.5 -6.5q-17 0 -31.5 6.5t-26 17.5t-18 25.5t-6.5 30.5q0 17 6.5 32t18 26.5t26 18t31.5 6.5q16 0 31.5 -6.5t26.5 -18t18 -26.5t7 -32zM448 1284q0 -16 -7 -30.5t-18 -25.5t-26.5 -17.5t-31.5 -6.5t-30.5 6.5 t-26 17.5t-18 25.5t-6.5 30.5q0 17 6.5 32t18 26.5t26 18t30.5 6.5t31.5 -6.5t26.5 -18t18 -26.5t7 -32zM538 940q-77 0 -138 -24t-105.5 -69t-72 -108t-36.5 -141h656q0 80 -22 143.5t-62 107.5t-96 67.5t-124 23.5zM537 1011q84 0 155.5 -29t124 -84.5t82 -136.5 t29.5 -186q0 -22 -6.5 -30t-20.5 -8h-719v-19q0 -112 26 -197t74 -142.5t116 -86.5t152 -29q75 0 130 16.5t92.5 37t59.5 37t32 16.5q13 0 20 -10l26 -32q-24 -30 -63.5 -56t-88 -44.5t-104 -29.5t-111.5 -11q-102 0 -186 35.5t-144 103.5t-92.5 166.5t-32.5 225.5 q0 107 30.5 197.5t88 156t141 102.5t189.5 37z"/>
<glyph glyph-name="igrave" horiz-adv-x="475" unicode="ì" d="M126 1431q24 0 36 -7t23 -25l157 -238h-54q-12 0 -20.5 3.5t-16.5 13.5l-217 253h92zM285 995v-995h-95v995h95z"/>
<glyph glyph-name="iacute" horiz-adv-x="475" unicode="í" d="M465 1431l-216 -253q-8 -10 -16.5 -13.5t-20.5 -3.5h-57l157 238q11 18 23 25t36 7h94zM285 995v-995h-95v995h95z"/>
<glyph glyph-name="icircumflex" horiz-adv-x="475" unicode="î" d="M500 1169h-65q-16 0 -27 12l-156 163q-6 4 -11 11q-2 -4 -5 -6.5t-5 -4.5l-157 -163q-5 -5 -12 -8.5t-15 -3.5h-67l218 246h85zM285 995v-995h-95v995h95z"/>
<glyph glyph-name="idieresis" horiz-adv-x="475" unicode="ï" d="M494 1284q0 -16 -7 -30.5t-18 -25.5t-26.5 -17.5t-31.5 -6.5q-17 0 -31.5 6.5t-26 17.5t-18 25.5t-6.5 30.5q0 17 6.5 32t18 26.5t26 18t31.5 6.5q16 0 31.5 -6.5t26.5 -18t18 -26.5t7 -32zM151 1284q0 -16 -7 -30.5t-18 -25.5t-26.5 -17.5t-31.5 -6.5t-30.5 6.5 t-26 17.5t-18 25.5t-6.5 30.5q0 17 6.5 32t18 26.5t26 18t30.5 6.5t31.5 -6.5t26.5 -18t18 -26.5t7 -32zM285 995v-995h-95v995h95z"/>
<glyph glyph-name="eth" horiz-adv-x="1072" unicode="ð" d="M528 63q88 0 155 34.5t113 99t71 157.5t28 209q-15 51 -44.5 102t-73.5 91t-103 65t-135 25q-88 0 -154.5 -30t-111 -83t-67 -124.5t-22.5 -153.5q0 -93 27.5 -166t75 -123t110 -76.5t131.5 -26.5zM454 1070q-7 8 -7 18t12 21l126 109q-60 33 -126.5 56.5t-140.5 38.5 q-10 2 -18 9.5t-8 21.5q0 3 2.5 13.5t4.5 14.5l6 20q90 -14 177.5 -44t165.5 -78l153 135l18 -29q5 -8 5 -16q0 -11 -13 -23l-114 -100q63 -47 115.5 -108t91 -140t59.5 -176t21 -214q0 -138 -28.5 -250.5t-85.5 -193t-143 -124t-201 -43.5q-91 0 -170.5 32.5t-139 93 t-93.5 147t-34 194.5q0 96 29 181t84.5 148.5t136.5 100t184 36.5q53 0 106.5 -13.5t103 -42t92.5 -72.5t75 -104q-15 181 -85 302t-180 196l-164 -145z"/>
<glyph glyph-name="ntilde" horiz-adv-x="1082" unicode="ñ" d="M664 1280q43 0 65 27.5t23 74.5h59q0 -36 -9.5 -67.5t-28 -54.5t-45.5 -36t-61 -13q-33 0 -62.5 16.5t-56.5 36t-52.5 36t-51.5 16.5q-42 0 -64 -28.5t-24 -73.5h-61q0 36 10 67.5t29 54.5t46 36t61 13t63.5 -16.5t56 -36t52 -36t51.5 -16.5zM162 0v995h52q26 0 30 -25 l9 -150q68 86 158.5 138.5t201.5 52.5q82 0 144.5 -26t103.5 -75t62 -118t21 -156v-636h-95v636q0 140 -64 219.5t-196 79.5q-98 0 -182 -50.5t-150 -138.5v-746h-95z"/>
<glyph glyph-name="ograve" horiz-adv-x="1082" unicode="ò" d="M428 1431q24 0 36 -7t23 -25l157 -238h-54q-12 0 -20.5 3.5t-16.5 13.5l-217 253h92zM541 62q89 0 155.5 30.5t111 87.5t66.5 137.5t22 180.5q0 99 -22 180t-66.5 138.5t-111 88.5t-155.5 31t-155.5 -31t-111 -88.5t-67 -138.5t-22.5 -180q0 -100 22.5 -180.5t67 -137.5 t111 -87.5t155.5 -30.5zM541 1011q107 0 191.5 -36.5t142.5 -103.5t88.5 -161.5t30.5 -211.5t-30.5 -211t-88.5 -161t-142.5 -103t-191.5 -36t-191.5 36t-143 103t-89 161t-30.5 211t30.5 211.5t89 161.5t143 103.5t191.5 36.5z"/>
<glyph glyph-name="oacute" horiz-adv-x="1082" unicode="ó" d="M767 1431l-216 -253q-8 -10 -16.5 -13.5t-20.5 -3.5h-57l157 238q11 18 23 25t36 7h94zM541 62q89 0 155.5 30.5t111 87.5t66.5 137.5t22 180.5q0 99 -22 180t-66.5 138.5t-111 88.5t-155.5 31t-155.5 -31t-111 -88.5t-67 -138.5t-22.5 -180q0 -100 22.5 -180.5 t67 -137.5t111 -87.5t155.5 -30.5zM541 1011q107 0 191.5 -36.5t142.5 -103.5t88.5 -161.5t30.5 -211.5t-30.5 -211t-88.5 -161t-142.5 -103t-191.5 -36t-191.5 36t-143 103t-89 161t-30.5 211t30.5 211.5t89 161.5t143 103.5t191.5 36.5z"/>
<glyph glyph-name="ocircumflex" horiz-adv-x="1082" unicode="ô" d="M802 1169h-65q-16 0 -27 12l-156 163q-6 4 -11 11q-2 -4 -5 -6.5t-5 -4.5l-157 -163q-5 -5 -12 -8.5t-15 -3.5h-67l218 246h85zM541 62q89 0 155.5 30.5t111 87.5t66.5 137.5t22 180.5q0 99 -22 180t-66.5 138.5t-111 88.5t-155.5 31t-155.5 -31t-111 -88.5t-67 -138.5 t-22.5 -180q0 -100 22.5 -180.5t67 -137.5t111 -87.5t155.5 -30.5zM541 1011q107 0 191.5 -36.5t142.5 -103.5t88.5 -161.5t30.5 -211.5t-30.5 -211t-88.5 -161t-142.5 -103t-191.5 -36t-191.5 36t-143 103t-89 161t-30.5 211t30.5 211.5t89 161.5t143 103.5t191.5 36.5z "/>
<glyph glyph-name="otilde" horiz-adv-x="1082" unicode="õ" d="M657 1280q43 0 65 27.5t23 74.5h59q0 -36 -9.5 -67.5t-28 -54.5t-45.5 -36t-61 -13q-33 0 -62.5 16.5t-56.5 36t-52.5 36t-51.5 16.5q-42 0 -64 -28.5t-24 -73.5h-61q0 36 10 67.5t29 54.5t46 36t61 13t63.5 -16.5t56 -36t52 -36t51.5 -16.5zM541 62q89 0 155.5 30.5 t111 87.5t66.5 137.5t22 180.5q0 99 -22 180t-66.5 138.5t-111 88.5t-155.5 31t-155.5 -31t-111 -88.5t-67 -138.5t-22.5 -180q0 -100 22.5 -180.5t67 -137.5t111 -87.5t155.5 -30.5zM541 1011q107 0 191.5 -36.5t142.5 -103.5t88.5 -161.5t30.5 -211.5t-30.5 -211 t-88.5 -161t-142.5 -103t-191.5 -36t-191.5 36t-143 103t-89 161t-30.5 211t30.5 211.5t89 161.5t143 103.5t191.5 36.5z"/>
<glyph glyph-name="odieresis" horiz-adv-x="1082" unicode="ö" d="M796 1284q0 -16 -7 -30.5t-18 -25.5t-26.5 -17.5t-31.5 -6.5q-17 0 -31.5 6.5t-26 17.5t-18 25.5t-6.5 30.5q0 17 6.5 32t18 26.5t26 18t31.5 6.5q16 0 31.5 -6.5t26.5 -18t18 -26.5t7 -32zM453 1284q0 -16 -7 -30.5t-18 -25.5t-26.5 -17.5t-31.5 -6.5t-30.5 6.5 t-26 17.5t-18 25.5t-6.5 30.5q0 17 6.5 32t18 26.5t26 18t30.5 6.5t31.5 -6.5t26.5 -18t18 -26.5t7 -32zM541 62q89 0 155.5 30.5t111 87.5t66.5 137.5t22 180.5q0 99 -22 180t-66.5 138.5t-111 88.5t-155.5 31t-155.5 -31t-111 -88.5t-67 -138.5t-22.5 -180 q0 -100 22.5 -180.5t67 -137.5t111 -87.5t155.5 -30.5zM541 1011q107 0 191.5 -36.5t142.5 -103.5t88.5 -161.5t30.5 -211.5t-30.5 -211t-88.5 -161t-142.5 -103t-191.5 -36t-191.5 36t-143 103t-89 161t-30.5 211t30.5 211.5t89 161.5t143 103.5t191.5 36.5z"/>
<glyph glyph-name="divide" d="M486 313q0 39 26.5 66.5t65.5 27.5q19 0 36 -7.5t29.5 -20t20 -30t7.5 -36.5q0 -20 -7.5 -36.5t-20 -29t-29.5 -19.5t-36 -7q-39 0 -65.5 26.5t-26.5 65.5zM486 1025q0 39 26.5 66.5t65.5 27.5q19 0 36 -7.5t29.5 -20t20 -30t7.5 -36.5q0 -20 -7.5 -36.5t-20 -29 t-29.5 -19.5t-36 -7q-39 0 -65.5 26.5t-26.5 65.5zM109 707h939v-73h-939v73z" unicode="÷"/>
<glyph glyph-name="oslash" horiz-adv-x="1082" unicode="ø" d="M541 60q89 0 156.5 31t112.5 88t68 138t23 181q0 191 -80 306l-502 -675q87 -69 222 -69zM180 498q0 -104 23.5 -186t71.5 -139l504 679q-45 42 -104 64t-134 22q-89 0 -156.5 -31.5t-113 -89t-68.5 -139t-23 -180.5zM872 873q60 -67 91 -162t31 -213q0 -117 -30.5 -211 t-88.5 -161t-142.5 -103t-191.5 -36q-161 0 -269 79l-81 -109q-13 -17 -29.5 -24.5t-33.5 -7.5h-38l135 181q-68 67 -103 166t-35 226q0 117 30.5 211.5t89 161.5t143 103.5t191.5 36.5q88 0 159.5 -24.5t126.5 -69.5l87 116q11 15 20.5 22t28.5 7h50z"/>
<glyph glyph-name="ugrave" horiz-adv-x="1082" unicode="ù" d="M421 1431q24 0 36 -7t23 -25l157 -238h-54q-12 0 -20.5 3.5t-16.5 13.5l-217 253h92zM233 995v-636q0 -140 64 -219.5t195 -79.5q97 0 181 49.5t151 137.5v748h96v-995h-53q-28 0 -29 26l-9 148q-69 -86 -159.5 -138t-201.5 -52q-83 0 -145 26t-103 75t-62 118t-21 156 v636h96z"/>
<glyph glyph-name="uacute" horiz-adv-x="1082" unicode="ú" d="M760 1431l-216 -253q-8 -10 -16.5 -13.5t-20.5 -3.5h-57l157 238q11 18 23 25t36 7h94zM233 995v-636q0 -140 64 -219.5t195 -79.5q97 0 181 49.5t151 137.5v748h96v-995h-53q-28 0 -29 26l-9 148q-69 -86 -159.5 -138t-201.5 -52q-83 0 -145 26t-103 75t-62 118t-21 156 v636h96z"/>
<glyph glyph-name="ucircumflex" horiz-adv-x="1082" unicode="û" d="M795 1169h-65q-16 0 -27 12l-156 163q-6 4 -11 11q-2 -4 -5 -6.5t-5 -4.5l-157 -163q-5 -5 -12 -8.5t-15 -3.5h-67l218 246h85zM233 995v-636q0 -140 64 -219.5t195 -79.5q97 0 181 49.5t151 137.5v748h96v-995h-53q-28 0 -29 26l-9 148q-69 -86 -159.5 -138t-201.5 -52 q-83 0 -145 26t-103 75t-62 118t-21 156v636h96z"/>
<glyph glyph-name="udieresis" horiz-adv-x="1082" unicode="ü" d="M789 1284q0 -16 -7 -30.5t-18 -25.5t-26.5 -17.5t-31.5 -6.5q-17 0 -31.5 6.5t-26 17.5t-18 25.5t-6.5 30.5q0 17 6.5 32t18 26.5t26 18t31.5 6.5q16 0 31.5 -6.5t26.5 -18t18 -26.5t7 -32zM446 1284q0 -16 -7 -30.5t-18 -25.5t-26.5 -17.5t-31.5 -6.5t-30.5 6.5 t-26 17.5t-18 25.5t-6.5 30.5q0 17 6.5 32t18 26.5t26 18t30.5 6.5t31.5 -6.5t26.5 -18t18 -26.5t7 -32zM233 995v-636q0 -140 64 -219.5t195 -79.5q97 0 181 49.5t151 137.5v748h96v-995h-53q-28 0 -29 26l-9 148q-69 -86 -159.5 -138t-201.5 -52q-83 0 -145 26t-103 75 t-62 118t-21 156v636h96z"/>
<glyph glyph-name="yacute" horiz-adv-x="974" unicode="ý" d="M737 1431l-216 -253q-8 -10 -16.5 -13.5t-20.5 -3.5h-57l157 238q11 18 23 25t36 7h94zM379 -320q-6 -14 -15.5 -23t-27.5 -9h-68l175 389l-421 958h79q15 0 23.5 -7.5t12.5 -16.5l335 -774q6 -15 10.5 -30.5t8.5 -31.5q5 16 10.5 31.5t11.5 30.5l331 774q5 11 14 17.5 t20 6.5h73z"/>
<glyph glyph-name="thorn" horiz-adv-x="1070" unicode="þ" d="M579 935q-99 0 -179.5 -51.5t-142.5 -143.5v-522q57 -86 126.5 -121t158.5 -35q88 0 154 32t110.5 90.5t67 140t22.5 179.5q0 222 -81.5 326.5t-235.5 104.5zM162 -352v1807h95v-635q66 88 153 139.5t196 51.5q184 0 286 -126.5t102 -380.5q0 -109 -28.5 -203.5 t-83.5 -164t-135.5 -109.5t-185.5 -40q-102 0 -176 39t-128 115v-493h-95z"/>
<glyph glyph-name="ydieresis" horiz-adv-x="974" unicode="ÿ" d="M766 1284q0 -16 -7 -30.5t-18 -25.5t-26.5 -17.5t-31.5 -6.5q-17 0 -31.5 6.5t-26 17.5t-18 25.5t-6.5 30.5q0 17 6.5 32t18 26.5t26 18t31.5 6.5q16 0 31.5 -6.5t26.5 -18t18 -26.5t7 -32zM423 1284q0 -16 -7 -30.5t-18 -25.5t-26.5 -17.5t-31.5 -6.5t-30.5 6.5 t-26 17.5t-18 25.5t-6.5 30.5q0 17 6.5 32t18 26.5t26 18t30.5 6.5t31.5 -6.5t26.5 -18t18 -26.5t7 -32zM379 -320q-6 -14 -15.5 -23t-27.5 -9h-68l175 389l-421 958h79q15 0 23.5 -7.5t12.5 -16.5l335 -774q6 -15 10.5 -30.5t8.5 -31.5q5 16 10.5 31.5t11.5 30.5l331 774 q5 11 14 17.5t20 6.5h73z"/>
<glyph glyph-name="Aogonek" horiz-adv-x="1289" unicode="Ą" d="M328 514h634l-289 715q-7 17 -14 38.5t-14 45.5q-7 -24 -14 -45.5t-14 -39.5zM1350 -243q10 0 13 -8l16 -34q-28 -24 -70 -38.5t-89 -14.5q-76 0 -123 37.5t-47 103.5q0 31 11.5 59.5t31 53.5t44 46t50.5 38q-20 4 -28 27l-167 411h-695l-166 -411q-4 -11 -14 -19t-24 -8 h-78l579 1415h102l579 -1415q-12 0 -37 -12.5t-50.5 -36t-44.5 -56t-19 -71.5q0 -48 32 -74.5t82 -26.5q28 0 47 5.5t32 11.5t20.5 11.5t12.5 5.5z"/>
<glyph glyph-name="aogonek" horiz-adv-x="973" unicode="ą" d="M397 53q58 0 106.5 12.5t90 35t77.5 53.5t71 67v259q-142 -4 -244.5 -21.5t-169 -47.5t-98 -71.5t-31.5 -94.5q0 -50 16.5 -86.5t43.5 -60t63 -34.5t75 -11zM928 -243q10 0 13 -8l16 -34q-28 -24 -70 -38.5t-89 -14.5q-76 0 -123 37.5t-47 103.5q0 32 12.5 61.5t33 55 t46.5 47t53 38.5q-10 9 -13 23l-14 127q-41 -40 -81.5 -72t-84.5 -54t-95 -33.5t-112 -11.5q-51 0 -99 15t-85 46t-59.5 79.5t-22.5 116.5q0 63 36 117t112.5 94t197 64t289.5 28v104q0 138 -59.5 212.5t-176.5 74.5q-72 0 -122.5 -20t-85.5 -44t-57 -44t-37 -20 q-11 0 -18 5t-12 13l-17 29q78 78 164 118t195 40q80 0 140 -25.5t99.5 -73t59.5 -115t20 -150.5v-648q-20 -11 -43 -28t-43 -39.5t-33.5 -50t-13.5 -58.5q0 -48 32 -74.5t82 -26.5q28 0 47 5.5t32 11.5t20.5 11.5t12.5 5.5z"/>
<glyph glyph-name="Cacute" horiz-adv-x="1407" unicode="Ć" d="M1109 1770l-292 -216q-10 -7 -18.5 -9.5t-20.5 -2.5h-70l227 206q14 13 26 17.5t36 4.5h112zM1238 238q10 0 17 -7l40 -43q-44 -47 -96 -84.5t-113.5 -64t-135 -41t-161.5 -14.5q-147 0 -269.5 51.5t-210 146t-136.5 228.5t-49 298q0 161 50.5 294t142 228.5t219 148 t281.5 52.5q77 0 141 -11.5t119.5 -33t104.5 -53.5t96 -74l-31 -45q-8 -12 -25 -12q-9 0 -23 10.5t-35.5 26t-52 34t-72.5 34t-97 26t-125 10.5q-129 0 -237 -44.5t-186 -127t-121.5 -200t-43.5 -263.5q0 -150 43 -268t119 -199.5t179.5 -125t224.5 -43.5q76 0 135.5 10 t109.5 30t93 49t85 68q5 4 9.5 6.5t10.5 2.5z"/>
<glyph glyph-name="cacute" horiz-adv-x="910" unicode="ć" d="M765 1431l-216 -253q-8 -10 -16.5 -13.5t-20.5 -3.5h-57l157 238q11 18 23 25t36 7h94zM817 862q-5 -5 -9.5 -8.5t-12.5 -3.5q-10 0 -27.5 13.5t-46.5 29.5t-72.5 29.5t-105.5 13.5q-86 0 -152.5 -30.5t-112 -87.5t-69.5 -138t-24 -182q0 -105 24.5 -186t69.5 -136.5 t109 -84.5t142 -29q72 0 120.5 17t80 37t50 37t29.5 17q13 0 20 -10l26 -32q-23 -30 -58 -56t-79 -45t-95.5 -29.5t-107.5 -10.5q-95 0 -173.5 34.5t-135 100t-88 160.5t-31.5 216q0 114 30 208t87.5 162t141 105.5t191.5 37.5q97 0 172.5 -31t131.5 -84z"/>
<glyph glyph-name="Eogonek" horiz-adv-x="1224" unicode="Ę" d="M1060 -243q10 0 13 -8l16 -34q-28 -24 -70 -38.5t-89 -14.5q-76 0 -123 37.5t-47 103.5q0 31 11.5 59t30.5 53t43.5 46.5t50.5 38.5h-686v1415h848v-85h-745v-572h620v-83h-620v-590h745v-85h-91q-20 -11 -43 -28t-43 -39.5t-33.5 -50t-13.5 -58.5q0 -48 32 -74.5 t82 -26.5q28 0 47 5.5t32 11.5t20.5 11.5t12.5 5.5z"/>
<glyph glyph-name="eogonek" horiz-adv-x="1022" unicode="ę" d="M538 940q-77 0 -138 -24t-105.5 -69t-72 -108t-36.5 -141h656q0 80 -22 143.5t-62 107.5t-96 67.5t-124 23.5zM745 -243q10 0 13 -8l16 -34q-28 -24 -70 -38.5t-89 -14.5q-76 0 -123 37.5t-47 103.5q0 28 9.5 54t26 49.5t38 44t44.5 37.5q-5 0 -10 -0.5t-10 -0.5 q-102 0 -186 35.5t-144 103.5t-92.5 166.5t-32.5 225.5q0 107 30.5 197.5t88 156t141 102.5t189.5 37q84 0 155.5 -29t124 -84.5t82 -136.5t29.5 -186q0 -22 -6.5 -30t-20.5 -8h-719v-19q0 -112 26 -197t74 -142.5t116 -86.5t152 -29q75 0 130 16.5t92.5 37t59.5 37t32 16.5 q13 0 20 -10l26 -32q-19 -23 -46.5 -44t-62 -38t-74.5 -29.5t-82 -19.5q-20 -12 -42 -29t-41 -39t-31 -48.5t-12 -56.5q0 -48 32 -74.5t82 -26.5q28 0 47 5.5t32 11.5t20.5 11.5t12.5 5.5z"/>
<glyph glyph-name="Gbreve" horiz-adv-x="1497" unicode="Ğ" d="M748 1527q-124 0 -183 56t-59 158h64q0 -71 41 -111.5t137 -40.5t137 40.5t41 111.5h64q0 -98 -59 -156t-183 -58zM818 67q73 0 133 7.5t111.5 22.5t98 36.5t93.5 48.5v381h-272q-11 0 -18.5 7t-7.5 16v56h391v-503q-53 -37 -110 -66t-122 -48.5t-140 -30t-164 -10.5 q-153 0 -279.5 51.5t-217 146t-140.5 228.5t-50 298t50 297.5t142 228t223.5 146t294.5 51.5q81 0 149.5 -11t127.5 -32.5t110 -53t98 -72.5l-27 -44q-9 -15 -25 -15q-9 0 -17 4q-15 6 -43.5 28t-77 46t-121.5 43t-177 19q-138 0 -249 -44t-189.5 -126t-121 -200t-42.5 -265 q0 -150 43 -269t120.5 -201.5t186 -126.5t239.5 -44z"/>
<glyph glyph-name="gbreve" horiz-adv-x="1009" unicode="ğ" d="M504 1168q-66 0 -111.5 19.5t-74 53.5t-41 79t-12.5 95h69q0 -37 8.5 -70t28.5 -58t52.5 -39.5t80.5 -14.5t80.5 14.5t53 39.5t29 58t8.5 70h69q0 -50 -13 -95t-41.5 -79t-74 -53.5t-111.5 -19.5zM490 440q64 0 114 18.5t84 51.5t51.5 79t17.5 102t-18 102.5t-52.5 79.5 t-84 51t-112.5 18t-113 -18t-84.5 -51t-52.5 -79.5t-18 -102.5t18 -102t52.5 -79t84.5 -51.5t113 -18.5zM859 -67q0 47 -24.5 75.5t-65.5 44.5t-94.5 22.5t-112 9.5t-117.5 6t-110 12q-38 -15 -70.5 -34.5t-55.5 -44t-36 -54t-13 -64.5q0 -44 22.5 -81.5t66 -65t106.5 -43.5 t145 -16q76 0 141.5 17t114 48t76 74t27.5 94zM490 1012q65 0 120.5 -16t99.5 -45h255v-33q0 -25 -28 -27l-151 -11q28 -38 43 -85.5t15 -101.5q0 -72 -26 -130.5t-72.5 -100t-111.5 -64.5t-144 -23q-86 0 -156 26q-42 -24 -66 -57t-24 -64q0 -43 30 -66t79.5 -33.5 t113 -13.5t129 -6.5t129 -12.5t113 -31.5t79.5 -63t30 -107.5q0 -62 -31 -119t-89.5 -101t-141.5 -70.5t-186 -26.5q-105 0 -184 21.5t-132.5 58t-80.5 84.5t-27 102q0 79 52 136t143 88q-50 17 -79.5 49t-29.5 89q0 21 8 44t24 45.5t38.5 42.5t52.5 36q-71 41 -110.5 109 t-39.5 159q0 72 25.5 130.5t72 100.5t112.5 65t146 23z"/>
<glyph glyph-name="Idotaccent" horiz-adv-x="598" unicode="İ" d="M385 1677q0 -17 -7.5 -32.5t-19.5 -27t-28 -18.5t-33 -7t-32.5 7t-27 18.5t-18.5 27t-7 32.5q0 18 7 33.5t18.5 27.5t27 19t32.5 7t33 -7t28 -19t19.5 -27.5t7.5 -33.5zM350 0h-103v1415h103v-1415z"/>
<glyph glyph-name="dotlessi" horiz-adv-x="475" unicode="ı" d="M285 995v-995h-95v995h95z"/>
<glyph glyph-name="Lslash" horiz-adv-x="1066" unicode="Ł" d="M355 722l417 217v-63q0 -11 -4 -18t-15 -13l-398 -212v-546h671v-87h-773v587l-195 -101v66q0 19 18 29l177 93v741h102v-693z"/>
<glyph glyph-name="lslash" horiz-adv-x="600" unicode="ł" d="M347 1455v-593l196 89v-50q0 -11 -4 -18.5t-15 -12.5l-177 -84v-786h-95v750l-195 -90v52q0 21 18 29l177 84v630h95z"/>
<glyph glyph-name="Nacute" horiz-adv-x="1512" unicode="Ń" d="M1081 1770l-292 -216q-10 -7 -18.5 -9.5t-20.5 -2.5h-70l227 206q14 13 26 17.5t36 4.5h112zM260 1415q14 0 22 -3.5t17 -15.5l916 -1226q-3 30 -3 58v1187h90v-1415h-49q-23 0 -37 20l-920 1228q3 -30 3 -57v-1191h-89v1415h50z"/>
<glyph glyph-name="nacute" horiz-adv-x="1082" unicode="ń" d="M776 1431l-216 -253q-8 -10 -16.5 -13.5t-20.5 -3.5h-57l157 238q11 18 23 25t36 7h94zM162 0v995h52q26 0 30 -25l9 -150q68 86 158.5 138.5t201.5 52.5q82 0 144.5 -26t103.5 -75t62 -118t21 -156v-636h-95v636q0 140 -64 219.5t-196 79.5q-98 0 -182 -50.5 t-150 -138.5v-746h-95z"/>
<glyph glyph-name="OE" horiz-adv-x="2227" unicode="Œ" d="M1255 708q0 148 -37 266t-104.5 200.5t-162 126.5t-209.5 44q-114 0 -209 -44t-162.5 -126.5t-105 -200.5t-37.5 -266q0 -149 37.5 -267t105 -199.5t162.5 -125t209 -43.5q115 0 209.5 43.5t162 125t104.5 199.5t37 267zM2103 1330h-745v-572h620v-83h-620v-590h745v-85 h-837v334q-37 -82 -90.5 -146.5t-121.5 -109t-149.5 -68t-174.5 -23.5q-135 0 -246.5 51t-191.5 145.5t-124.5 227.5t-44.5 297q0 163 44.5 296.5t124.5 228t191.5 146.5t246.5 52q93 0 174.5 -24t149.5 -69t121.5 -109.5t90.5 -146.5v333h837v-85z"/>
<glyph glyph-name="oe" horiz-adv-x="1717" unicode="œ" d="M1264 940q-72 0 -129.5 -26t-98.5 -73t-65.5 -114t-30.5 -149h599q0 85 -20 152.5t-56.5 114t-87 71t-111.5 24.5zM516 62q82 0 143.5 30.5t102.5 87.5t61.5 137.5t20.5 180.5q0 99 -20.5 180t-61.5 138.5t-102.5 88.5t-143.5 31q-83 0 -145 -31t-103.5 -88.5t-62 -138.5 t-20.5 -180q0 -100 20.5 -180.5t62 -137.5t103.5 -87.5t145 -30.5zM1266 1011q75 0 140.5 -30t113.5 -87.5t75.5 -142.5t27.5 -196q0 -22 -5.5 -30t-19.5 -8h-660q0 -112 24 -197t68.5 -142t106.5 -86t138 -29q67 0 116.5 16.5t84 37t55 37t31.5 16.5q12 0 19 -10l26 -32 q-23 -30 -60 -56t-82 -44.5t-95.5 -29.5t-102.5 -11q-135 0 -232 74.5t-141 220.5q-42 -139 -140 -217t-246 -78q-98 0 -176 36t-132.5 103t-83.5 161t-29 211t29 211.5t83.5 161.5t133.5 103.5t178 36.5q144 0 241 -77t139 -212q20 66 54.5 119t81.5 91t107 58.5t132 20.5z "/>
<glyph glyph-name="Sacute" horiz-adv-x="1082" unicode="Ś" d="M853 1770l-292 -216q-10 -7 -18.5 -9.5t-20.5 -2.5h-70l227 206q14 13 26 17.5t36 4.5h112zM894 1243q-9 -17 -26 -17q-13 0 -33.5 18.5t-55.5 41t-87.5 41.5t-129.5 19t-135.5 -22t-98 -60t-60 -88t-20.5 -105q0 -72 30.5 -119t80.5 -80t113.5 -55.5t130.5 -44.5 t130.5 -48.5t113.5 -66.5t80.5 -98.5t30.5 -145.5q0 -89 -30.5 -167.5t-88.5 -136.5t-142 -91.5t-192 -33.5q-140 0 -241 49.5t-177 135.5l28 44q12 15 28 15q9 0 23 -12t34 -29.5t48 -38t65 -38t85 -29.5t109 -12q84 0 150 25.5t111.5 69.5t69.5 104.5t24 129.5 q0 75 -30.5 123.5t-80.5 81t-113.5 54.5t-130.5 43t-130.5 47t-113.5 66.5t-80.5 101t-30.5 151.5q0 71 27 137t79 116.5t128.5 81t174.5 30.5q110 0 197.5 -35t159.5 -107z"/>
<glyph glyph-name="sacute" horiz-adv-x="860" unicode="ś" d="M705 1431l-216 -253q-8 -10 -16.5 -13.5t-20.5 -3.5h-57l157 238q11 18 23 25t36 7h94zM710 872q-7 -14 -22 -14q-11 0 -28.5 12.5t-46 28t-70 28t-101.5 12.5q-54 0 -98.5 -15.5t-76 -41.5t-49 -60.5t-17.5 -72.5q0 -47 24 -78t63 -53t88.5 -38t101.5 -32t101.5 -35.5 t88.5 -48.5t63 -71t24 -102q0 -65 -23.5 -121t-68 -97t-109.5 -65t-148 -24q-105 0 -181 33.5t-136 87.5l23 34q5 8 11 12t17 4q13 0 32 -16t49.5 -34.5t76 -34.5t112.5 -16q63 0 111 17.5t80 47.5t48.5 70.5t16.5 85.5q0 50 -24 83t-63 56t-88.5 39t-102 32t-102 35 t-88.5 48t-63 70.5t-24 103.5q0 53 23 102t65.5 86t103.5 59t137 22q91 0 161.5 -26t129.5 -80z"/>
<glyph glyph-name="Scedilla" horiz-adv-x="1045" unicode="Ş" d="M384 -273q5 0 13.5 -5.5t22 -12t33.5 -12t49 -5.5q51 0 79.5 22t28.5 60q0 25 -13 41.5t-37 27.5t-56.5 17t-71.5 11l35 114q-116 6 -203 48q-101 50 -177 136l28 44q12 15 28 15q9 0 23 -12t34 -29.5t48 -38t65 -38t85 -29.5t109 -12q84 0 150 25.5t111.5 69.5 t69.5 104.5t24 129.5q0 75 -30.5 123.5t-80.5 81t-113.5 54.5t-130.5 43t-130.5 47t-113.5 66.5t-80.5 101t-30.5 151.5q0 71 27 137t79 116.5t128.5 81t174.5 30.5q110 0 197.5 -35t159.5 -107l-24 -46q-9 -17 -26 -17q-13 0 -33.5 18.5t-55.5 41t-87.5 41.5t-129.5 19 t-135.5 -22t-98 -60t-60 -88t-20.5 -105q0 -72 30.5 -119t80.5 -80t113.5 -55.5t130.5 -44.5t130.5 -48.5t113.5 -66.5t80.5 -98.5t30.5 -145.5q0 -89 -30.5 -167.5t-88.5 -136.5t-142 -92q-75 -29 -169 -32l-23 -76q89 -16 135.5 -46t46.5 -89q0 -30 -13.5 -54t-38 -40.5 t-58.5 -25.5t-74 -9q-41 0 -80 11.5t-65 30.5l10 28q6 12 16 12z"/>
<glyph glyph-name="scedilla" horiz-adv-x="860" unicode="ş" d="M291 -273q5 0 13.5 -5.5t22 -12t33.5 -12t49 -5.5q51 0 79.5 22t28.5 60q0 25 -13 41.5t-37 27.5t-56.5 17t-71.5 11l35 114q-85 4 -149 32q-76 34 -136 88l23 34q5 8 11 12t17 4q13 0 32 -16t49.5 -34.5t76 -34.5t112.5 -16q63 0 111 17.5t80 47.5t48.5 70.5t16.5 85.5 q0 50 -24 83t-63 56t-88.5 39t-102 32t-102 35t-88.5 48t-63 70.5t-24 103.5q0 53 23 102t65.5 86t103.5 59t137 22q91 0 161.5 -26t129.5 -80l-21 -33q-7 -14 -22 -14q-11 0 -28.5 12.5t-46 28t-70 28t-101.5 12.5q-54 0 -98.5 -15.5t-76 -41.5t-49 -60.5t-17.5 -72.5 q0 -47 24 -78t63 -53t88.5 -38t101.5 -32t101.5 -35.5t88.5 -48.5t63 -71t24 -102q0 -65 -23.5 -121t-68 -97t-109.5 -65q-53 -19 -119 -23l-23 -76q89 -16 135.5 -46t46.5 -89q0 -30 -13.5 -54t-38 -40.5t-58.5 -25.5t-74 -9q-41 0 -80 11.5t-65 30.5l10 28q6 12 16 12z "/>
<glyph glyph-name="Scaron" horiz-adv-x="1045" unicode="Š" d="M293 1741h74q8 0 17 -2.5t16 -7.5l157 -123q8 -6 11 -9l5 -5q2 2 5 4.5t12 9.5l156 123q7 5 16.5 7.5t17.5 2.5h73l-235 -199h-90zM894 1243q-9 -17 -26 -17q-13 0 -33.5 18.5t-55.5 41t-87.5 41.5t-129.5 19t-135.5 -22t-98 -60t-60 -88t-20.5 -105q0 -72 30.5 -119 t80.5 -80t113.5 -55.5t130.5 -44.5t130.5 -48.5t113.5 -66.5t80.5 -98.5t30.5 -145.5q0 -89 -30.5 -167.5t-88.5 -136.5t-142 -91.5t-192 -33.5q-140 0 -241 49.5t-177 135.5l28 44q12 15 28 15q9 0 23 -12t34 -29.5t48 -38t65 -38t85 -29.5t109 -12q84 0 150 25.5 t111.5 69.5t69.5 104.5t24 129.5q0 75 -30.5 123.5t-80.5 81t-113.5 54.5t-130.5 43t-130.5 47t-113.5 66.5t-80.5 101t-30.5 151.5q0 71 27 137t79 116.5t128.5 81t174.5 30.5q110 0 197.5 -35t159.5 -107z"/>
<glyph glyph-name="scaron" horiz-adv-x="860" unicode="š" d="M195 1415h67q16 0 27 -11l156 -163l11 -13l11 13l156 163q5 6 12.5 8.5t14.5 2.5h65l-217 -246h-85zM710 872q-7 -14 -22 -14q-11 0 -28.5 12.5t-46 28t-70 28t-101.5 12.5q-54 0 -98.5 -15.5t-76 -41.5t-49 -60.5t-17.5 -72.5q0 -47 24 -78t63 -53t88.5 -38t101.5 -32 t101.5 -35.5t88.5 -48.5t63 -71t24 -102q0 -65 -23.5 -121t-68 -97t-109.5 -65t-148 -24q-105 0 -181 33.5t-136 87.5l23 34q5 8 11 12t17 4q13 0 32 -16t49.5 -34.5t76 -34.5t112.5 -16q63 0 111 17.5t80 47.5t48.5 70.5t16.5 85.5q0 50 -24 83t-63 56t-88.5 39t-102 32 t-102 35t-88.5 48t-63 70.5t-24 103.5q0 53 23 102t65.5 86t103.5 59t137 22q91 0 161.5 -26t129.5 -80z"/>
<glyph glyph-name="Ydieresis" horiz-adv-x="1199" unicode="Ÿ" d="M889 1665q0 -16 -6.5 -30.5t-18 -25t-26 -17t-30.5 -6.5q-17 0 -31.5 6.5t-25.5 17t-17.5 25t-6.5 30.5q0 33 24 57.5t57 24.5q16 0 30.5 -6.5t26 -18t18 -26.5t6.5 -31zM473 1665q0 -16 -7 -30.5t-18 -25t-26 -17t-31 -6.5t-30.5 6.5t-25.5 17t-17.5 25t-6.5 30.5 t6.5 31t17.5 26.5t25.5 18t30.5 6.5t31 -6.5t26 -18t18 -26.5t7 -31zM651 584v-584h-103v584l-523 831h89q14 0 22.5 -6.5t16.5 -18.5l405 -650q14 -23 24 -44.5t18 -43.5q8 22 18 43.5t24 44.5l404 650q6 11 15 18t23 7h90z"/>
<glyph glyph-name="Zacute" horiz-adv-x="1266" unicode="Ź" d="M946 1770l-292 -216q-10 -7 -18.5 -9.5t-20.5 -2.5h-70l227 206q14 13 26 17.5t36 4.5h112zM1163 1415v-35q0 -21 -14 -41l-898 -1254h904v-85h-1040v37q0 19 12 36l900 1257h-886v85h1022z"/>
<glyph glyph-name="zacute" horiz-adv-x="904" unicode="ź" d="M698 1431l-216 -253q-8 -10 -16.5 -13.5t-20.5 -3.5h-57l157 238q11 18 23 25t36 7h94zM826 955q0 -21 -14 -38l-623 -842h612v-75h-727v38q0 17 15 37l625 845h-607v75h719v-40z"/>
<glyph glyph-name="Zdotaccent" horiz-adv-x="1266" unicode="Ż" d="M742 1677q0 -17 -7.5 -32.5t-19.5 -27t-28 -18.5t-33 -7t-32.5 7t-27 18.5t-18.5 27t-7 32.5q0 18 7 33.5t18.5 27.5t27 19t32.5 7t33 -7t28 -19t19.5 -27.5t7.5 -33.5zM1163 1415v-35q0 -21 -14 -41l-898 -1254h904v-85h-1040v37q0 19 12 36l900 1257h-886v85h1022z"/>
<glyph glyph-name="zdotaccent" horiz-adv-x="904" unicode="ż" d="M562 1350q0 -18 -7.5 -33.5t-19.5 -27.5t-28 -19t-34 -7t-34 7t-28 19t-19 27.5t-7 33.5t7 34.5t19 28.5t28 19t34 7t34 -7t28 -19t19.5 -28.5t7.5 -34.5zM826 955q0 -21 -14 -38l-623 -842h612v-75h-727v38q0 17 15 37l625 845h-607v75h719v-40z"/>
<glyph glyph-name="Zcaron" horiz-adv-x="1266" unicode="Ž" d="M375 1741h74q8 0 17 -2.5t16 -7.5l157 -123q8 -6 11 -9l5 -5q2 2 5 4.5t12 9.5l156 123q7 5 16.5 7.5t17.5 2.5h73l-235 -199h-90zM1163 1415v-35q0 -21 -14 -41l-898 -1254h904v-85h-1040v37q0 19 12 36l900 1257h-886v85h1022z"/>
<glyph glyph-name="zcaron" horiz-adv-x="904" unicode="ž" d="M213 1415h67q16 0 27 -11l156 -163l11 -13l11 13l156 163q5 6 12.5 8.5t14.5 2.5h65l-217 -246h-85zM826 955q0 -21 -14 -38l-623 -842h612v-75h-727v38q0 17 15 37l625 845h-607v75h719v-40z"/>
<glyph glyph-name="florin" d="M635 797l-96 -784q-12 -98 -46 -168t-88 -116t-126.5 -67.5t-160.5 -21.5v48q0 32 36 32q51 1 99 16.5t87 50.5t66.5 91t37.5 138l95 778l-192 10q-26 2 -26 25v39h227l24 191q23 192 131 283t290 91v-51q0 -30 -36 -30q-53 0 -101 -15.5t-87 -50.5t-66.5 -91t-37.5 -138 l-25 -189h357v-71h-362z" unicode="ƒ"/>
<glyph glyph-name="circumflex" horiz-adv-x="585" unicode="ˆ" d="M552 1169h-65q-16 0 -27 12l-156 163q-6 4 -11 11q-2 -4 -5 -6.5t-5 -4.5l-157 -163q-5 -5 -12 -8.5t-15 -3.5h-67l218 246h85z"/>
<glyph glyph-name="caron" horiz-adv-x="585" unicode="ˇ" d="M32 1415h67q16 0 27 -11l156 -163l11 -13l11 13l156 163q5 6 12.5 8.5t14.5 2.5h65l-217 -246h-85z"/>
<glyph glyph-name="uni02C9" horiz-adv-x="585" unicode="ˉ" d="M20 1317h545v-65h-545v65z"/>
<glyph glyph-name="breve" horiz-adv-x="585" unicode="˘" d="M292 1168q-66 0 -111.5 19.5t-74 53.5t-41 79t-12.5 95h69q0 -37 8.5 -70t28.5 -58t52.5 -39.5t80.5 -14.5t80.5 14.5t53 39.5t29 58t8.5 70h69q0 -50 -13 -95t-41.5 -79t-74 -53.5t-111.5 -19.5z"/>
<glyph glyph-name="dotaccent" horiz-adv-x="585" unicode="˙" d="M381 1350q0 -18 -7.5 -33.5t-19.5 -27.5t-28 -19t-34 -7t-34 7t-28 19t-19 27.5t-7 33.5t7 34.5t19 28.5t28 19t34 7t34 -7t28 -19t19.5 -28.5t7.5 -34.5z"/>
<glyph glyph-name="ring" horiz-adv-x="585" unicode="˚" d="M178 1302q0 -50 32 -82t83 -32q50 0 82 32t32 82t-32 82t-82 32q-51 0 -83 -32t-32 -82zM120 1302q0 36 13.5 66t37 51.5t55 34t66.5 12.5t66.5 -12.5t55 -34t37.5 -51.5t14 -66t-14 -65.5t-37.5 -51.5t-55 -34t-66.5 -12t-66.5 12t-55 34t-37 51.5t-13.5 65.5z"/>
<glyph glyph-name="ogonek" horiz-adv-x="585" unicode="˛" d="M438 -243q10 0 13 -8l16 -34q-28 -24 -70 -38.5t-89 -14.5q-76 0 -123 37.5t-47 103.5q0 34 14 64.5t36.5 57.5t50.5 49t57 39l49 -13q-20 -11 -43 -28t-43 -39.5t-33.5 -50t-13.5 -58.5q0 -48 32 -74.5t82 -26.5q28 0 47 5.5t32 11.5t20.5 11.5t12.5 5.5z"/>
<glyph glyph-name="tilde" horiz-adv-x="585" unicode="˜" d="M407 1280q43 0 65 27.5t23 74.5h59q0 -36 -9.5 -67.5t-28 -54.5t-45.5 -36t-61 -13q-33 0 -62.5 16.5t-56.5 36t-52.5 36t-51.5 16.5q-42 0 -64 -28.5t-24 -73.5h-61q0 36 10 67.5t29 54.5t46 36t61 13t63.5 -16.5t56 -36t52 -36t51.5 -16.5z"/>
<glyph glyph-name="hungarumlaut" horiz-adv-x="585" unicode="˝" d="M673 1431l-231 -253q-8 -10 -16.5 -13.5t-20.5 -3.5h-47l182 238q13 17 24 24.5t35 7.5h74zM401 1431l-198 -253q-8 -10 -16.5 -13.5t-20.5 -3.5h-42l152 238q11 17 23 24.5t36 7.5h66z"/>
<glyph glyph-name="pi" horiz-adv-x="1174" unicode="π" d="M1139 995v-36q0 -14 -9.5 -25t-27.5 -11h-172v-923h-95v923h-468v-707q0 -110 -54.5 -168t-159.5 -58q-31 0 -57 4.5t-50 18.5l5 39q5 14 18 14q9 0 23 -2.5t37 -2.5q143 0 143 156v706h-202v34q0 13 10.5 25.5t30.5 12.5h1028z"/>
<glyph glyph-name="endash" horiz-adv-x="1082" unicode="–" d="M147 614h787v-71h-787v71z"/>
<glyph glyph-name="emdash" horiz-adv-x="1591" unicode="—" d="M147 614h1297v-71h-1297v71z"/>
<glyph glyph-name="quoteleft" horiz-adv-x="395" unicode="‘" d="M171 1057q-21 38 -31 75.5t-10 75.5q0 78 38 150t99 131l27 -18q8 -6 8 -14q0 -7 -6 -13q-38 -51 -63 -101t-25 -104q0 -59 35 -120q5 -8 5 -16q0 -14 -15 -20z"/>
<glyph glyph-name="quoteright" horiz-adv-x="395" unicode="’" d="M240 1477q22 -38 32 -75.5t10 -75.5q0 -78 -38 -150t-99 -131l-28 18q-7 6 -7 14t6 14q38 50 63 100.5t25 104.5q0 58 -35 119q-5 8 -5 16q0 14 15 20z"/>
<glyph glyph-name="quotesinglbase" horiz-adv-x="395" unicode="‚" d="M240 176q22 -38 32 -75.5t10 -75.5q0 -78 -38 -150t-99 -131l-28 18q-7 6 -7 14t6 14q38 50 63 100.5t25 104.5q0 58 -35 119q-5 8 -5 16q0 14 15 20z"/>
<glyph glyph-name="quotedblleft" horiz-adv-x="665" unicode="“" d="M440 1057q-21 38 -31 75.5t-10 75.5q0 78 38 150t99 131l27 -18q8 -6 8 -14q0 -7 -6 -13q-38 -51 -63 -101t-25 -104q0 -59 35 -120q5 -8 5 -16q0 -14 -15 -20zM171 1057q-21 38 -31 75.5t-10 75.5q0 78 38 150t99 131l27 -18q8 -6 8 -14q0 -7 -6 -13q-38 -51 -63 -101 t-25 -104q0 -59 35 -120q5 -8 5 -16q0 -14 -15 -20z"/>
<glyph glyph-name="quotedblright" horiz-adv-x="665" unicode="”" d="M509 1477q22 -38 32 -75.5t10 -75.5q0 -78 -38 -150t-99 -131l-28 18q-7 6 -7 14t6 14q38 50 63 100.5t25 104.5q0 58 -35 119q-5 8 -5 16q0 14 15 20zM240 1477q22 -38 32 -75.5t10 -75.5q0 -78 -38 -150t-99 -131l-28 18q-7 6 -7 14t6 14q38 50 63 100.5t25 104.5 q0 58 -35 119q-5 8 -5 16q0 14 15 20z"/>
<glyph glyph-name="quotedblbase" horiz-adv-x="665" unicode="„" d="M509 176q22 -38 32 -75.5t10 -75.5q0 -78 -38 -150t-99 -131l-28 18q-7 6 -7 14t6 14q38 50 63 100.5t25 104.5q0 58 -35 119q-5 8 -5 16q0 14 15 20zM240 176q22 -38 32 -75.5t10 -75.5q0 -78 -38 -150t-99 -131l-28 18q-7 6 -7 14t6 14q38 50 63 100.5t25 104.5 q0 58 -35 119q-5 8 -5 16q0 14 15 20z"/>
<glyph glyph-name="dagger" d="M160 924q0 17 11.5 31t34.5 14q77 -2 164 -9.5t170 -10.5l-13 483q23 13 51 13q27 0 50 -13l-13 -483q82 3 169 10.5t165 9.5q23 0 35 -14t12 -31v-32h-381v-495l13 -746q-23 -13 -50 -13q-28 0 -51 13l13 746v495h-380v32z" unicode="†"/>
<glyph glyph-name="daggerdbl" d="M160 190h380v702h-380v32q0 17 11.5 31t34.5 14q77 -2 164 -9.5t170 -10.5l-13 483q23 13 51 13q27 0 50 -13l-13 -483q82 3 169 10.5t165 9.5q23 0 35 -14t12 -31v-32h-381v-702h381v-32q0 -17 -12 -30.5t-35 -13.5q-78 2 -165 9.5t-169 10.5l13 -483q-23 -13 -50 -13 q-28 0 -51 13l13 483q-83 -3 -170 -10.5t-164 -9.5q-23 0 -34.5 13.5t-11.5 30.5v32z" unicode="‡"/>
<glyph glyph-name="bullet" d="M286 596q0 61 23 115t63 94.5t93 63.5t113 23q61 0 115 -23t94 -63.5t63 -94.5t23 -115q0 -60 -23 -112.5t-63 -92.5t-94 -63t-115 -23q-60 0 -113 23t-93 63t-63 92.5t-23 112.5z" unicode="•"/>
<glyph glyph-name="ellipsis" horiz-adv-x="1376" unicode="…" d="M595 77q0 19 7 36t19.5 29.5t29 20t36.5 7.5q19 0 36 -7.5t29.5 -20t20 -29.5t7.5 -36q0 -20 -7.5 -36.5t-20 -29t-29.5 -19.5t-36 -7q-39 0 -65.5 26.5t-26.5 65.5zM1086 77q0 19 7 36t19.5 29.5t29 20t36.5 7.5q19 0 36 -7.5t29.5 -20t20 -29.5t7.5 -36 q0 -20 -7.5 -36.5t-20 -29t-29.5 -19.5t-36 -7q-39 0 -65.5 26.5t-26.5 65.5zM105 77q0 19 7 36t19.5 29.5t29 20t36.5 7.5q19 0 36 -7.5t29.5 -20t20 -29.5t7.5 -36q0 -20 -7.5 -36.5t-20 -29t-29.5 -19.5t-36 -7q-39 0 -65.5 26.5t-26.5 65.5z"/>
<glyph glyph-name="perthousand" horiz-adv-x="2258" unicode="‰" d="M2094 336q0 77 -17.5 132.5t-47.5 91t-70.5 52t-85.5 16.5t-85.5 -16.5t-70.5 -52t-47.5 -91t-17.5 -132.5t17.5 -131.5t47.5 -89.5t70.5 -51t85.5 -16t85.5 16t70.5 51t47.5 89.5t17.5 131.5zM2170 336q0 -87 -24 -153.5t-64.5 -110.5t-94.5 -66.5t-114 -22.5 q-62 0 -116.5 22.5t-94.5 66.5t-63 110.5t-23 153.5q0 88 23 155t63 111.5t94.5 67t116.5 22.5t116 -22.5t94.5 -67t63.5 -111.5t23 -155zM1370 336q0 77 -17.5 132.5t-47.5 91t-70.5 52t-85.5 16.5t-85.5 -16.5t-70.5 -52t-47.5 -91t-17.5 -132.5t17.5 -131.5t47.5 -89.5 t70.5 -51t85.5 -16t85.5 16t70.5 51t47.5 89.5t17.5 131.5zM1446 336q0 -87 -24 -153.5t-64.5 -110.5t-94.5 -66.5t-114 -22.5q-62 0 -116.5 22.5t-94.5 66.5t-63 110.5t-23 153.5q0 88 23 155t63 111.5t94.5 67t116.5 22.5t116 -22.5t94.5 -67t63.5 -111.5t23 -155z M1219 1397q6 8 14.5 13t22.5 5h67l-1016 -1397q-13 -18 -35 -18h-68zM606 1075q0 77 -17.5 132t-48 90.5t-71 52t-85.5 16.5t-85 -16.5t-70 -52t-47.5 -90.5t-17.5 -132t17.5 -131.5t47.5 -89.5t70 -51.5t85 -16.5t85.5 16.5t71 51.5t48 89.5t17.5 131.5zM682 1075 q0 -87 -24 -153.5t-65 -110.5t-95 -66.5t-114 -22.5q-62 0 -116.5 22.5t-94.5 66.5t-63 110.5t-23 153.5q0 88 23 155t63 111.5t94.5 67t116.5 22.5t116 -22.5t94.5 -67t64 -111.5t23.5 -155z"/>
<glyph glyph-name="guilsinglleft" horiz-adv-x="619" unicode="‹" d="M155 513v13l241 378l30 -15q16 -10 16 -25q0 -12 -7 -23l-183 -293q-13 -20 -22 -29q10 -8 22 -28l183 -294q7 -11 7 -23q0 -15 -16 -25l-30 -15z"/>
<glyph glyph-name="guilsinglright" horiz-adv-x="619" unicode="›" d="M223 134l-30 15q-17 9 -17 26q0 11 7 22l183 294q6 11 11.5 17.5t10.5 10.5q-5 5 -10.5 11.5t-11.5 17.5l-183 293q-7 11 -7 23q0 16 17 25l30 15l241 -378v-13z"/>
<glyph glyph-name="fraction" horiz-adv-x="497" unicode="⁄" d="M-107 31q-11 -18 -24.5 -24.5t-30.5 -6.5h-40l800 1380q10 17 22.5 26t32.5 9h42z"/>
<glyph glyph-name="Euro" d="M31 863h164q16 132 61 237t114 178t160 112t201 39q64 0 118.5 -11.5t101 -33.5t87 -54.5t77.5 -75.5l-31 -35q-4 -5 -9 -8.5t-13 -3.5t-19 10.5t-28 25.5t-41.5 33.5t-58 33.5t-78 25.5t-102.5 10.5q-90 0 -165 -31.5t-131.5 -92.5t-93.5 -151t-52 -208h602v-30 q0 -11 -7.5 -19.5t-24.5 -8.5h-576q-3 -47 -3 -97q0 -21 0.5 -40.5t1.5 -39.5h517v-30q0 -12 -8 -20.5t-23 -8.5h-481q13 -124 49 -218t92 -157t131 -95t165 -32q62 0 109.5 12t83.5 30.5t62 40t44 40t30.5 30.5t21.5 12q10 0 19 -9l37 -35q-36 -46 -78 -83.5t-93 -64 t-111 -41t-130 -14.5q-113 0 -205 39t-159.5 114t-109.5 183.5t-56 247.5h-162v59h157q-1 20 -1.5 39.5t-0.5 40.5q0 49 3 97h-158v58z" unicode="€"/>
<glyph glyph-name="trademark" horiz-adv-x="1427" unicode="™" d="M543 1415v-59h-199v-516h-71v516h-201v59h471zM979 1010q5 16 13 29l213 364q5 8 9.5 10t14.5 2h57v-575h-62v443l5 44l-219 -380q-8 -16 -25 -16h-11q-17 0 -25 16l-223 378l5 -42v-443h-63v575h57q10 0 14.5 -2t11.5 -10l217 -364z"/>
<glyph glyph-name="Omega" horiz-adv-x="1510" unicode="Ω" d="M867 0v363q96 20 175 59.5t136 99t88 140t31 183.5q0 126 -43 220t-117 157t-172.5 94.5t-209.5 31.5t-209.5 -31.5t-172.5 -94.5t-117 -157t-43 -220q0 -103 31 -183.5t87.5 -140t135.5 -99t175 -59.5v-363h-501q-17 0 -27 10t-10 26v52h457v222q-98 22 -181 68 t-143.5 114t-94.5 158t-34 199q0 137 50.5 245t138.5 183t205.5 114.5t252.5 39.5t252.5 -39.5t205 -114.5t138 -183t50.5 -245q0 -109 -34 -199t-94 -158t-143 -114t-181 -68v-222h456v-52q0 -16 -10 -26t-27 -10h-501z"/>
<glyph glyph-name="partialdiff" d="M498 64q82 0 152.5 35.5t126 102t95 162t59.5 216.5q-10 51 -31.5 100.5t-57 88.5t-86 62.5t-119.5 23.5q-98 0 -175 -36.5t-130.5 -100t-82 -150t-28.5 -186.5q0 -75 20 -134t56.5 -100t87.5 -62.5t113 -21.5zM401 1341q36 24 69.5 41.5t67 28.5t69 16.5t75.5 5.5 q87 0 155.5 -36t116 -104t72.5 -166.5t25 -224.5q0 -195 -35.5 -362t-106.5 -290t-177 -192.5t-246 -69.5q-81 0 -147.5 27t-114.5 78t-74.5 123.5t-26.5 163.5q0 114 36.5 214.5t102.5 175.5t158.5 118t205.5 43q53 0 102.5 -13.5t92.5 -42t77 -72t56 -102.5q3 29 5 58.5 t2.5 56t1 49t0.5 38.5q0 218 -75 335t-217 117q-49 0 -86.5 -10.5t-65.5 -22.5t-46.5 -22.5t-28.5 -10.5q-7 0 -12.5 3.5t-10.5 13.5z" unicode="∂"/>
<glyph glyph-name="Delta" horiz-adv-x="1304" unicode="∆" d="M156 83h992l-470 1146q-14 33 -26 76q-6 -22 -12.5 -41t-13.5 -36zM606 1415h92l589 -1415h-1270z"/>
<glyph glyph-name="product" horiz-adv-x="1364" unicode="∏" d="M1286 1415v-82h-210v-1685h-98v1685h-593v-1685h-98v1685h-210v82h1209z"/>
<glyph glyph-name="summation" horiz-adv-x="1364" unicode="∑" d="M87 1415h1189v-82h-1040l645 -788v-26l-645 -789h1040v-82h-1189v36q0 18 11 32l673 817l-672 814q-12 13 -12 32v36z"/>
<glyph glyph-name="minus" d="M164 707h829v-73h-829v73z" unicode="−"/>
<glyph glyph-name="radical" horiz-adv-x="1123" unicode="√" d="M309 690h-230q-16 0 -27.5 9.5t-11.5 31.5v30h314q15 0 23.5 -7.5t12.5 -17.5l207 -539q14 -46 20 -87q6 37 16 76l488 1509q4 11 13 17.5t21 6.5h58l-558 -1719h-79z"/>
<glyph glyph-name="infinity" horiz-adv-x="1364" unicode="∞" d="M1003 360q43 0 81.5 15.5t67 44.5t45 72t16.5 99q0 55 -16.5 98t-45 72t-67 44.5t-81.5 15.5q-45 0 -82.5 -19t-70.5 -51t-62.5 -74t-59.5 -87q30 -45 59.5 -86.5t62.5 -73.5t70.5 -51t82.5 -19zM365 360q44 0 81.5 19t70.5 51t62.5 73.5t59.5 86.5q-30 45 -59.5 87 t-62.5 74t-70.5 51t-81.5 19t-82.5 -15.5t-67.5 -44.5t-45.5 -72t-16.5 -98q0 -56 16.5 -99t45.5 -72t67.5 -44.5t82.5 -15.5zM1006 282q-55 0 -101 20t-85 53t-72.5 76.5t-64.5 90.5q-31 -47 -64.5 -90t-72.5 -76.5t-84.5 -53.5t-100.5 -20q-57 0 -109 21.5t-91.5 61.5 t-63 97.5t-23.5 128.5t23.5 128t63 97t91.5 61.5t109 21.5q55 0 100.5 -20t84.5 -53.5t72.5 -77t64.5 -89.5q31 46 64.5 89.5t72.5 77t85 53.5t101 20q57 0 109 -21.5t91.5 -61.5t63 -97t23.5 -128t-23.5 -128.5t-63 -97.5t-91.5 -61.5t-109 -21.5z"/>
<glyph glyph-name="integral" horiz-adv-x="770" unicode="∫" d="M392 1086q10 87 39 152t72 107.5t98.5 64t119.5 21.5q39 0 67.5 -5.5t54.5 -18.5l-5 -43q-3 -10 -9.5 -12.5t-20.5 -2.5q-11 0 -26 0.5t-37 0.5q-52 0 -96 -16t-77.5 -50t-56 -85.5t-31.5 -123.5l-132 -1062q-12 -99 -43.5 -169.5t-78 -115.5t-106.5 -66t-129 -21 q-33 0 -65.5 4.5t-56.5 18.5l7 39q3 9 8 12t15 3q11 0 28 -2t45 -2q60 0 108 16t83.5 51.5t59 92t33.5 137.5z"/>
<glyph glyph-name="approxequal" d="M781 494q52 0 96 22.5t65 50.5l19 -58q-29 -43 -79 -66t-106 -23q-52 0 -102.5 18t-100 40t-97.5 40t-94 18q-55 0 -98.5 -22.5t-64.5 -51.5l-21 56q30 45 79.5 68.5t109.5 23.5q52 0 103 -18t100.5 -40t97 -40t93.5 -18zM781 810q52 0 96 22.5t65 50.5l19 -58 q-29 -43 -79 -66.5t-106 -23.5q-52 0 -102.5 18t-100 40t-97.5 40t-94 18q-55 0 -98.5 -22.5t-64.5 -51.5l-21 56q30 45 79.5 69t109.5 24q52 0 103 -18t100.5 -40t97 -40t93.5 -18z" unicode="≈"/>
<glyph glyph-name="notequal" d="M166 869h476l117 267h71l-116 -267h279v-74h-312l-104 -239h416v-74h-448l-118 -271h-72l118 271h-307v74h340l104 239h-444v74z" unicode="≠"/>
<glyph glyph-name="lessequal" d="M160 153h750v-73h-750v73zM160 729l750 374v-62q0 -11 -6.5 -20t-23.5 -17l-550 -271q-17 -8 -36.5 -13.5t-40.5 -10.5q21 -5 40.5 -11t36.5 -14l549 -272q17 -9 24 -17t7 -19v-63l-750 376v40z" unicode="≤"/>
<glyph glyph-name="greaterequal" d="M1000 80h-750v73h750v-73zM1000 729v-40l-750 -376v63q0 11 6.5 19.5t23.5 16.5l550 272q17 8 36 14t40 11q-21 5 -40 10.5t-36 13.5l-550 271q-17 8 -23.5 17t-6.5 20v62z" unicode="≥"/>
<glyph glyph-name="lozenge" d="M227 678l332 -685q8 -15 12.5 -29.5t7.5 -28.5q4 14 8.5 28t12.5 30l334 685l-334 685q-8 16 -12.5 30t-8.5 28q-4 -14 -9 -28t-11 -30zM145 678l402 832h66l402 -832l-402 -832h-66z" unicode="◊"/>
<glyph glyph-name="uni2669" horiz-adv-x="0" unicode="♩" d="M-2 1455h4v-1807h-4v1807z"/>
<glyph glyph-name="fl" horiz-adv-x="1132" unicode="ﬂ" d="M199 0v891l-140 9q-29 2 -29 25v39h169v65q0 88 26 163.5t76 130.5t124.5 86t170.5 31q34 0 70.5 -2t71 -5t64.5 -5t51 -2h72v-1426h-95v1359q-54 2 -113.5 6t-107.5 4q-75 0 -134 -23.5t-99.5 -68t-62 -107.5t-21.5 -141v-65h288v-71h-286v-893h-95z"/>
<glyph glyph-name="undercommaaccent" d="M314 -91q15 0 19.5 -7.5t4.5 -19.5q0 -11 -3 -28t-10 -44t-18 -65.5t-27 -92.5q-5 -13 -13 -18.5t-24 -5.5h-32l48 281h55z" horiz-adv-x="585"/>
<glyph glyph-name="grave.case" d="M116 1770q24 0 35.5 -4.5t25.5 -17.5l228 -206h-71q-12 0 -20 2t-18 10l-293 216h113z" horiz-adv-x="585"/>
<glyph glyph-name="dieresis.case" d="M581 1665q0 -16 -6.5 -30.5t-18 -25t-26 -17t-30.5 -6.5q-17 0 -31.5 6.5t-25.5 17t-17.5 25t-6.5 30.5q0 33 24 57.5t57 24.5q16 0 30.5 -6.5t26 -18t18 -26.5t6.5 -31zM165 1665q0 -16 -7 -30.5t-18 -25t-26 -17t-31 -6.5t-30.5 6.5t-25.5 17t-17.5 25t-6.5 30.5 t6.5 31t17.5 26.5t25.5 18t30.5 6.5t31 -6.5t26 -18t18 -26.5t7 -31z" horiz-adv-x="585"/>
<glyph glyph-name="macron.case" d="M85 1649h415v-60h-415v60z" horiz-adv-x="585"/>
<glyph glyph-name="acute.case" d="M586 1770l-292 -216q-10 -7 -18.5 -9.5t-20.5 -2.5h-70l227 206q14 13 26 17.5t36 4.5h112z" horiz-adv-x="585"/>
<glyph glyph-name="circumflex.case" d="M572 1542h-73q-8 0 -17.5 2.5t-16.5 7.5l-156 123q-8 6 -11 9l-5 5q-2 -2 -5.5 -5t-11.5 -9l-157 -123q-7 -5 -16 -7.5t-17 -2.5h-74l235 199h90z" horiz-adv-x="585"/>
<glyph glyph-name="caron.case" d="M12 1741h74q8 0 17 -2.5t16 -7.5l157 -123q8 -6 11 -9l5 -5q2 2 5 4.5t12 9.5l156 123q7 5 16.5 7.5t17.5 2.5h73l-235 -199h-90z" horiz-adv-x="585"/>
<glyph glyph-name="breve.case" d="M292 1527q-124 0 -183 56t-59 158h64q0 -71 41 -111.5t137 -40.5t137 40.5t41 111.5h64q0 -98 -59 -156t-183 -58z" horiz-adv-x="585"/>
<glyph glyph-name="dotaccent.case" d="M379 1677q0 -17 -7.5 -32.5t-19.5 -27t-28 -18.5t-33 -7t-32.5 7t-27 18.5t-18.5 27t-7 32.5q0 18 7 33.5t18.5 27.5t27 19t32.5 7t33 -7t28 -19t19.5 -27.5t7.5 -33.5z" horiz-adv-x="585"/>
<glyph glyph-name="ring.case" d="M178 1630q0 -50 32 -82t83 -32q50 0 82 32t32 82t-32 82t-82 32q-51 0 -83 -32t-32 -82zM125 1630q0 34 13.5 63.5t36 50.5t53 33t64.5 12t65 -12t53.5 -33t36 -50.5t13.5 -63.5q0 -35 -13.5 -64t-36 -50t-53.5 -32.5t-65 -11.5t-64.5 11.5t-53 32.5t-36 50t-13.5 64z " horiz-adv-x="585"/>
<glyph glyph-name="tilde.case" d="M412 1616q42 0 64 27.5t23 70.5h54q0 -35 -9 -64.5t-26 -52t-43.5 -35t-60.5 -12.5q-33 0 -63 16t-58 34.5t-54.5 34.5t-53.5 16q-42 0 -63.5 -28t-23.5 -70h-56q0 34 9.5 64t27.5 52.5t44 35t60 12.5t64 -16t58 -34.5t54 -34.5t53 -16z" horiz-adv-x="585"/>
<glyph glyph-name="hungarumlaut.case" d="M692 1765l-230 -206q-11 -8 -19.5 -12.5t-20.5 -4.5h-52l181 191q15 15 28.5 23.5t37.5 8.5h75zM388 1765l-198 -206q-8 -9 -16.5 -13t-20.5 -4h-47l153 191q13 16 26.5 24t37.5 8h65z" horiz-adv-x="585"/>
<glyph glyph-name="caron.salt" d="M341 1457q15 0 19.5 -7.5t4.5 -19.5q0 -11 -3.5 -28.5t-11 -47t-20.5 -72t-31 -102.5q-5 -14 -13 -19.5t-24 -5.5h-32l51 302h60z" horiz-adv-x="585"/>
</font>
</defs>
</svg>
